osu file format v14

[General]
AudioFilename: audio.mp3
AudioLeadIn: 0
PreviewTime: 20753
Countdown: 0
SampleSet: Normal
StackLeniency: 0.7
Mode: 1
LetterboxInBreaks: 0
WidescreenStoryboard: 1

[Editor]
DistanceSpacing: 0.8
BeatDivisor: 4
GridSize: 32
TimelineZoom: 3.099999

[Metadata]
Title:The Sacred Engine
TitleUnicode:The Sacred Engine
Artist:The Panacea & C.A.2K
ArtistUnicode:The Panacea & C.A.2K
Creator:ZTH
Version:Oni
Source:
Tags:dnb drum and bass hardcore neurofunk PRSPCT PDCST 21 electronic instrumental
BeatmapID:4041870
BeatmapSetID:1951095

[Difficulty]
HPDrainRate:7
CircleSize:5
OverallDifficulty:6
ApproachRate:5
SliderMultiplier:1.4
SliderTickRate:1

[Events]
//Background and Video events
0,0,"d91q3e4-c1a654a0-afe1-4d71-954b-a1b4f45fe79e.jpg",0,-70
//Break Periods
//Storyboard Layer 0 (Background)
//Storyboard Layer 1 (Fail)
//Storyboard Layer 2 (Pass)
//Storyboard Layer 3 (Foreground)
//Storyboard Layer 4 (Overlay)
//Storyboard Sound Samples

[TimingPoints]
182,342.857142857143,4,1,0,50,1,0
182,-93.4579439252336,4,1,0,50,0,0
4296,342.857142857143,4,1,0,95,1,0
4296,-93.4579439252336,4,1,0,95,0,0
8407,-80,4,1,0,95,0,0
9436,-66.6666666666667,4,1,0,95,0,0
9779,-87.719298245614,4,1,0,95,0,0
20748,-66.6666666666667,4,1,0,95,0,0
21779,-87.719298245614,4,1,0,95,0,0
31724,-80,4,1,0,95,0,1
41324,-80,4,1,0,95,0,0
42696,-66.6666666666667,4,1,0,95,0,0
44067,-93.4579439252336,4,1,0,95,0,0
52295,-80,4,1,0,95,0,0
53321,-66.6666666666667,4,1,0,95,0,0
53664,-87.719298245614,4,1,0,95,0,0
64633,-66.6666666666667,4,1,0,95,0,0
65664,-87.719298245614,4,1,0,95,0,0
75606,-80,4,1,0,95,0,0
75610,-80,4,1,0,95,0,1
85210,-80,4,1,0,95,0,0
86581,-66.6666666666667,4,1,0,95,0,0
87952,-93.4579439252336,4,1,0,95,0,0
96179,-80,4,1,0,95,0,0
96180,-80,4,1,0,95,0,0
97206,-66.6666666666667,4,1,0,95,0,0
97551,-58.8235294117647,4,1,0,95,0,0

[HitObjects]
275,181,4296,5,0,0:0:0:0:
263,184,4467,1,0,0:0:0:0:
275,181,4638,1,0,0:0:0:0:
263,184,4810,1,0,0:0:0:0:
275,181,4981,1,0,0:0:0:0:
263,184,5153,1,0,0:0:0:0:
275,181,5324,1,0,0:0:0:0:
263,184,5496,1,0,0:0:0:0:
263,184,5667,1,0,0:0:0:0:
263,184,5838,1,0,0:0:0:0:
263,184,6010,1,0,0:0:0:0:
263,184,6181,1,0,0:0:0:0:
263,184,6353,1,0,0:0:0:0:
263,184,6524,1,0,0:0:0:0:
263,184,6696,1,0,0:0:0:0:
263,184,6867,1,0,0:0:0:0:
263,184,7038,1,8,0:0:0:0:
270,188,7124,1,8,0:0:0:0:
270,188,7210,1,0,0:0:0:0:
270,188,7381,1,8,0:0:0:0:
270,188,7553,1,8,0:0:0:0:
270,188,7638,1,8,0:0:0:0:
270,188,7724,1,0,0:0:0:0:
271,193,7810,1,0,0:0:0:0:
270,188,7896,1,8,0:0:0:0:
270,188,8067,1,8,0:0:0:0:
270,188,8153,1,0,0:0:0:0:
270,188,8238,1,8,0:0:0:0:
270,188,8410,1,0,0:0:0:0:
275,193,8496,1,0,0:0:0:0:
275,193,8581,1,0,0:0:0:0:
255,206,8667,1,0,0:0:0:0:
275,193,8753,1,8,0:0:0:0:
275,193,8924,1,8,0:0:0:0:
275,193,9010,1,8,0:0:0:0:
273,206,9096,1,0,0:0:0:0:
284,205,9438,1,12,0:0:0:0:
221,178,9781,1,4,0:0:0:0:
233,167,9953,1,0,0:0:0:0:
214,189,10038,1,0,0:0:0:0:
214,189,10124,1,8,0:0:0:0:
202,192,10296,1,8,0:0:0:0:
221,187,10381,1,0,0:0:0:0:
230,182,10553,1,0,0:0:0:0:
228,192,10638,1,8,0:0:0:0:
230,194,10724,1,0,0:0:0:0:
238,180,10810,1,8,0:0:0:0:
195,207,11067,1,8,0:0:0:0:
221,178,11153,1,0,0:0:0:0:
240,171,11324,1,8,0:0:0:0:
214,189,11410,1,0,0:0:0:0:
214,189,11496,1,8,0:0:0:0:
202,192,11667,1,8,0:0:0:0:
221,187,11753,1,0,0:0:0:0:
239,179,11924,1,8,0:0:0:0:
239,179,12010,1,8,0:0:0:0:
238,180,12096,1,0,0:0:0:0:
234,192,12181,1,8,0:0:0:0:
221,178,12524,1,0,0:0:0:0:
240,171,12696,1,0,0:0:0:0:
214,189,12781,1,0,0:0:0:0:
214,189,12867,1,8,0:0:0:0:
202,192,13038,1,8,0:0:0:0:
221,187,13124,1,0,0:0:0:0:
239,179,13296,1,8,0:0:0:0:
236,194,13467,1,0,0:0:0:0:
238,180,13553,1,8,0:0:0:0:
241,189,13810,1,8,0:0:0:0:
221,178,13896,1,0,0:0:0:0:
233,167,14067,1,8,0:0:0:0:
214,189,14153,1,0,0:0:0:0:
214,189,14238,1,8,0:0:0:0:
202,192,14410,1,8,0:0:0:0:
221,187,14496,1,0,0:0:0:0:
239,179,14667,1,0,0:0:0:0:
239,179,14753,1,8,0:0:0:0:
221,166,14838,1,0,0:0:0:0:
238,180,14924,1,8,0:0:0:0:
231,185,15267,1,8,0:0:0:0:
239,189,15353,1,8,0:0:0:0:
226,207,15438,1,0,0:0:0:0:
230,190,15524,1,0,0:0:0:0:
214,189,15610,1,8,0:0:0:0:
202,192,15781,1,8,0:0:0:0:
221,187,15867,1,0,0:0:0:0:
239,179,16038,1,8,0:0:0:0:
239,179,16124,1,8,0:0:0:0:
238,180,16210,1,0,0:0:0:0:
234,183,16296,1,8,0:0:0:0:
220,185,16553,1,8,0:0:0:0:
221,178,16638,1,0,0:0:0:0:
233,167,16810,1,8,0:0:0:0:
240,171,16896,1,0,0:0:0:0:
214,189,16981,1,8,0:0:0:0:
202,192,17153,1,8,0:0:0:0:
221,187,17238,1,0,0:0:0:0:
239,179,17410,1,8,0:0:0:0:
239,179,17496,1,8,0:0:0:0:
238,180,17581,1,0,0:0:0:0:
234,192,17667,1,8,0:0:0:0:
221,178,18010,1,0,0:0:0:0:
233,167,18181,1,8,0:0:0:0:
214,189,18267,1,0,0:0:0:0:
214,189,18353,1,8,0:0:0:0:
202,192,18524,1,8,0:0:0:0:
221,187,18610,1,0,0:0:0:0:
239,179,18781,1,8,0:0:0:0:
239,179,18953,1,0,0:0:0:0:
234,183,19038,1,8,0:0:0:0:
221,178,19381,1,0,0:0:0:0:
233,167,19553,1,8,0:0:0:0:
214,189,19724,1,8,0:0:0:0:
221,180,19810,1,8,0:0:0:0:
221,180,19896,1,8,0:0:0:0:
221,180,19981,1,8,0:0:0:0:
221,182,20067,1,0,0:0:0:0:
221,178,20238,1,8,0:0:0:0:
185,167,20324,1,0,0:0:0:0:
221,182,20410,1,8,0:0:0:0:
231,192,20496,1,0,0:0:0:0:
231,192,20581,1,8,0:0:0:0:
211,185,20753,1,4,0:0:0:0:
231,187,21267,1,4,0:0:0:0:
231,187,21781,1,8,0:0:0:0:
231,187,21953,1,8,0:0:0:0:
230,179,22038,1,8,0:0:0:0:
221,178,22124,1,0,0:0:0:0:
214,189,22381,1,0,0:0:0:0:
214,189,22467,1,8,0:0:0:0:
202,192,22638,1,8,0:0:0:0:
221,187,22724,1,0,0:0:0:0:
238,197,22896,1,0,0:0:0:0:
239,179,22981,1,8,0:0:0:0:
233,171,23067,1,0,0:0:0:0:
238,180,23153,1,8,0:0:0:0:
207,180,23410,1,8,0:0:0:0:
221,178,23496,1,0,0:0:0:0:
233,167,23667,1,8,0:0:0:0:
240,171,23753,1,0,0:0:0:0:
214,189,23838,1,8,0:0:0:0:
202,192,24010,1,8,0:0:0:0:
221,187,24096,1,0,0:0:0:0:
239,179,24267,1,8,0:0:0:0:
239,179,24353,1,0,0:0:0:0:
239,179,24438,1,0,0:0:0:0:
236,173,24524,1,8,0:0:0:0:
234,188,24781,1,8,0:0:0:0:
234,182,24867,1,0,0:0:0:0:
233,167,25038,1,8,0:0:0:0:
240,171,25124,1,0,0:0:0:0:
214,189,25210,1,8,0:0:0:0:
202,192,25381,1,8,0:0:0:0:
221,187,25467,1,0,0:0:0:0:
239,179,25638,1,0,0:0:0:0:
239,179,25724,1,8,0:0:0:0:
238,180,25896,1,8,0:0:0:0:
231,185,26238,1,8,0:0:0:0:
239,189,26324,1,0,0:0:0:0:
239,189,26410,1,0,0:0:0:0:
230,190,26496,1,0,0:0:0:0:
214,189,26581,1,8,0:0:0:0:
202,192,26753,1,8,0:0:0:0:
221,187,26838,1,0,0:0:0:0:
239,179,27010,1,0,0:0:0:0:
239,179,27096,1,8,0:0:0:0:
233,171,27181,1,0,0:0:0:0:
238,180,27267,1,8,0:0:0:0:
218,176,27524,1,8,0:0:0:0:
221,178,27610,1,0,0:0:0:0:
214,189,27867,1,0,0:0:0:0:
214,189,27953,1,8,0:0:0:0:
202,192,28124,1,8,0:0:0:0:
221,187,28210,1,0,0:0:0:0:
239,179,28381,1,8,0:0:0:0:
239,179,28467,1,8,0:0:0:0:
233,171,28553,1,0,0:0:0:0:
238,180,28638,1,8,0:0:0:0:
247,192,28896,1,8,0:0:0:0:
221,178,28981,1,0,0:0:0:0:
238,200,29153,1,8,0:0:0:0:
240,171,29238,1,0,0:0:0:0:
214,189,29324,1,8,0:0:0:0:
202,192,29496,1,8,0:0:0:0:
221,187,29581,1,0,0:0:0:0:
212,190,29753,1,8,0:0:0:0:
239,179,29838,1,0,0:0:0:0:
233,171,29924,1,0,0:0:0:0:
238,180,30010,1,8,0:0:0:0:
221,178,30353,1,0,0:0:0:0:
233,167,30524,1,8,0:0:0:0:
214,189,30695,1,8,0:0:0:0:
203,178,30781,1,8,0:0:0:0:
221,180,30867,1,8,0:0:0:0:
221,180,30953,1,8,0:0:0:0:
221,182,31038,1,0,0:0:0:0:
221,178,31210,1,8,0:0:0:0:
221,178,31295,1,0,0:0:0:0:
221,182,31381,1,8,0:0:0:0:
231,192,31467,1,0,0:0:0:0:
231,192,31553,1,8,0:0:0:0:
221,180,31724,1,4,0:0:0:0:
245,217,31895,1,8,0:0:0:0:
221,195,32238,1,8,0:0:0:0:
281,221,32324,1,0,0:0:0:0:
234,206,32410,1,0,0:0:0:0:
265,215,32581,1,8,0:0:0:0:
250,190,32667,1,0,0:0:0:0:
241,207,32753,1,8,0:0:0:0:
247,213,32838,1,0,0:0:0:0:
255,205,32924,1,8,0:0:0:0:
247,216,33096,1,0,0:0:0:0:
234,181,33267,1,8,0:0:0:0:
236,165,33610,1,0,0:0:0:0:
236,165,33696,1,0,0:0:0:0:
257,159,33781,1,8,0:0:0:0:
257,159,33867,1,0,0:0:0:0:
257,159,33953,1,8,0:0:0:0:
257,159,34124,1,8,0:0:0:0:
257,159,34210,1,0,0:0:0:0:
257,159,34296,1,8,0:0:0:0:
221,180,34467,1,0,0:0:0:0:
245,217,34638,1,8,0:0:0:0:
221,195,34981,1,8,0:0:0:0:
281,221,35067,1,8,0:0:0:0:
234,206,35153,1,0,0:0:0:0:
265,215,35324,1,8,0:0:0:0:
252,215,35410,1,0,0:0:0:0:
241,207,35496,1,8,0:0:0:0:
247,213,35581,1,0,0:0:0:0:
255,205,35667,1,8,0:0:0:0:
247,216,35838,1,0,0:0:0:0:
258,183,36010,1,8,0:0:0:0:
236,165,36353,1,0,0:0:0:0:
236,165,36438,1,0,0:0:0:0:
257,159,36524,1,8,0:0:0:0:
257,159,36610,1,0,0:0:0:0:
257,159,36696,1,8,0:0:0:0:
257,159,36867,1,8,0:0:0:0:
257,159,36953,1,8,0:0:0:0:
168,185,37038,1,8,0:0:0:0:
221,180,37210,1,0,0:0:0:0:
245,217,37381,1,8,0:0:0:0:
221,195,37724,1,8,0:0:0:0:
241,207,37810,1,8,0:0:0:0:
234,206,37896,1,8,0:0:0:0:
265,215,38067,1,8,0:0:0:0:
281,221,38153,1,0,0:0:0:0:
245,217,38238,1,8,0:0:0:0:
252,215,38324,1,0,0:0:0:0:
247,213,38410,1,8,0:0:0:0:
247,216,38581,1,0,0:0:0:0:
234,181,38753,1,8,0:0:0:0:
236,165,39096,1,0,0:0:0:0:
236,165,39181,1,0,0:0:0:0:
257,159,39267,1,8,0:0:0:0:
257,159,39353,1,0,0:0:0:0:
257,159,39438,1,8,0:0:0:0:
257,159,39610,1,8,0:0:0:0:
257,159,39696,1,0,0:0:0:0:
257,159,39781,1,8,0:0:0:0:
221,180,39953,1,0,0:0:0:0:
245,217,40124,1,8,0:0:0:0:
221,195,40467,1,8,0:0:0:0:
281,221,40553,1,0,0:0:0:0:
234,206,40638,1,0,0:0:0:0:
265,215,40724,1,0,0:0:0:0:
265,215,40810,1,8,0:0:0:0:
241,207,40981,1,8,0:0:0:0:
257,211,41067,1,8,0:0:0:0:
257,211,41153,1,0,0:0:0:0:
261,221,41238,1,0,0:0:0:0:
265,187,41324,1,8,0:0:0:0:
239,184,42696,1,4,0:0:0:0:
239,184,43210,1,4,0:0:0:0:
276,189,44067,1,0,0:0:0:0:
259,190,44324,1,0,0:0:0:0:
252,194,44410,1,8,0:0:0:0:
200,187,44581,1,8,0:0:0:0:
250,174,44667,1,0,0:0:0:0:
244,182,44838,1,8,0:0:0:0:
217,172,44924,1,0,0:0:0:0:
185,177,45010,1,0,0:0:0:0:
250,174,45096,1,8,0:0:0:0:
239,180,45438,1,0,0:0:0:0:
259,185,45610,1,8,0:0:0:0:
228,178,45696,1,0,0:0:0:0:
228,178,45781,1,8,0:0:0:0:
226,185,45953,1,8,0:0:0:0:
223,191,46038,1,0,0:0:0:0:
226,180,46210,1,0,0:0:0:0:
208,189,46296,1,8,0:0:0:0:
187,224,46381,1,0,0:0:0:0:
225,190,46467,1,8,0:0:0:0:
218,196,46810,1,0,0:0:0:0:
220,219,47067,1,0,0:0:0:0:
220,219,47153,1,8,0:0:0:0:
229,197,47324,1,8,0:0:0:0:
222,213,47410,1,0,0:0:0:0:
240,200,47581,1,8,0:0:0:0:
180,198,47667,1,0,0:0:0:0:
222,213,47753,1,0,0:0:0:0:
222,213,47838,1,8,0:0:0:0:
200,208,48181,1,0,0:0:0:0:
206,175,48353,1,8,0:0:0:0:
222,213,48438,1,0,0:0:0:0:
215,216,48524,1,8,0:0:0:0:
205,224,48696,1,8,0:0:0:0:
215,216,48781,1,0,0:0:0:0:
197,197,48953,1,0,0:0:0:0:
171,213,49038,1,8,0:0:0:0:
250,214,49124,1,0,0:0:0:0:
208,210,49210,1,8,0:0:0:0:
218,219,49553,1,0,0:0:0:0:
218,219,49810,1,0,0:0:0:0:
218,219,49896,1,8,0:0:0:0:
221,231,50067,1,8,0:0:0:0:
217,217,50153,1,0,0:0:0:0:
224,232,50324,1,8,0:0:0:0:
251,231,50410,1,8,0:0:0:0:
246,247,50496,1,0,0:0:0:0:
246,247,50581,1,8,0:0:0:0:
228,236,50924,1,0,0:0:0:0:
203,202,51096,1,8,0:0:0:0:
244,242,51181,1,0,0:0:0:0:
228,236,51267,5,8,0:0:0:0:
231,217,51438,1,8,0:0:0:0:
228,236,51524,1,0,0:0:0:0:
231,228,51696,1,0,0:0:0:0:
258,203,51781,1,8,0:0:0:0:
236,225,51953,1,8,0:0:0:0:
270,188,52296,5,0,0:0:0:0:
275,193,52381,1,0,0:0:0:0:
275,193,52467,1,8,0:0:0:0:
275,193,52553,1,8,0:0:0:0:
275,193,52638,1,0,0:0:0:0:
275,193,52810,1,8,0:0:0:0:
275,193,52896,1,8,0:0:0:0:
273,206,52981,1,0,0:0:0:0:
284,205,53324,1,12,0:0:0:0:
221,178,53667,1,4,0:0:0:0:
233,167,53838,1,0,0:0:0:0:
214,189,53924,1,0,0:0:0:0:
214,189,54010,1,8,0:0:0:0:
202,192,54181,1,8,0:0:0:0:
221,187,54267,1,0,0:0:0:0:
230,182,54438,1,0,0:0:0:0:
230,189,54524,1,8,0:0:0:0:
230,194,54610,1,0,0:0:0:0:
238,180,54696,1,8,0:0:0:0:
236,166,54867,1,0,0:0:0:0:
242,166,54953,1,8,0:0:0:0:
221,178,55038,1,0,0:0:0:0:
233,167,55210,1,8,0:0:0:0:
240,171,55296,1,0,0:0:0:0:
214,189,55381,1,8,0:0:0:0:
202,192,55553,1,8,0:0:0:0:
221,187,55638,1,0,0:0:0:0:
239,179,55810,1,8,0:0:0:0:
239,179,55895,1,8,0:0:0:0:
238,180,55981,1,0,0:0:0:0:
234,192,56067,1,8,0:0:0:0:
221,178,56410,1,0,0:0:0:0:
233,167,56581,1,8,0:0:0:0:
214,189,56667,1,0,0:0:0:0:
214,189,56753,1,8,0:0:0:0:
202,192,56924,1,8,0:0:0:0:
221,187,57010,1,0,0:0:0:0:
239,179,57181,1,8,0:0:0:0:
239,179,57267,1,8,0:0:0:0:
236,194,57353,1,0,0:0:0:0:
238,180,57438,1,8,0:0:0:0:
249,196,57610,1,0,0:0:0:0:
272,173,57695,1,8,0:0:0:0:
221,178,57781,1,0,0:0:0:0:
233,167,57953,1,8,0:0:0:0:
240,171,58038,1,0,0:0:0:0:
214,189,58124,1,8,0:0:0:0:
202,192,58295,1,8,0:0:0:0:
221,187,58381,1,0,0:0:0:0:
239,179,58553,1,0,0:0:0:0:
239,179,58638,1,8,0:0:0:0:
221,166,58724,1,0,0:0:0:0:
238,180,58810,1,8,0:0:0:0:
231,185,59153,1,8,0:0:0:0:
239,189,59238,1,8,0:0:0:0:
226,207,59324,1,0,0:0:0:0:
230,190,59410,1,0,0:0:0:0:
214,189,59495,1,8,0:0:0:0:
202,192,59667,1,8,0:0:0:0:
221,187,59753,1,0,0:0:0:0:
239,179,59924,1,8,0:0:0:0:
239,179,60010,1,0,0:0:0:0:
238,180,60095,1,0,0:0:0:0:
234,183,60181,1,8,0:0:0:0:
225,178,60353,1,0,0:0:0:0:
189,167,60438,1,8,0:0:0:0:
221,178,60524,1,0,0:0:0:0:
233,167,60695,1,8,0:0:0:0:
214,189,60781,1,0,0:0:0:0:
214,189,60867,1,8,0:0:0:0:
202,192,61038,1,8,0:0:0:0:
221,187,61124,1,0,0:0:0:0:
239,179,61295,1,8,0:0:0:0:
239,179,61381,1,8,0:0:0:0:
238,180,61467,1,0,0:0:0:0:
234,192,61553,1,8,0:0:0:0:
221,178,61895,1,0,0:0:0:0:
233,167,62067,1,8,0:0:0:0:
214,189,62153,1,0,0:0:0:0:
214,189,62238,1,8,0:0:0:0:
202,192,62410,1,8,0:0:0:0:
221,187,62495,1,0,0:0:0:0:
239,179,62667,1,8,0:0:0:0:
239,179,62753,1,8,0:0:0:0:
238,180,62838,1,0,0:0:0:0:
234,183,62924,1,8,0:0:0:0:
243,189,63095,1,0,0:0:0:0:
203,168,63181,1,8,0:0:0:0:
221,178,63267,1,0,0:0:0:0:
233,167,63438,1,8,0:0:0:0:
214,189,63610,1,8,0:0:0:0:
221,180,63695,1,8,0:0:0:0:
221,180,63781,1,8,0:0:0:0:
221,180,63867,1,8,0:0:0:0:
221,182,63953,1,0,0:0:0:0:
221,178,64124,1,8,0:0:0:0:
185,167,64210,1,0,0:0:0:0:
221,182,64295,1,8,0:0:0:0:
231,192,64381,1,0,0:0:0:0:
231,192,64467,1,8,0:0:0:0:
211,185,64638,1,4,0:0:0:0:
231,187,65153,1,4,0:0:0:0:
231,187,65667,1,8,0:0:0:0:
231,187,65838,1,8,0:0:0:0:
230,179,65924,1,8,0:0:0:0:
221,178,66010,1,0,0:0:0:0:
233,167,66181,1,0,0:0:0:0:
214,189,66267,1,0,0:0:0:0:
214,189,66353,1,8,0:0:0:0:
202,192,66524,1,0,0:0:0:0:
221,187,66610,1,0,0:0:0:0:
238,197,66781,1,8,0:0:0:0:
239,179,66867,1,0,0:0:0:0:
234,181,66953,1,0,0:0:0:0:
238,180,67038,1,8,0:0:0:0:
198,193,67210,1,8,0:0:0:0:
242,181,67296,1,8,0:0:0:0:
221,178,67381,1,0,0:0:0:0:
233,167,67553,1,0,0:0:0:0:
214,189,67638,1,0,0:0:0:0:
214,189,67724,1,8,0:0:0:0:
202,192,67896,1,8,0:0:0:0:
242,181,67981,1,0,0:0:0:0:
239,179,68153,1,8,0:0:0:0:
239,179,68238,1,0,0:0:0:0:
239,179,68324,1,0,0:0:0:0:
236,173,68410,1,8,0:0:0:0:
210,197,68581,1,0,0:0:0:0:
173,195,68667,1,8,0:0:0:0:
234,182,68753,1,0,0:0:0:0:
233,167,68924,1,8,0:0:0:0:
214,189,69010,1,0,0:0:0:0:
214,189,69096,1,8,0:0:0:0:
202,192,69267,1,8,0:0:0:0:
183,182,69353,1,0,0:0:0:0:
239,179,69524,1,0,0:0:0:0:
239,179,69610,1,8,0:0:0:0:
197,167,69696,1,0,0:0:0:0:
238,180,69781,1,8,0:0:0:0:
231,185,70124,1,8,0:0:0:0:
239,189,70210,1,0,0:0:0:0:
239,189,70296,1,0,0:0:0:0:
230,190,70381,1,0,0:0:0:0:
214,189,70467,1,8,0:0:0:0:
202,192,70638,1,0,0:0:0:0:
233,171,70724,1,0,0:0:0:0:
239,179,70896,1,8,0:0:0:0:
239,179,70981,1,0,0:0:0:0:
231,176,71067,1,0,0:0:0:0:
238,180,71153,1,8,0:0:0:0:
234,183,71324,1,8,0:0:0:0:
234,182,71410,1,8,0:0:0:0:
221,178,71496,1,0,0:0:0:0:
233,167,71667,1,0,0:0:0:0:
214,189,71753,1,0,0:0:0:0:
214,189,71838,1,8,0:0:0:0:
202,192,72010,1,8,0:0:0:0:
239,195,72096,1,0,0:0:0:0:
239,179,72267,1,8,0:0:0:0:
239,179,72353,1,0,0:0:0:0:
221,187,72438,1,0,0:0:0:0:
238,180,72524,1,8,0:0:0:0:
234,192,72696,1,0,0:0:0:0:
234,192,72781,1,8,0:0:0:0:
221,178,72867,1,0,0:0:0:0:
233,167,73038,1,8,0:0:0:0:
214,189,73124,1,0,0:0:0:0:
214,189,73210,1,8,0:0:0:0:
202,192,73381,1,8,0:0:0:0:
221,187,73467,1,0,0:0:0:0:
212,190,73638,1,0,0:0:0:0:
239,179,73724,1,8,0:0:0:0:
226,191,73810,1,0,0:0:0:0:
238,180,73896,1,8,0:0:0:0:
192,190,74067,1,8,0:0:0:0:
187,175,74153,1,8,0:0:0:0:
243,189,74238,1,0,0:0:0:0:
195,191,74410,1,8,0:0:0:0:
214,189,74581,1,8,0:0:0:0:
221,180,74667,1,8,0:0:0:0:
221,180,74753,1,8,0:0:0:0:
257,199,74838,1,8,0:0:0:0:
221,182,74924,1,0,0:0:0:0:
221,178,75096,1,8,0:0:0:0:
221,178,75181,1,0,0:0:0:0:
221,182,75267,1,8,0:0:0:0:
231,192,75353,1,0,0:0:0:0:
231,192,75438,1,8,0:0:0:0:
221,180,75610,1,4,0:0:0:0:
245,217,75781,1,8,0:0:0:0:
221,195,76124,1,8,0:0:0:0:
281,221,76210,1,0,0:0:0:0:
234,206,76296,1,0,0:0:0:0:
265,215,76467,1,8,0:0:0:0:
250,190,76553,1,0,0:0:0:0:
241,207,76638,1,8,0:0:0:0:
247,213,76724,1,0,0:0:0:0:
255,205,76810,1,8,0:0:0:0:
247,216,76981,1,0,0:0:0:0:
234,181,77153,1,8,0:0:0:0:
236,165,77496,1,0,0:0:0:0:
236,165,77581,1,0,0:0:0:0:
257,159,77667,1,8,0:0:0:0:
257,159,77753,1,0,0:0:0:0:
257,159,77838,1,8,0:0:0:0:
257,159,78010,1,8,0:0:0:0:
257,159,78096,1,0,0:0:0:0:
257,159,78181,1,8,0:0:0:0:
221,180,78353,1,0,0:0:0:0:
245,217,78524,1,8,0:0:0:0:
221,195,78867,1,8,0:0:0:0:
281,221,78953,1,8,0:0:0:0:
234,206,79038,1,0,0:0:0:0:
265,215,79210,1,8,0:0:0:0:
252,215,79296,1,0,0:0:0:0:
241,207,79381,1,8,0:0:0:0:
247,213,79467,1,0,0:0:0:0:
255,205,79553,1,8,0:0:0:0:
247,216,79724,1,0,0:0:0:0:
258,183,79896,1,8,0:0:0:0:
236,165,80238,1,0,0:0:0:0:
236,165,80324,1,0,0:0:0:0:
257,159,80410,1,8,0:0:0:0:
257,159,80496,1,0,0:0:0:0:
257,159,80581,1,8,0:0:0:0:
257,159,80753,1,8,0:0:0:0:
257,159,80838,1,8,0:0:0:0:
168,185,80924,1,8,0:0:0:0:
221,180,81096,1,0,0:0:0:0:
245,217,81267,1,8,0:0:0:0:
221,195,81610,1,8,0:0:0:0:
241,207,81696,1,8,0:0:0:0:
234,206,81781,1,8,0:0:0:0:
265,215,81953,1,8,0:0:0:0:
281,221,82038,1,0,0:0:0:0:
245,217,82124,1,8,0:0:0:0:
252,215,82210,1,0,0:0:0:0:
247,213,82296,1,8,0:0:0:0:
247,216,82467,1,0,0:0:0:0:
234,181,82638,1,8,0:0:0:0:
236,165,82981,1,0,0:0:0:0:
236,165,83067,1,0,0:0:0:0:
257,159,83153,1,8,0:0:0:0:
257,159,83238,1,0,0:0:0:0:
257,159,83324,1,8,0:0:0:0:
257,159,83496,1,8,0:0:0:0:
257,159,83581,1,0,0:0:0:0:
257,159,83667,1,8,0:0:0:0:
221,180,83838,1,0,0:0:0:0:
245,217,84010,1,8,0:0:0:0:
221,195,84353,1,8,0:0:0:0:
281,221,84438,1,0,0:0:0:0:
234,206,84524,1,0,0:0:0:0:
265,215,84610,1,0,0:0:0:0:
265,215,84696,1,8,0:0:0:0:
241,207,84867,1,8,0:0:0:0:
257,211,84953,1,8,0:0:0:0:
257,211,85038,1,0,0:0:0:0:
261,221,85124,1,0,0:0:0:0:
265,187,85210,1,8,0:0:0:0:
221,178,86581,5,4,0:0:0:0:
228,198,87096,1,4,0:0:0:0:
276,189,87953,5,0,0:0:0:0:
259,190,88210,1,0,0:0:0:0:
252,194,88296,1,8,0:0:0:0:
250,174,88553,1,0,0:0:0:0:
250,174,88810,1,0,0:0:0:0:
185,177,88896,1,0,0:0:0:0:
250,174,88981,1,8,0:0:0:0:
239,180,89324,1,0,0:0:0:0:
228,178,89496,1,8,0:0:0:0:
228,178,89581,1,0,0:0:0:0:
228,178,89667,1,8,0:0:0:0:
223,191,89924,1,0,0:0:0:0:
208,189,90181,1,8,0:0:0:0:
228,198,90267,1,0,0:0:0:0:
225,190,90353,1,8,0:0:0:0:
218,196,90696,1,0,0:0:0:0:
220,219,90953,1,0,0:0:0:0:
220,219,91038,1,8,0:0:0:0:
222,213,91296,1,0,0:0:0:0:
222,213,91553,1,0,0:0:0:0:
222,213,91638,1,0,0:0:0:0:
222,213,91724,1,8,0:0:0:0:
200,208,92067,1,0,0:0:0:0:
213,209,92238,1,8,0:0:0:0:
222,213,92324,1,0,0:0:0:0:
215,216,92410,1,8,0:0:0:0:
215,216,92667,1,0,0:0:0:0:
171,213,92924,1,8,0:0:0:0:
240,221,93010,1,0,0:0:0:0:
208,210,93096,1,8,0:0:0:0:
218,219,93438,1,0,0:0:0:0:
218,219,93696,1,0,0:0:0:0:
218,219,93781,1,8,0:0:0:0:
217,217,94038,1,0,0:0:0:0:
251,250,94296,1,0,0:0:0:0:
246,247,94381,1,0,0:0:0:0:
246,247,94467,1,8,0:0:0:0:
228,236,94810,1,0,0:0:0:0:
270,219,94981,1,0,0:0:0:0:
244,242,95067,1,0,0:0:0:0:
228,236,95153,5,8,0:0:0:0:
246,202,95410,1,0,0:0:0:0:
258,203,95667,1,8,0:0:0:0:
220,197,95753,1,0,0:0:0:0:
256,203,95838,1,8,0:0:0:0:
270,188,96181,5,0,0:0:0:0:
275,193,96267,1,0,0:0:0:0:
275,193,96353,1,0,0:0:0:0:
275,193,96438,1,0,0:0:0:0:
275,193,96524,1,8,0:0:0:0:
275,193,96696,1,8,0:0:0:0:
275,193,96781,1,8,0:0:0:0:
273,206,96867,1,0,0:0:0:0:
284,205,97210,1,12,0:0:0:0:
221,178,97553,1,4,0:0:0:0:
