osu file format v14

[General]
AudioFilename: audio.mp3
AudioLeadIn: 0
PreviewTime: 20753
Countdown: 0
SampleSet: Normal
StackLeniency: 0.7
Mode: 1
LetterboxInBreaks: 0
WidescreenStoryboard: 1

[Editor]
DistanceSpacing: 0.8
BeatDivisor: 12
GridSize: 32
TimelineZoom: 3.099999

[Metadata]
Title:The Sacred Engine
TitleUnicode:The Sacred Engine
Artist:The Panacea & C.A.2K
ArtistUnicode:The Panacea & C.A.2K
Creator:ZTH
Version:Muzukashii
Source:
Tags:dnb drum and bass hardcore neurofunk PRSPCT PDCST 21 electronic instrumental
BeatmapID:4043369
BeatmapSetID:1951095

[Difficulty]
HPDrainRate:7.5
CircleSize:5
OverallDifficulty:4.8
ApproachRate:5
SliderMultiplier:1.4
SliderTickRate:1

[Events]
//Background and Video events
0,0,"d91q3e4-c1a654a0-afe1-4d71-954b-a1b4f45fe79e.jpg",0,-70
//Break Periods
//Storyboard Layer 0 (Background)
//Storyboard Layer 1 (Fail)
//Storyboard Layer 2 (Pass)
//Storyboard Layer 3 (Foreground)
//Storyboard Layer 4 (Overlay)
//Storyboard Sound Samples

[TimingPoints]
182,342.857142857143,4,1,0,50,1,0
182,-96.6183574879227,4,1,0,50,0,0
4296,342.857142857143,4,1,0,95,1,0
4296,-96.6183574879227,4,1,0,95,0,0
9436,-80,4,1,0,95,0,0
9779,-93.4579439252336,4,1,0,95,0,0
20748,-80,4,1,0,95,0,0
21779,-93.4579439252336,4,1,0,95,0,0
31724,-88.4955752212389,4,1,0,95,0,1
41324,-88.4955752212389,4,1,0,95,0,0
42696,-80,4,1,0,95,0,0
44067,-96.6183574879227,4,1,0,95,0,0
52295,-96.6183574879227,4,1,0,95,0,0
53321,-80,4,1,0,95,0,0
53664,-93.4579439252336,4,1,0,95,0,0
64633,-80,4,1,0,95,0,0
65664,-93.4579439252336,4,1,0,95,0,0
75606,-88.4955752212389,4,1,0,95,0,0
75610,-88.4955752212389,4,1,0,95,0,1
85210,-88.4955752212389,4,1,0,95,0,0
86581,-80,4,1,0,95,0,0
87952,-96.6183574879227,4,1,0,95,0,0
97206,-80,4,1,0,95,0,0
97551,-71.4285714285714,4,1,0,95,0,0

[HitObjects]
275,181,4296,5,0,0:0:0:0:
275,181,4638,1,0,0:0:0:0:
275,181,4981,1,0,0:0:0:0:
275,181,5324,1,0,0:0:0:0:
263,184,5667,1,0,0:0:0:0:
263,184,6010,1,0,0:0:0:0:
263,184,6353,1,0,0:0:0:0:
263,184,6696,1,0,0:0:0:0:
263,184,7038,1,0,0:0:0:0:
270,188,7210,1,0,0:0:0:0:
270,188,7381,1,0,0:0:0:0:
270,188,7553,1,0,0:0:0:0:
270,188,7724,1,0,0:0:0:0:
270,188,7896,1,0,0:0:0:0:
270,188,8067,1,0,0:0:0:0:
270,188,8238,1,0,0:0:0:0:
270,188,8410,1,0,0:0:0:0:
275,193,8496,1,0,0:0:0:0:
275,193,8581,1,0,0:0:0:0:
275,193,8753,1,0,0:0:0:0:
275,193,8924,1,0,0:0:0:0:
275,193,9010,1,0,0:0:0:0:
273,206,9096,1,0,0:0:0:0:
284,205,9438,1,12,0:0:0:0:
221,178,9781,1,4,0:0:0:0:
214,189,10124,1,8,0:0:0:0:
230,183,10296,1,0,0:0:0:0:
202,192,10381,1,0,0:0:0:0:
235,177,10553,1,8,0:0:0:0:
230,183,10724,1,0,0:0:0:0:
238,180,10810,1,8,0:0:0:0:
221,178,11153,1,0,0:0:0:0:
214,189,11496,1,8,0:0:0:0:
202,192,11667,1,8,0:0:0:0:
221,187,11753,1,0,0:0:0:0:
239,179,11924,1,8,0:0:0:0:
238,180,12096,1,0,0:0:0:0:
234,192,12181,1,8,0:0:0:0:
221,178,12524,1,0,0:0:0:0:
214,189,12867,1,8,0:0:0:0:
202,192,13038,1,0,0:0:0:0:
221,187,13124,1,8,0:0:0:0:
239,179,13296,1,8,0:0:0:0:
236,194,13467,1,0,0:0:0:0:
238,180,13553,1,8,0:0:0:0:
221,178,13896,1,0,0:0:0:0:
214,189,14238,1,8,0:0:0:0:
202,192,14410,1,0,0:0:0:0:
221,187,14496,1,0,0:0:0:0:
239,179,14667,1,0,0:0:0:0:
231,178,14753,1,0,0:0:0:0:
238,180,14924,1,8,0:0:0:0:
214,182,15010,1,8,0:0:0:0:
213,177,15096,1,8,0:0:0:0:
214,189,15610,1,8,0:0:0:0:
202,192,15781,1,0,0:0:0:0:
221,187,15867,1,0,0:0:0:0:
239,179,16038,1,8,0:0:0:0:
238,180,16210,1,0,0:0:0:0:
234,183,16296,1,8,0:0:0:0:
221,178,16638,1,0,0:0:0:0:
214,189,16981,1,8,0:0:0:0:
202,192,17153,1,8,0:0:0:0:
221,187,17238,1,0,0:0:0:0:
239,179,17410,1,8,0:0:0:0:
238,180,17581,1,0,0:0:0:0:
234,192,17667,1,8,0:0:0:0:
221,178,18010,1,0,0:0:0:0:
214,189,18353,1,8,0:0:0:0:
202,192,18524,1,0,0:0:0:0:
221,187,18610,1,8,0:0:0:0:
239,179,18781,1,8,0:0:0:0:
239,179,18953,1,0,0:0:0:0:
234,183,19038,1,8,0:0:0:0:
221,178,19381,1,0,0:0:0:0:
233,167,19553,1,8,0:0:0:0:
214,189,19724,1,8,0:0:0:0:
221,180,19810,1,8,0:0:0:0:
221,180,19896,1,8,0:0:0:0:
221,182,20067,1,0,0:0:0:0:
221,178,20238,1,8,0:0:0:0:
221,182,20410,1,8,0:0:0:0:
231,192,20496,1,8,0:0:0:0:
231,192,20581,1,8,0:0:0:0:
211,185,20753,1,4,0:0:0:0:
231,187,21267,1,4,0:0:0:0:
231,187,21781,1,8,0:0:0:0:
221,178,21953,1,8,0:0:0:0:
231,187,22038,1,8,0:0:0:0:
221,178,22124,1,0,0:0:0:0:
214,189,22467,1,8,0:0:0:0:
202,192,22638,1,0,0:0:0:0:
221,187,22724,1,0,0:0:0:0:
238,197,22896,1,8,0:0:0:0:
233,171,23067,1,0,0:0:0:0:
238,180,23153,1,8,0:0:0:0:
221,178,23496,1,0,0:0:0:0:
240,171,23753,1,0,0:0:0:0:
214,189,23838,1,8,0:0:0:0:
202,192,24010,1,0,0:0:0:0:
221,187,24096,1,0,0:0:0:0:
239,179,24267,1,8,0:0:0:0:
239,179,24438,1,0,0:0:0:0:
236,173,24524,1,8,0:0:0:0:
234,182,24867,1,0,0:0:0:0:
214,189,25210,1,8,0:0:0:0:
202,192,25381,1,0,0:0:0:0:
221,187,25467,1,0,0:0:0:0:
239,179,25638,1,0,0:0:0:0:
239,179,25724,1,0,0:0:0:0:
238,180,25896,1,8,0:0:0:0:
231,185,25981,1,8,0:0:0:0:
239,189,26067,1,8,0:0:0:0:
214,189,26581,1,8,0:0:0:0:
202,192,26753,1,0,0:0:0:0:
221,187,26838,1,0,0:0:0:0:
239,179,27010,1,8,0:0:0:0:
233,171,27181,1,0,0:0:0:0:
238,180,27267,1,8,0:0:0:0:
221,178,27610,1,0,0:0:0:0:
214,189,27867,1,8,0:0:0:0:
214,189,27953,1,8,0:0:0:0:
202,192,28124,1,0,0:0:0:0:
221,187,28210,1,0,0:0:0:0:
239,179,28381,1,8,0:0:0:0:
233,171,28553,1,0,0:0:0:0:
238,180,28638,1,8,0:0:0:0:
221,178,28981,1,0,0:0:0:0:
214,189,29324,1,8,0:0:0:0:
202,192,29496,1,0,0:0:0:0:
221,187,29581,1,8,0:0:0:0:
212,190,29753,1,8,0:0:0:0:
233,171,29924,1,0,0:0:0:0:
238,180,30010,1,8,0:0:0:0:
221,178,30353,1,0,0:0:0:0:
233,167,30524,1,8,0:0:0:0:
214,189,30696,1,8,0:0:0:0:
203,178,30781,1,8,0:0:0:0:
221,180,30867,1,8,0:0:0:0:
221,182,31038,1,0,0:0:0:0:
221,178,31210,1,8,0:0:0:0:
221,182,31381,1,8,0:0:0:0:
231,192,31467,1,8,0:0:0:0:
231,192,31553,1,8,0:0:0:0:
221,180,31724,1,4,0:0:0:0:
233,156,31896,1,8,0:0:0:0:
221,195,32238,1,8,0:0:0:0:
265,215,32581,1,8,0:0:0:0:
241,207,32753,1,8,0:0:0:0:
247,213,32838,1,8,0:0:0:0:
255,205,32924,1,8,0:0:0:0:
247,216,33096,1,0,0:0:0:0:
234,181,33267,1,8,0:0:0:0:
257,159,33781,1,8,0:0:0:0:
257,159,33953,1,8,0:0:0:0:
257,159,34124,1,8,0:0:0:0:
257,159,34210,1,8,0:0:0:0:
257,159,34296,1,8,0:0:0:0:
221,180,34467,1,0,0:0:0:0:
255,187,34638,1,8,0:0:0:0:
221,195,34981,1,8,0:0:0:0:
265,215,35324,1,8,0:0:0:0:
241,207,35496,1,8,0:0:0:0:
247,213,35581,1,8,0:0:0:0:
255,205,35667,1,8,0:0:0:0:
247,216,35838,1,0,0:0:0:0:
258,183,36010,1,8,0:0:0:0:
257,159,36524,1,8,0:0:0:0:
257,159,36696,1,8,0:0:0:0:
257,159,36867,1,8,0:0:0:0:
257,159,36953,1,8,0:0:0:0:
168,185,37038,1,8,0:0:0:0:
221,180,37210,1,0,0:0:0:0:
245,217,37381,1,8,0:0:0:0:
221,195,37724,1,8,0:0:0:0:
236,213,37896,1,0,0:0:0:0:
265,215,38067,1,8,0:0:0:0:
245,217,38238,1,8,0:0:0:0:
252,215,38324,1,8,0:0:0:0:
247,213,38410,1,8,0:0:0:0:
247,216,38581,1,0,0:0:0:0:
234,181,38753,1,8,0:0:0:0:
257,159,39267,1,8,0:0:0:0:
257,159,39438,1,8,0:0:0:0:
257,159,39610,1,8,0:0:0:0:
257,159,39696,1,8,0:0:0:0:
257,159,39781,1,8,0:0:0:0:
221,180,39953,1,0,0:0:0:0:
245,217,40124,1,8,0:0:0:0:
221,195,40467,1,8,0:0:0:0:
265,215,40638,1,0,0:0:0:0:
265,215,40810,1,8,0:0:0:0:
257,211,40981,1,8,0:0:0:0:
261,221,41067,1,8,0:0:0:0:
265,187,41153,1,8,0:0:0:0:
283,199,41324,1,0,0:0:0:0:
239,184,42696,1,4,0:0:0:0:
239,184,43210,1,4,0:0:0:0:
276,189,44067,1,0,0:0:0:0:
252,182,44324,1,0,0:0:0:0:
252,194,44410,1,8,0:0:0:0:
263,199,44667,1,0,0:0:0:0:
252,182,44924,5,0,0:0:0:0:
250,174,45096,1,8,0:0:0:0:
239,180,45438,1,0,0:0:0:0:
259,188,45696,1,0,0:0:0:0:
228,178,45781,1,8,0:0:0:0:
223,191,46038,1,0,0:0:0:0:
225,190,46467,1,8,0:0:0:0:
218,196,46810,1,0,0:0:0:0:
178,189,47067,1,0,0:0:0:0:
220,219,47153,1,8,0:0:0:0:
222,213,47410,1,0,0:0:0:0:
223,200,47667,1,0,0:0:0:0:
257,197,47753,1,0,0:0:0:0:
222,213,47838,1,8,0:0:0:0:
200,208,48181,1,0,0:0:0:0:
228,203,48438,1,0,0:0:0:0:
215,216,48524,1,8,0:0:0:0:
215,216,48781,1,0,0:0:0:0:
208,210,49210,1,8,0:0:0:0:
218,219,49553,1,0,0:0:0:0:
218,219,49810,1,0,0:0:0:0:
218,219,49896,1,8,0:0:0:0:
217,217,50153,1,0,0:0:0:0:
224,232,50410,1,0,0:0:0:0:
246,247,50581,1,8,0:0:0:0:
228,236,50924,1,0,0:0:0:0:
244,242,51181,1,0,0:0:0:0:
228,236,51267,5,8,0:0:0:0:
228,236,51524,1,0,0:0:0:0:
236,225,51953,1,8,0:0:0:0:
270,188,52296,5,0,0:0:0:0:
275,193,52381,1,0,0:0:0:0:
275,193,52467,1,0,0:0:0:0:
275,193,52638,1,0,0:0:0:0:
275,193,52810,1,0,0:0:0:0:
275,193,52896,1,0,0:0:0:0:
273,206,52981,1,0,0:0:0:0:
284,205,53324,1,12,0:0:0:0:
221,178,53667,1,4,0:0:0:0:
214,189,54010,1,8,0:0:0:0:
230,183,54181,1,0,0:0:0:0:
202,192,54267,1,0,0:0:0:0:
235,177,54438,1,8,0:0:0:0:
230,183,54610,1,0,0:0:0:0:
238,180,54696,1,8,0:0:0:0:
221,178,55038,1,0,0:0:0:0:
244,182,55296,1,0,0:0:0:0:
214,189,55381,1,8,0:0:0:0:
202,192,55553,1,0,0:0:0:0:
221,187,55638,1,0,0:0:0:0:
239,179,55810,1,8,0:0:0:0:
238,180,55981,1,0,0:0:0:0:
234,192,56067,1,8,0:0:0:0:
221,178,56410,1,0,0:0:0:0:
214,189,56753,1,8,0:0:0:0:
202,192,56924,1,8,0:0:0:0:
221,187,57010,1,0,0:0:0:0:
239,179,57181,1,8,0:0:0:0:
236,194,57353,1,0,0:0:0:0:
238,180,57438,1,8,0:0:0:0:
221,178,57781,1,0,0:0:0:0:
231,207,58038,1,8,0:0:0:0:
214,189,58124,1,8,0:0:0:0:
202,192,58296,1,8,0:0:0:0:
221,187,58381,1,8,0:0:0:0:
239,179,58553,1,0,0:0:0:0:
231,178,58638,1,0,0:0:0:0:
238,180,58810,1,8,0:0:0:0:
214,189,59496,1,8,0:0:0:0:
202,192,59667,1,0,0:0:0:0:
221,187,59753,1,0,0:0:0:0:
239,179,59924,1,8,0:0:0:0:
238,180,60096,1,0,0:0:0:0:
234,183,60181,1,8,0:0:0:0:
221,178,60524,1,0,0:0:0:0:
252,189,60781,1,0,0:0:0:0:
214,189,60867,1,8,0:0:0:0:
202,192,61038,1,0,0:0:0:0:
221,187,61124,1,0,0:0:0:0:
239,179,61296,1,8,0:0:0:0:
238,180,61467,1,0,0:0:0:0:
234,192,61553,1,8,0:0:0:0:
221,178,61896,1,0,0:0:0:0:
214,189,62238,1,8,0:0:0:0:
202,192,62410,1,0,0:0:0:0:
221,187,62496,1,8,0:0:0:0:
239,179,62667,1,8,0:0:0:0:
239,179,62838,1,0,0:0:0:0:
234,183,62924,1,8,0:0:0:0:
221,178,63267,1,0,0:0:0:0:
233,167,63438,1,8,0:0:0:0:
214,189,63610,5,8,0:0:0:0:
221,180,63696,1,8,0:0:0:0:
221,180,63781,1,8,0:0:0:0:
221,182,63953,1,0,0:0:0:0:
221,178,64124,1,8,0:0:0:0:
221,182,64296,1,8,0:0:0:0:
231,192,64381,1,8,0:0:0:0:
231,192,64467,1,8,0:0:0:0:
211,185,64638,1,4,0:0:0:0:
231,187,65153,5,4,0:0:0:0:
231,187,65667,1,8,0:0:0:0:
231,187,65838,1,8,0:0:0:0:
230,179,65924,1,8,0:0:0:0:
221,178,66010,1,0,0:0:0:0:
214,189,66353,1,8,0:0:0:0:
202,192,66524,1,0,0:0:0:0:
234,181,66610,1,0,0:0:0:0:
238,197,66781,1,8,0:0:0:0:
239,179,66867,1,8,0:0:0:0:
238,180,67038,1,8,0:0:0:0:
198,193,67210,1,0,0:0:0:0:
242,181,67296,1,0,0:0:0:0:
221,178,67381,1,0,0:0:0:0:
214,189,67724,1,8,0:0:0:0:
202,192,67896,1,8,0:0:0:0:
242,181,67981,1,8,0:0:0:0:
239,179,68153,1,0,0:0:0:0:
239,179,68238,1,0,0:0:0:0:
236,173,68410,1,8,0:0:0:0:
210,197,68581,1,0,0:0:0:0:
173,195,68667,1,0,0:0:0:0:
234,182,68753,1,0,0:0:0:0:
214,189,69096,1,8,0:0:0:0:
202,192,69267,1,8,0:0:0:0:
197,167,69353,1,0,0:0:0:0:
183,182,69524,1,8,0:0:0:0:
239,179,69610,1,8,0:0:0:0:
238,180,69781,1,8,0:0:0:0:
214,189,70467,1,8,0:0:0:0:
202,192,70638,1,0,0:0:0:0:
231,176,70724,1,0,0:0:0:0:
233,171,70896,1,8,0:0:0:0:
239,179,70981,1,8,0:0:0:0:
238,180,71153,1,8,0:0:0:0:
234,183,71324,1,0,0:0:0:0:
234,182,71410,1,0,0:0:0:0:
221,178,71496,1,0,0:0:0:0:
214,189,71838,1,8,0:0:0:0:
202,192,72010,1,8,0:0:0:0:
239,195,72096,1,8,0:0:0:0:
239,179,72267,1,0,0:0:0:0:
239,179,72353,1,0,0:0:0:0:
238,180,72524,1,8,0:0:0:0:
234,192,72696,1,0,0:0:0:0:
234,192,72781,1,0,0:0:0:0:
221,178,72867,1,0,0:0:0:0:
214,189,73210,1,8,0:0:0:0:
202,192,73381,1,0,0:0:0:0:
226,191,73467,1,0,0:0:0:0:
212,190,73638,1,8,0:0:0:0:
239,179,73724,1,8,0:0:0:0:
238,180,73896,1,8,0:0:0:0:
142,158,74067,1,0,0:0:0:0:
251,167,74153,1,0,0:0:0:0:
243,189,74238,1,0,0:0:0:0:
214,189,74581,1,8,0:0:0:0:
221,180,74667,1,8,0:0:0:0:
221,180,74753,1,8,0:0:0:0:
221,182,74924,1,0,0:0:0:0:
221,178,75096,1,8,0:0:0:0:
221,182,75267,1,8,0:0:0:0:
231,192,75353,1,8,0:0:0:0:
231,192,75438,1,8,0:0:0:0:
221,180,75610,1,4,0:0:0:0:
233,156,75781,1,8,0:0:0:0:
221,195,76124,1,8,0:0:0:0:
265,215,76467,1,8,0:0:0:0:
241,207,76638,1,8,0:0:0:0:
247,213,76724,1,8,0:0:0:0:
255,205,76810,1,8,0:0:0:0:
247,216,76981,1,0,0:0:0:0:
234,181,77153,1,8,0:0:0:0:
257,159,77667,1,8,0:0:0:0:
257,159,77838,1,8,0:0:0:0:
257,159,78010,1,8,0:0:0:0:
257,159,78096,1,8,0:0:0:0:
257,159,78181,1,8,0:0:0:0:
221,180,78353,1,0,0:0:0:0:
255,187,78524,1,8,0:0:0:0:
221,195,78867,1,8,0:0:0:0:
265,215,79210,1,8,0:0:0:0:
241,207,79381,1,8,0:0:0:0:
247,213,79467,1,8,0:0:0:0:
255,205,79553,1,8,0:0:0:0:
247,216,79724,1,0,0:0:0:0:
258,183,79896,1,8,0:0:0:0:
257,159,80410,1,8,0:0:0:0:
257,159,80581,1,8,0:0:0:0:
257,159,80753,1,8,0:0:0:0:
257,159,80838,1,8,0:0:0:0:
168,185,80924,1,8,0:0:0:0:
221,180,81096,1,0,0:0:0:0:
245,217,81267,1,8,0:0:0:0:
221,195,81610,1,8,0:0:0:0:
236,213,81781,1,0,0:0:0:0:
265,215,81953,1,8,0:0:0:0:
245,217,82124,1,8,0:0:0:0:
252,215,82210,1,8,0:0:0:0:
247,213,82296,1,8,0:0:0:0:
247,216,82467,1,0,0:0:0:0:
234,181,82638,1,8,0:0:0:0:
257,159,83153,1,8,0:0:0:0:
257,159,83324,1,8,0:0:0:0:
257,159,83496,1,8,0:0:0:0:
257,159,83581,1,8,0:0:0:0:
257,159,83667,1,8,0:0:0:0:
221,180,83838,1,0,0:0:0:0:
245,217,84010,1,8,0:0:0:0:
221,195,84353,1,8,0:0:0:0:
265,215,84524,1,0,0:0:0:0:
265,215,84696,1,8,0:0:0:0:
257,211,84867,1,8,0:0:0:0:
261,221,84953,1,8,0:0:0:0:
265,187,85038,1,8,0:0:0:0:
283,199,85210,1,0,0:0:0:0:
221,178,86581,5,4,0:0:0:0:
228,198,87096,1,4,0:0:0:0:
276,189,87953,1,0,0:0:0:0:
252,182,88210,1,0,0:0:0:0:
252,194,88296,1,8,0:0:0:0:
263,199,88553,1,0,0:0:0:0:
252,182,88810,5,0,0:0:0:0:
250,174,88981,1,8,0:0:0:0:
239,180,89324,1,0,0:0:0:0:
259,188,89581,1,0,0:0:0:0:
228,178,89667,1,8,0:0:0:0:
223,191,89924,1,0,0:0:0:0:
225,190,90353,1,8,0:0:0:0:
218,196,90696,1,0,0:0:0:0:
178,189,90953,1,0,0:0:0:0:
220,219,91038,1,8,0:0:0:0:
222,213,91296,1,0,0:0:0:0:
223,200,91553,1,0,0:0:0:0:
257,197,91638,1,0,0:0:0:0:
222,213,91724,1,8,0:0:0:0:
200,208,92067,1,0,0:0:0:0:
228,203,92324,1,0,0:0:0:0:
215,216,92410,1,8,0:0:0:0:
215,216,92667,1,0,0:0:0:0:
208,210,93096,1,8,0:0:0:0:
218,219,93438,1,0,0:0:0:0:
218,219,93696,5,0,0:0:0:0:
218,219,93781,1,8,0:0:0:0:
217,217,94038,1,0,0:0:0:0:
224,232,94296,1,0,0:0:0:0:
246,247,94467,1,8,0:0:0:0:
228,236,94810,1,0,0:0:0:0:
244,242,95067,1,0,0:0:0:0:
228,236,95153,5,8,0:0:0:0:
282,200,95410,1,0,0:0:0:0:
258,203,95667,1,0,0:0:0:0:
256,203,95838,1,8,0:0:0:0:
270,188,96181,5,0,0:0:0:0:
275,193,96267,1,0,0:0:0:0:
275,193,96353,1,0,0:0:0:0:
275,193,96524,1,0,0:0:0:0:
275,193,96696,1,0,0:0:0:0:
275,193,96781,1,0,0:0:0:0:
273,206,96867,1,0,0:0:0:0:
284,205,97210,1,12,0:0:0:0:
221,178,97553,1,4,0:0:0:0:
