osu file format v14

[General]
AudioFilename: audio.mp3
AudioLeadIn: 0
PreviewTime: 20753
Countdown: 0
SampleSet: Normal
StackLeniency: 0.7
Mode: 1
LetterboxInBreaks: 0
WidescreenStoryboard: 1

[Editor]
DistanceSpacing: 0.8
BeatDivisor: 6
GridSize: 32
TimelineZoom: 3.099999

[Metadata]
Title:The Sacred Engine
TitleUnicode:The Sacred Engine
Artist:The Panacea & C.A.2K
ArtistUnicode:The Panacea & C.A.2K
Creator:ZTH
Version:Inner Oni
Source:
Tags:dnb drum and bass hardcore neurofunk PRSPCT PDCST 21 electronic instrumental
BeatmapID:4040535
BeatmapSetID:1951095

[Difficulty]
HPDrainRate:6.6
CircleSize:5
OverallDifficulty:6.6
ApproachRate:5
SliderMultiplier:1.4
SliderTickRate:1

[Events]
//Background and Video events
0,0,"d91q3e4-c1a654a0-afe1-4d71-954b-a1b4f45fe79e.jpg",0,-70
//Break Periods
//Storyboard Layer 0 (Background)
//Storyboard Layer 1 (Fail)
//Storyboard Layer 2 (Pass)
//Storyboard Layer 3 (Foreground)
//Storyboard Layer 4 (Overlay)
//Storyboard Sound Samples

[TimingPoints]
182,342.857142857143,4,1,0,50,1,0
182,-125,4,1,0,50,0,0
4296,342.857142857143,4,1,0,95,1,0
4296,-125,4,1,0,95,0,0
4464,-121.221050150274,4,1,0,95,0,0
4636,-117.643694595367,4,1,0,95,0,0
4807,-114.290476719636,4,1,0,95,0,0
4979,-111.105109646754,4,1,0,95,0,0
5150,-108.109528564671,4,1,0,95,0,0
5321,-105.271238485159,4,1,0,95,0,0
5493,-102.562824092541,4,1,0,95,0,0
5664,-100.00486168506,4,1,0,95,0,0
5836,-97.5575053355466,4,1,0,95,0,0
6007,-95.2403000277804,4,1,0,95,0,0
6179,-93.0179976485484,4,1,0,95,0,0
6350,-90.9090909090909,4,1,0,95,0,0
6521,-88.8936905790838,4,1,0,95,0,0
6693,-86.9546838011498,4,1,0,95,0,0
6864,-85.1090239563077,4,1,0,95,0,0
7036,-83.3333333333333,4,1,0,95,0,0
7121,-82.0614113844496,4,1,0,95,0,0
7207,-80.8134394341291,4,1,0,95,0,0
7293,-79.6028566451838,4,1,0,95,0,0
7378,-78.4414692756608,4,1,0,95,0,0
7464,-77.3004059539919,4,1,0,95,0,0
7550,-76.1920640213405,4,1,0,95,0,0
7636,-75.1150558842867,4,1,0,95,0,0
7721,-74.0800778083968,4,1,0,95,0,0
7807,-73.0615507593925,4,1,0,95,0,0
7893,-72.070651316827,4,1,0,95,0,0
7978,-71.1173358232182,4,1,0,95,0,0
8064,-70.1781326781327,4,1,0,95,0,0
8150,-69.2634131555017,4,1,0,95,0,0
8236,-68.3722321962896,4,1,0,95,0,0
8321,-67.5136652385877,4,1,0,95,0,0
8407,-66.6666666666667,4,1,0,95,0,0
9436,-50,4,1,0,95,0,0
9779,-78.125,4,1,0,95,0,0
15264,-72.463768115942,4,1,0,95,0,0
15307,-73.1280914207744,4,1,0,95,0,0
15350,-73.8047080087791,4,1,0,95,0,0
15435,-75.1797299666842,4,1,0,95,0,0
15521,-76.6240729157359,4,1,0,95,0,0
15607,-78.125,4,1,0,95,0,0
19550,-65.5737704918033,4,1,0,95,0,0
19636,-66.4481261628422,4,1,0,95,0,0
19721,-67.3355329607434,4,1,0,95,0,0
19764,-67.7935460544156,4,1,0,95,0,0
19807,-68.2578325862893,4,1,0,95,0,0
19850,-68.7285223367698,4,1,0,95,0,0
19893,-69.2057486908579,4,1,0,95,0,0
19979,-70.1803635342831,4,1,0,95,0,0
20064,-71.1710001897893,4,1,0,95,0,0
20150,-72.202166064982,4,1,0,95,0,0
20236,-73.2636514603888,4,1,0,95,0,0
20321,-74.3439149505613,4,1,0,95,0,0
20407,-75.4697995018993,4,1,0,95,0,0
20493,-76.6303098418861,4,1,0,95,0,0
20536,-77.2240527182866,4,1,0,95,0,0
20579,-77.8270682543389,4,1,0,95,0,0
20664,-79.0472175379427,4,1,0,95,0,0
20748,-55.5555555555556,4,1,0,95,0,0
21779,-78.125,4,1,0,95,0,0
26235,-72.463768115942,4,1,0,95,0,0
26278,-73.1280914207744,4,1,0,95,0,0
26321,-73.8047080087791,4,1,0,95,0,0
26407,-75.1962116893936,4,1,0,95,0,0
26493,-76.6411940832104,4,1,0,95,0,0
26578,-78.125,4,1,0,95,0,0
30521,-65.5737704918033,4,1,0,95,0,0
30607,-66.4481261628422,4,1,0,95,0,0
30693,-67.3461141292148,4,1,0,95,0,0
30736,-67.8042716691152,4,1,0,95,0,0
30778,-68.2578325862893,4,1,0,95,0,0
30821,-68.7285223367698,4,1,0,95,0,0
30864,-69.2057486908579,4,1,0,95,0,0
30950,-70.1803635342831,4,1,0,95,0,0
31036,-71.1828212124807,4,1,0,95,0,0
31121,-72.202166064982,4,1,0,95,0,0
31207,-73.2636514603888,4,1,0,95,0,0
31293,-74.3568135626828,4,1,0,95,0,0
31378,-75.4697995018993,4,1,0,95,0,0
31464,-76.6303098418861,4,1,0,95,0,0
31507,-77.2240527182866,4,1,0,95,0,0
31550,-77.8270682543389,4,1,0,95,0,0
31636,-79.0617999736461,4,1,0,95,0,0
31724,-72.202166064982,4,1,0,95,0,1
33693,-71.4285714285714,4,1,0,95,0,1
33779,-69.9300699300699,4,1,0,95,0,1
33864,-67.7966101694915,4,1,0,95,0,1
33950,-65.1465798045603,4,1,0,95,0,1
34036,-62.111801242236,4,1,0,95,0,1
34121,-58.8235294117647,4,1,0,95,0,1
34207,-55.4016620498615,4,1,0,95,0,1
34293,-51.9480519480519,4,1,0,95,0,1
34465,-72.202166064982,4,1,0,95,0,1
36436,-71.4285714285714,4,1,0,95,0,1
36522,-69.9300699300699,4,1,0,95,0,1
36607,-67.7966101694915,4,1,0,95,0,1
36693,-65.1465798045603,4,1,0,95,0,1
36779,-62.111801242236,4,1,0,95,0,1
36864,-58.8235294117647,4,1,0,95,0,1
36922,-57.1428571428571,4,1,0,95,0,1
36979,-55.2486187845304,4,1,0,95,0,1
37037,-53.1914893617021,4,1,0,95,0,1
37207,-72.202166064982,4,1,0,95,0,1
39179,-71.4285714285714,4,1,0,95,0,1
39265,-69.9300699300699,4,1,0,95,0,1
39350,-67.7966101694915,4,1,0,95,0,1
39436,-65.1465798045603,4,1,0,95,0,1
39522,-62.111801242236,4,1,0,95,0,1
39607,-58.8235294117647,4,1,0,95,0,1
39693,-55.4016620498615,4,1,0,95,0,1
39779,-51.9480519480519,4,1,0,95,0,1
39951,-72.202166064982,4,1,0,95,0,1
41324,-71.9424460431655,4,1,0,95,0,0
42696,-54.054054054054,4,1,0,95,0,0
44067,-80.3212851405623,4,1,0,95,0,0
52295,-66.6666666666667,4,1,0,95,0,0
53321,-50,4,1,0,95,0,0
53664,-78.125,4,1,0,95,0,0
58979,-69.9300699300699,4,1,0,95,0,0
59064,-71.1645229623271,4,1,0,95,0,0
59107,-71.8057612248889,4,1,0,95,0,0
59150,-72.4586605015718,4,1,0,95,0,0
59193,-73.1235417970751,4,1,0,95,0,0
59236,-73.8007380073801,4,1,0,95,0,0
59321,-75.1769730298953,4,1,0,95,0,0
59407,-76.6226409469008,4,1,0,95,0,0
59493,-78.125,4,1,0,95,0,0
63436,-65.5737704918033,4,1,0,95,0,0
63521,-66.4378252685195,4,1,0,95,0,0
63607,-67.3355329607434,4,1,0,95,0,0
63650,-67.7935460544156,4,1,0,95,0,0
63693,-68.2578325862893,4,1,0,95,0,0
63736,-68.7285223367698,4,1,0,95,0,0
63778,-69.1945751453086,4,1,0,95,0,0
63864,-70.1688730878982,4,1,0,95,0,0
63950,-71.1710001897893,4,1,0,95,0,0
64036,-72.202166064982,4,1,0,95,0,0
64121,-73.2511292882432,4,1,0,95,0,0
64207,-74.3439149505613,4,1,0,95,0,0
64293,-75.4697995018993,4,1,0,95,0,0
64378,-76.6166104811523,4,1,0,95,0,0
64421,-77.2101402650881,4,1,0,95,0,0
64464,-77.8129376977745,4,1,0,95,0,0
64550,-79.0472175379427,4,1,0,95,0,0
64633,-52.6315789473684,4,1,0,95,0,0
65664,-78.125,4,1,0,95,0,0
69950,-69.9300699300699,4,1,0,95,0,0
70036,-71.1793053786074,4,1,0,95,0,0
70079,-71.8208112677631,4,1,0,95,0,0
70121,-72.4586605015718,4,1,0,95,0,0
70164,-73.1235417970751,4,1,0,95,0,0
70207,-73.8007380073801,4,1,0,95,0,0
70293,-75.1934695788288,4,1,0,95,0,0
70379,-76.6397781323155,4,1,0,95,0,0
70464,-78.125,4,1,0,95,0,0
74407,-65.5737704918033,4,1,0,95,0,0
74493,-66.4481261628422,4,1,0,95,0,0
74579,-67.3461141292148,4,1,0,95,0,0
74621,-67.7935460544156,4,1,0,95,0,0
74664,-68.2578325862893,4,1,0,95,0,0
74707,-68.7285223367698,4,1,0,95,0,0
74750,-69.2057486908579,4,1,0,95,0,0
74836,-70.1803635342831,4,1,0,95,0,0
74921,-71.1710001897893,4,1,0,95,0,0
75007,-72.202166064982,4,1,0,95,0,0
75093,-73.2636514603888,4,1,0,95,0,0
75179,-74.3568135626828,4,1,0,95,0,0
75264,-75.4697995018993,4,1,0,95,0,0
75350,-76.6303098418861,4,1,0,95,0,0
75393,-77.2240527182866,4,1,0,95,0,0
75436,-77.8270682543389,4,1,0,95,0,0
75521,-79.0472175379427,4,1,0,95,0,0
75606,-72.202166064982,4,1,0,95,0,0
75610,-72.202166064982,4,1,0,95,0,1
77578,-71.4285714285714,4,1,0,95,0,1
77664,-69.9300699300699,4,1,0,95,0,1
77749,-67.7966101694915,4,1,0,95,0,1
77835,-65.1465798045603,4,1,0,95,0,1
77921,-62.111801242236,4,1,0,95,0,1
78006,-58.8235294117647,4,1,0,95,0,1
78092,-55.4016620498615,4,1,0,95,0,1
78178,-51.9480519480519,4,1,0,95,0,1
78350,-72.202166064982,4,1,0,95,0,1
80321,-71.4285714285714,4,1,0,95,0,1
80407,-69.9300699300699,4,1,0,95,0,1
80492,-67.7966101694915,4,1,0,95,0,1
80578,-65.1465798045603,4,1,0,95,0,1
80664,-62.111801242236,4,1,0,95,0,1
80749,-58.8235294117647,4,1,0,95,0,1
80807,-57.1428571428571,4,1,0,95,0,1
80864,-55.2486187845304,4,1,0,95,0,1
80922,-53.1914893617021,4,1,0,95,0,1
81092,-72.202166064982,4,1,0,95,0,1
83064,-71.4285714285714,4,1,0,95,0,1
83150,-69.9300699300699,4,1,0,95,0,1
83235,-67.7966101694915,4,1,0,95,0,1
83321,-65.1465798045603,4,1,0,95,0,1
83407,-62.111801242236,4,1,0,95,0,1
83492,-58.8235294117647,4,1,0,95,0,1
83578,-55.4016620498615,4,1,0,95,0,1
83664,-51.9480519480519,4,1,0,95,0,1
83836,-72.202166064982,4,1,0,95,0,1
85210,-71.9424460431655,4,1,0,95,0,0
86581,-51.2820512820513,4,1,0,95,0,0
87952,-80.3212851405623,4,1,0,95,0,0
94379,-79.57805907173,4,1,0,95,0,0
94464,-78.8568680945363,4,1,0,95,0,0
94521,-78.3805237281866,4,1,0,95,0,0
94579,-77.9016935150764,4,1,0,95,0,0
94636,-77.4367849363692,4,1,0,95,0,0
94721,-76.7537166135576,4,1,0,95,0,0
94807,-76.0747678630493,4,1,0,95,0,0
94864,-75.631347308691,4,1,0,95,0,0
94921,-75.1930659713501,4,1,0,95,0,0
94979,-74.7522790328973,4,1,0,95,0,0
95064,-74.1155550315856,4,1,0,95,0,0
95150,-73.4822849639894,4,1,0,95,0,0
95321,-72.2547228000812,4,1,0,95,0,0
95379,-71.847619047619,4,1,0,95,0,0
95436,-71.4519792311903,4,1,0,95,0,0
95493,-71.0606728533912,4,1,0,95,0,0
95579,-70.4783258594918,4,1,0,95,0,0
95664,-69.9120538982642,4,1,0,95,0,0
95721,-69.5373883290748,4,1,0,95,0,0
95779,-69.1602493582692,4,1,0,95,0,0
95836,-68.7935773207345,4,1,0,95,0,0
95893,-68.4307728033032,4,1,0,95,0,0
95950,-68.0717749372429,4,1,0,95,0,0
96007,-67.7165241244605,4,1,0,95,0,0
96179,-66.6666666666667,4,1,0,95,0,0
96180,-66.6666666666667,4,1,0,95,0,0
97206,-50,4,1,0,95,0,0
97551,-41.6666666666667,4,1,0,95,0,0

[HitObjects]
275,181,4296,5,0,0:0:0:0:
263,184,4467,1,0,0:0:0:0:
275,181,4638,1,0,0:0:0:0:
263,184,4810,1,0,0:0:0:0:
275,181,4981,1,0,0:0:0:0:
263,184,5153,1,0,0:0:0:0:
275,181,5324,1,0,0:0:0:0:
263,184,5496,1,0,0:0:0:0:
263,184,5667,1,0,0:0:0:0:
263,184,5838,1,0,0:0:0:0:
263,184,6010,1,0,0:0:0:0:
263,184,6181,1,0,0:0:0:0:
263,184,6353,1,0,0:0:0:0:
263,184,6524,1,0,0:0:0:0:
263,184,6696,1,0,0:0:0:0:
263,184,6867,1,0,0:0:0:0:
263,184,7038,1,8,0:0:0:0:
270,188,7124,1,8,0:0:0:0:
270,188,7210,1,0,0:0:0:0:
270,188,7296,1,0,0:0:0:0:
270,188,7381,1,8,0:0:0:0:
270,188,7467,1,0,0:0:0:0:
270,188,7553,1,8,0:0:0:0:
270,188,7638,1,0,0:0:0:0:
270,188,7724,1,0,0:0:0:0:
270,188,7810,1,0,0:0:0:0:
270,188,7896,1,8,0:0:0:0:
270,188,7981,1,0,0:0:0:0:
270,188,8067,1,8,0:0:0:0:
270,188,8153,1,8,0:0:0:0:
270,188,8238,1,0,0:0:0:0:
270,188,8324,1,8,0:0:0:0:
270,188,8410,1,0,0:0:0:0:
275,193,8467,1,8,0:0:0:0:
275,193,8524,1,8,0:0:0:0:
275,193,8581,1,0,0:0:0:0:
275,193,8638,1,0,0:0:0:0:
275,193,8696,1,0,0:0:0:0:
275,193,8753,1,8,0:0:0:0:
275,193,8810,1,8,0:0:0:0:
275,193,8867,1,0,0:0:0:0:
275,193,8924,1,8,0:0:0:0:
275,193,8981,1,8,0:0:0:0:
275,193,9038,1,8,0:0:0:0:
273,206,9096,1,0,0:0:0:0:
284,205,9438,1,12,0:0:0:0:
221,178,9781,1,4,0:0:0:0:
233,167,9924,1,8,0:0:0:0:
240,171,9981,1,0,0:0:0:0:
214,189,10038,1,0,0:0:0:0:
214,189,10124,1,8,0:0:0:0:
202,192,10296,1,8,0:0:0:0:
221,187,10381,1,0,0:0:0:0:
230,182,10553,1,0,0:0:0:0:
230,189,10610,1,8,0:0:0:0:
228,192,10667,1,8,0:0:0:0:
230,194,10724,1,0,0:0:0:0:
238,180,10810,1,8,0:0:0:0:
236,166,10981,1,0,0:0:0:0:
196,189,11067,1,8,0:0:0:0:
221,178,11153,1,0,0:0:0:0:
233,167,11296,1,8,0:0:0:0:
240,171,11353,1,8,0:0:0:0:
214,189,11410,1,0,0:0:0:0:
214,189,11496,1,8,0:0:0:0:
202,192,11667,1,8,0:0:0:0:
221,187,11753,1,0,0:0:0:0:
239,179,11924,1,8,0:0:0:0:
239,179,11981,1,8,0:0:0:0:
239,179,12038,1,0,0:0:0:0:
238,180,12096,1,0,0:0:0:0:
234,192,12181,1,8,0:0:0:0:
213,184,12353,1,8,0:0:0:0:
183,175,12438,1,8,0:0:0:0:
221,178,12524,1,0,0:0:0:0:
233,167,12667,1,8,0:0:0:0:
240,171,12724,1,0,0:0:0:0:
214,189,12781,1,0,0:0:0:0:
214,189,12867,1,8,0:0:0:0:
202,192,13038,1,8,0:0:0:0:
221,187,13124,1,0,0:0:0:0:
239,179,13296,1,8,0:0:0:0:
239,179,13353,1,8,0:0:0:0:
239,179,13410,1,0,0:0:0:0:
236,194,13467,1,0,0:0:0:0:
238,180,13553,1,8,0:0:0:0:
249,196,13724,1,0,0:0:0:0:
132,148,13810,1,8,0:0:0:0:
221,178,13896,1,0,0:0:0:0:
233,167,14038,1,8,0:0:0:0:
240,171,14096,1,8,0:0:0:0:
214,189,14153,1,0,0:0:0:0:
214,189,14238,1,8,0:0:0:0:
202,192,14410,1,8,0:0:0:0:
221,187,14496,1,0,0:0:0:0:
239,179,14667,1,0,0:0:0:0:
239,179,14724,1,8,0:0:0:0:
239,179,14781,1,8,0:0:0:0:
221,166,14838,1,0,0:0:0:0:
238,180,14924,1,8,0:0:0:0:
234,192,14981,1,8,0:0:0:0:
234,192,15038,1,0,0:0:0:0:
234,192,15096,1,0,0:0:0:0:
237,157,15153,1,8,0:0:0:0:
231,185,15267,1,8,0:0:0:0:
239,189,15310,1,8,0:0:0:0:
239,189,15353,1,0,0:0:0:0:
226,207,15438,1,0,0:0:0:0:
230,190,15524,1,0,0:0:0:0:
214,189,15610,1,8,0:0:0:0:
202,192,15781,1,8,0:0:0:0:
221,187,15867,1,0,0:0:0:0:
239,179,16038,1,8,0:0:0:0:
239,179,16096,1,8,0:0:0:0:
239,179,16153,1,0,0:0:0:0:
238,180,16210,1,0,0:0:0:0:
234,183,16296,1,8,0:0:0:0:
225,178,16467,1,0,0:0:0:0:
172,180,16553,1,8,0:0:0:0:
221,178,16638,1,0,0:0:0:0:
233,167,16781,1,8,0:0:0:0:
240,171,16838,1,8,0:0:0:0:
214,189,16896,1,0,0:0:0:0:
214,189,16981,1,8,0:0:0:0:
202,192,17153,1,8,0:0:0:0:
221,187,17238,1,0,0:0:0:0:
239,179,17410,1,0,0:0:0:0:
239,179,17467,1,8,0:0:0:0:
239,179,17524,1,8,0:0:0:0:
238,180,17581,1,0,0:0:0:0:
234,192,17667,1,8,0:0:0:0:
144,184,17838,1,8,0:0:0:0:
234,192,17924,1,8,0:0:0:0:
221,178,18010,1,0,0:0:0:0:
233,167,18153,1,8,0:0:0:0:
240,171,18210,1,0,0:0:0:0:
214,189,18267,1,0,0:0:0:0:
214,189,18353,1,8,0:0:0:0:
202,192,18524,1,8,0:0:0:0:
221,187,18610,1,0,0:0:0:0:
239,179,18781,1,8,0:0:0:0:
239,179,18838,1,8,0:0:0:0:
239,179,18896,1,0,0:0:0:0:
238,180,18953,1,0,0:0:0:0:
234,183,19038,1,8,0:0:0:0:
243,189,19210,1,8,0:0:0:0:
234,182,19267,1,8,0:0:0:0:
214,189,19324,1,8,0:0:0:0:
221,178,19381,1,0,0:0:0:0:
233,167,19553,1,8,0:0:0:0:
184,176,19638,1,0,0:0:0:0:
214,189,19724,1,8,0:0:0:0:
221,180,19767,1,8,0:0:0:0:
221,180,19810,1,0,0:0:0:0:
209,180,19853,1,0,0:0:0:0:
221,180,19896,1,8,0:0:0:0:
221,180,19981,1,8,0:0:0:0:
221,182,20067,1,0,0:0:0:0:
221,182,20153,1,0,0:0:0:0:
221,178,20238,1,8,0:0:0:0:
185,167,20324,1,0,0:0:0:0:
221,182,20410,1,8,0:0:0:0:
231,192,20496,1,0,0:0:0:0:
231,192,20538,1,0,0:0:0:0:
231,192,20581,1,8,0:0:0:0:
208,193,20667,1,8,0:0:0:0:
211,185,20753,1,4,0:0:0:0:
231,187,21267,1,4,0:0:0:0:
231,187,21781,1,8,0:0:0:0:
231,187,21953,1,8,0:0:0:0:
230,179,22038,1,8,0:0:0:0:
221,178,22124,1,0,0:0:0:0:
233,167,22296,1,8,0:0:0:0:
240,171,22338,1,8,0:0:0:0:
214,189,22381,1,0,0:0:0:0:
214,189,22467,1,8,0:0:0:0:
202,192,22638,1,8,0:0:0:0:
221,187,22724,1,0,0:0:0:0:
238,197,22896,1,0,0:0:0:0:
239,179,22981,1,8,0:0:0:0:
233,171,23067,1,0,0:0:0:0:
238,180,23153,1,8,0:0:0:0:
198,193,23324,1,8,0:0:0:0:
242,181,23381,1,8,0:0:0:0:
234,192,23438,1,8,0:0:0:0:
221,178,23496,1,0,0:0:0:0:
233,167,23667,1,8,0:0:0:0:
240,171,23710,1,0,0:0:0:0:
214,189,23753,1,0,0:0:0:0:
214,189,23838,1,8,0:0:0:0:
202,192,24010,1,8,0:0:0:0:
221,187,24096,1,0,0:0:0:0:
239,179,24267,1,8,0:0:0:0:
239,179,24353,1,0,0:0:0:0:
239,179,24438,1,0,0:0:0:0:
236,173,24524,1,8,0:0:0:0:
210,197,24696,1,0,0:0:0:0:
173,195,24753,1,8,0:0:0:0:
234,188,24810,1,8,0:0:0:0:
234,182,24867,1,0,0:0:0:0:
233,167,25038,1,8,0:0:0:0:
240,171,25081,1,8,0:0:0:0:
214,189,25124,1,0,0:0:0:0:
214,189,25210,1,8,0:0:0:0:
202,192,25381,1,8,0:0:0:0:
221,187,25467,1,0,0:0:0:0:
239,179,25638,1,0,0:0:0:0:
239,179,25724,1,8,0:0:0:0:
238,180,25896,1,8,0:0:0:0:
234,192,25953,1,8,0:0:0:0:
234,192,26010,1,0,0:0:0:0:
234,192,26067,1,0,0:0:0:0:
228,193,26124,1,8,0:0:0:0:
231,185,26238,1,8,0:0:0:0:
239,189,26281,1,8,0:0:0:0:
239,189,26324,1,0,0:0:0:0:
239,189,26410,1,0,0:0:0:0:
230,190,26496,1,0,0:0:0:0:
214,189,26581,1,8,0:0:0:0:
202,192,26753,1,8,0:0:0:0:
221,187,26838,1,0,0:0:0:0:
239,179,27010,1,0,0:0:0:0:
239,179,27096,1,8,0:0:0:0:
233,171,27181,1,0,0:0:0:0:
238,180,27267,1,8,0:0:0:0:
234,183,27438,1,0,0:0:0:0:
234,182,27496,1,8,0:0:0:0:
191,165,27553,1,8,0:0:0:0:
221,178,27610,1,0,0:0:0:0:
233,167,27781,1,8,0:0:0:0:
240,171,27824,1,8,0:0:0:0:
214,189,27867,1,0,0:0:0:0:
214,189,27953,1,8,0:0:0:0:
202,192,28124,1,8,0:0:0:0:
221,187,28210,1,0,0:0:0:0:
239,179,28381,1,8,0:0:0:0:
239,179,28467,1,8,0:0:0:0:
233,171,28553,1,0,0:0:0:0:
238,180,28638,1,8,0:0:0:0:
234,192,28810,1,8,0:0:0:0:
234,192,28867,1,8,0:0:0:0:
234,192,28924,1,8,0:0:0:0:
221,178,28981,1,0,0:0:0:0:
233,167,29153,1,8,0:0:0:0:
240,171,29196,1,0,0:0:0:0:
214,189,29238,1,0,0:0:0:0:
214,189,29324,1,8,0:0:0:0:
202,192,29496,1,8,0:0:0:0:
221,187,29581,1,0,0:0:0:0:
212,190,29753,1,8,0:0:0:0:
239,179,29838,1,0,0:0:0:0:
233,171,29924,1,0,0:0:0:0:
238,180,30010,1,8,0:0:0:0:
192,190,30181,1,0,0:0:0:0:
181,185,30238,1,8,0:0:0:0:
243,189,30295,1,8,0:0:0:0:
221,178,30353,1,0,0:0:0:0:
233,167,30524,1,8,0:0:0:0:
208,177,30610,1,0,0:0:0:0:
214,189,30695,1,8,0:0:0:0:
221,180,30738,1,8,0:0:0:0:
221,180,30781,1,8,0:0:0:0:
203,178,30824,1,8,0:0:0:0:
221,180,30867,1,0,0:0:0:0:
221,180,30953,1,0,0:0:0:0:
221,182,31038,1,8,0:0:0:0:
221,182,31124,1,8,0:0:0:0:
221,178,31210,1,0,0:0:0:0:
221,178,31295,1,0,0:0:0:0:
221,182,31381,1,8,0:0:0:0:
231,192,31467,1,0,0:0:0:0:
231,192,31510,1,0,0:0:0:0:
231,192,31553,1,8,0:0:0:0:
218,185,31638,1,8,0:0:0:0:
221,180,31724,1,4,0:0:0:0:
245,217,31895,1,8,0:0:0:0:
225,215,31981,1,0,0:0:0:0:
257,196,32067,1,8,0:0:0:0:
221,195,32238,1,8,0:0:0:0:
281,221,32324,1,0,0:0:0:0:
234,206,32410,1,0,0:0:0:0:
265,215,32495,1,0,0:0:0:0:
265,215,32581,1,8,0:0:0:0:
252,215,32667,1,0,0:0:0:0:
241,207,32753,1,8,0:0:0:0:
245,217,32810,1,8,0:0:0:0:
247,213,32867,1,0,0:0:0:0:
255,205,32924,1,0,0:0:0:0:
254,164,33010,1,8,0:0:0:0:
247,216,33096,1,0,0:0:0:0:
234,181,33267,1,8,0:0:0:0:
204,156,33353,1,0,0:0:0:0:
258,183,33438,1,8,0:0:0:0:
236,165,33610,1,0,0:0:0:0:
236,165,33696,1,0,0:0:0:0:
257,159,33781,1,8,0:0:0:0:
257,159,33867,1,0,0:0:0:0:
257,159,33953,1,8,0:0:0:0:
257,159,34038,1,0,0:0:0:0:
257,159,34124,1,8,0:0:0:0:
257,159,34210,1,8,0:0:0:0:
257,159,34296,1,8,0:0:0:0:
221,180,34467,1,0,0:0:0:0:
245,217,34638,1,8,0:0:0:0:
238,211,34696,1,0,0:0:0:0:
238,211,34753,1,0,0:0:0:0:
257,196,34810,1,8,0:0:0:0:
221,195,34981,1,8,0:0:0:0:
281,221,35067,1,0,0:0:0:0:
234,206,35153,1,0,0:0:0:0:
265,215,35238,1,0,0:0:0:0:
265,215,35324,1,8,0:0:0:0:
252,215,35410,1,0,0:0:0:0:
241,207,35496,1,8,0:0:0:0:
245,217,35553,1,8,0:0:0:0:
247,213,35610,1,8,0:0:0:0:
255,205,35667,1,0,0:0:0:0:
241,160,35753,1,8,0:0:0:0:
247,216,35838,1,0,0:0:0:0:
258,183,36010,1,8,0:0:0:0:
157,175,36096,1,0,0:0:0:0:
234,181,36181,1,8,0:0:0:0:
236,165,36353,1,0,0:0:0:0:
236,165,36438,1,0,0:0:0:0:
257,159,36524,1,8,0:0:0:0:
257,159,36610,1,0,0:0:0:0:
257,159,36696,1,8,0:0:0:0:
257,159,36781,1,0,0:0:0:0:
257,159,36867,1,8,0:0:0:0:
257,159,36924,1,0,0:0:0:0:
257,159,36981,1,0,0:0:0:0:
168,185,37038,1,8,0:0:0:0:
221,180,37210,1,0,0:0:0:0:
245,217,37381,1,8,0:0:0:0:
225,215,37467,1,0,0:0:0:0:
257,196,37553,1,8,0:0:0:0:
221,195,37724,1,8,0:0:0:0:
281,221,37810,1,0,0:0:0:0:
234,206,37896,1,8,0:0:0:0:
265,215,37981,1,0,0:0:0:0:
265,215,38067,1,8,0:0:0:0:
252,215,38153,1,0,0:0:0:0:
241,207,38238,1,8,0:0:0:0:
245,217,38296,1,8,0:0:0:0:
247,213,38353,1,0,0:0:0:0:
255,205,38410,1,0,0:0:0:0:
254,164,38496,1,8,0:0:0:0:
247,216,38581,1,0,0:0:0:0:
234,181,38753,1,8,0:0:0:0:
204,156,38838,1,0,0:0:0:0:
258,183,38924,1,8,0:0:0:0:
236,165,39096,1,0,0:0:0:0:
236,165,39181,1,0,0:0:0:0:
257,159,39267,1,8,0:0:0:0:
257,159,39353,1,0,0:0:0:0:
257,159,39438,1,8,0:0:0:0:
257,159,39524,1,0,0:0:0:0:
257,159,39610,1,8,0:0:0:0:
257,159,39696,1,8,0:0:0:0:
257,159,39781,1,8,0:0:0:0:
221,180,39953,1,0,0:0:0:0:
245,217,40124,1,8,0:0:0:0:
238,211,40181,1,8,0:0:0:0:
238,211,40238,1,0,0:0:0:0:
257,196,40296,1,8,0:0:0:0:
221,195,40467,1,8,0:0:0:0:
281,221,40553,1,0,0:0:0:0:
234,206,40638,1,0,0:0:0:0:
265,215,40724,1,0,0:0:0:0:
265,215,40810,1,8,0:0:0:0:
252,215,40896,1,0,0:0:0:0:
241,207,40981,1,8,0:0:0:0:
257,211,41038,1,8,0:0:0:0:
218,210,41096,1,8,0:0:0:0:
257,211,41153,1,0,0:0:0:0:
261,221,41238,1,0,0:0:0:0:
265,187,41324,1,8,0:0:0:0:
239,184,42696,1,4,0:0:0:0:
239,184,43210,1,4,0:0:0:0:
276,189,44067,1,0,0:0:0:0:
259,190,44324,1,0,0:0:0:0:
252,194,44410,1,8,0:0:0:0:
200,187,44581,1,8,0:0:0:0:
250,174,44667,1,0,0:0:0:0:
244,182,44838,1,8,0:0:0:0:
250,174,44924,1,0,0:0:0:0:
185,177,45010,1,0,0:0:0:0:
250,174,45096,1,8,0:0:0:0:
207,174,45153,1,8,0:0:0:0:
207,174,45210,1,0,0:0:0:0:
223,174,45267,1,8,0:0:0:0:
239,180,45438,1,0,0:0:0:0:
228,178,45610,1,8,0:0:0:0:
228,178,45696,1,0,0:0:0:0:
228,178,45781,1,8,0:0:0:0:
226,185,45953,1,8,0:0:0:0:
223,191,46038,1,0,0:0:0:0:
226,180,46210,1,0,0:0:0:0:
208,189,46296,1,8,0:0:0:0:
187,224,46381,1,0,0:0:0:0:
225,190,46467,1,8,0:0:0:0:
222,197,46524,1,0,0:0:0:0:
223,202,46581,1,0,0:0:0:0:
194,216,46638,1,8,0:0:0:0:
218,196,46810,1,0,0:0:0:0:
220,219,47067,1,0,0:0:0:0:
220,219,47153,1,8,0:0:0:0:
229,197,47324,1,8,0:0:0:0:
222,213,47410,1,0,0:0:0:0:
240,200,47581,1,8,0:0:0:0:
222,213,47667,1,0,0:0:0:0:
222,213,47753,1,0,0:0:0:0:
222,213,47838,1,8,0:0:0:0:
200,208,47896,1,0,0:0:0:0:
200,208,47953,1,0,0:0:0:0:
200,208,48010,1,8,0:0:0:0:
200,208,48067,1,8,0:0:0:0:
200,208,48124,1,8,0:0:0:0:
200,208,48181,1,0,0:0:0:0:
206,180,48353,1,8,0:0:0:0:
222,213,48438,1,0,0:0:0:0:
215,216,48524,1,8,0:0:0:0:
205,224,48696,1,8,0:0:0:0:
215,216,48781,1,0,0:0:0:0:
197,197,48953,1,0,0:0:0:0:
171,213,49038,1,8,0:0:0:0:
250,214,49124,1,0,0:0:0:0:
208,210,49210,1,8,0:0:0:0:
223,216,49267,1,0,0:0:0:0:
223,216,49324,1,0,0:0:0:0:
223,219,49381,1,8,0:0:0:0:
218,219,49553,1,0,0:0:0:0:
218,219,49810,1,0,0:0:0:0:
218,219,49896,1,8,0:0:0:0:
221,231,50067,1,8,0:0:0:0:
217,217,50153,1,0,0:0:0:0:
224,232,50324,1,8,0:0:0:0:
251,250,50410,1,0,0:0:0:0:
246,247,50496,1,0,0:0:0:0:
246,247,50581,1,8,0:0:0:0:
251,250,50638,1,8,0:0:0:0:
251,250,50696,1,0,0:0:0:0:
233,230,50753,1,8,0:0:0:0:
228,236,50924,1,0,0:0:0:0:
203,202,51096,1,8,0:0:0:0:
244,242,51181,1,0,0:0:0:0:
228,236,51267,5,8,0:0:0:0:
231,217,51438,1,8,0:0:0:0:
228,236,51524,1,0,0:0:0:0:
231,228,51696,1,0,0:0:0:0:
258,203,51781,1,8,0:0:0:0:
236,225,51953,1,8,0:0:0:0:
251,200,52010,1,0,0:0:0:0:
251,200,52067,1,0,0:0:0:0:
279,197,52124,1,8,0:0:0:0:
270,188,52296,5,0,0:0:0:0:
275,193,52353,1,8,0:0:0:0:
275,193,52410,1,8,0:0:0:0:
275,193,52467,1,8,0:0:0:0:
275,193,52524,1,0,0:0:0:0:
275,193,52581,1,0,0:0:0:0:
275,193,52638,1,8,0:0:0:0:
275,193,52696,1,8,0:0:0:0:
275,193,52753,1,0,0:0:0:0:
275,193,52810,1,8,0:0:0:0:
275,193,52867,1,8,0:0:0:0:
275,193,52924,1,0,0:0:0:0:
273,206,52981,1,0,0:0:0:0:
284,205,53324,1,12,0:0:0:0:
221,178,53667,1,4,0:0:0:0:
233,167,53810,1,8,0:0:0:0:
240,171,53867,1,0,0:0:0:0:
214,189,53924,1,0,0:0:0:0:
214,189,54010,1,8,0:0:0:0:
202,192,54181,1,8,0:0:0:0:
221,187,54267,1,0,0:0:0:0:
230,182,54438,1,0,0:0:0:0:
230,189,54496,1,8,0:0:0:0:
228,192,54553,1,8,0:0:0:0:
230,194,54610,1,0,0:0:0:0:
238,180,54696,1,8,0:0:0:0:
236,166,54867,1,0,0:0:0:0:
242,166,54953,1,8,0:0:0:0:
221,178,55038,1,0,0:0:0:0:
233,167,55181,1,8,0:0:0:0:
240,171,55238,1,8,0:0:0:0:
214,189,55296,1,0,0:0:0:0:
214,189,55381,1,8,0:0:0:0:
202,192,55553,1,8,0:0:0:0:
221,187,55638,1,0,0:0:0:0:
239,179,55810,1,8,0:0:0:0:
239,179,55867,1,8,0:0:0:0:
239,179,55924,1,0,0:0:0:0:
238,180,55981,1,0,0:0:0:0:
234,192,56067,1,8,0:0:0:0:
213,184,56238,1,8,0:0:0:0:
183,175,56295,1,8,0:0:0:0:
219,193,56353,1,8,0:0:0:0:
221,178,56410,1,0,0:0:0:0:
233,167,56553,1,8,0:0:0:0:
240,171,56610,1,0,0:0:0:0:
214,189,56667,1,0,0:0:0:0:
214,189,56753,1,8,0:0:0:0:
202,192,56924,1,8,0:0:0:0:
221,187,57010,1,0,0:0:0:0:
239,179,57181,1,8,0:0:0:0:
239,179,57238,1,8,0:0:0:0:
239,179,57295,1,0,0:0:0:0:
236,194,57353,1,0,0:0:0:0:
238,180,57438,1,8,0:0:0:0:
249,196,57610,1,0,0:0:0:0:
272,173,57695,1,8,0:0:0:0:
221,178,57781,1,0,0:0:0:0:
233,167,57924,1,8,0:0:0:0:
240,171,57981,1,8,0:0:0:0:
214,189,58038,1,0,0:0:0:0:
214,189,58124,1,8,0:0:0:0:
202,192,58295,1,8,0:0:0:0:
221,187,58381,1,0,0:0:0:0:
239,179,58553,1,0,0:0:0:0:
239,179,58638,1,8,0:0:0:0:
221,166,58724,1,0,0:0:0:0:
238,180,58810,1,8,0:0:0:0:
226,180,58981,1,8,0:0:0:0:
246,193,59067,1,0,0:0:0:0:
237,157,59110,1,0,0:0:0:0:
231,185,59153,1,8,0:0:0:0:
239,189,59195,1,8,0:0:0:0:
239,189,59238,1,0,0:0:0:0:
226,207,59324,1,0,0:0:0:0:
230,190,59410,1,0,0:0:0:0:
214,189,59495,1,8,0:0:0:0:
202,192,59667,1,8,0:0:0:0:
221,187,59753,1,0,0:0:0:0:
239,179,59924,1,8,0:0:0:0:
239,179,59981,1,8,0:0:0:0:
239,179,60038,1,0,0:0:0:0:
238,180,60095,1,0,0:0:0:0:
234,183,60181,1,8,0:0:0:0:
225,178,60353,1,0,0:0:0:0:
189,167,60438,1,8,0:0:0:0:
221,178,60524,1,0,0:0:0:0:
233,167,60667,1,8,0:0:0:0:
240,171,60724,1,8,0:0:0:0:
214,189,60781,1,0,0:0:0:0:
214,189,60867,1,8,0:0:0:0:
202,192,61038,1,8,0:0:0:0:
221,187,61124,1,0,0:0:0:0:
239,179,61295,1,8,0:0:0:0:
239,179,61353,1,8,0:0:0:0:
239,179,61410,1,0,0:0:0:0:
238,180,61467,1,0,0:0:0:0:
234,192,61553,1,8,0:0:0:0:
144,184,61724,1,8,0:0:0:0:
234,192,61781,1,8,0:0:0:0:
226,189,61838,1,8,0:0:0:0:
221,178,61895,1,0,0:0:0:0:
233,167,62038,1,8,0:0:0:0:
240,171,62095,1,0,0:0:0:0:
214,189,62153,1,0,0:0:0:0:
214,189,62238,1,8,0:0:0:0:
202,192,62410,1,8,0:0:0:0:
221,187,62495,1,0,0:0:0:0:
239,179,62667,1,8,0:0:0:0:
239,179,62724,1,8,0:0:0:0:
239,179,62781,1,0,0:0:0:0:
238,180,62838,1,0,0:0:0:0:
234,183,62924,1,8,0:0:0:0:
243,189,63095,1,0,0:0:0:0:
203,168,63181,1,8,0:0:0:0:
221,178,63267,1,0,0:0:0:0:
233,167,63438,1,8,0:0:0:0:
184,176,63524,1,0,0:0:0:0:
214,189,63610,1,8,0:0:0:0:
221,180,63653,1,8,0:0:0:0:
221,180,63695,1,0,0:0:0:0:
209,180,63738,1,0,0:0:0:0:
221,180,63781,1,8,0:0:0:0:
221,180,63867,1,8,0:0:0:0:
221,182,63953,1,0,0:0:0:0:
221,178,64038,1,8,0:0:0:0:
221,182,64124,1,8,0:0:0:0:
185,167,64210,1,0,0:0:0:0:
221,182,64295,1,8,0:0:0:0:
231,192,64381,1,0,0:0:0:0:
231,192,64424,1,0,0:0:0:0:
231,192,64467,1,8,0:0:0:0:
208,193,64553,1,8,0:0:0:0:
211,185,64638,1,4,0:0:0:0:
231,187,65153,1,4,0:0:0:0:
231,187,65667,1,8,0:0:0:0:
231,187,65838,1,8,0:0:0:0:
230,179,65924,1,8,0:0:0:0:
221,178,66010,1,0,0:0:0:0:
243,189,66181,1,8,0:0:0:0:
214,189,66267,1,0,0:0:0:0:
214,189,66353,1,8,0:0:0:0:
202,192,66524,1,8,0:0:0:0:
221,187,66610,1,0,0:0:0:0:
238,197,66781,1,8,0:0:0:0:
244,193,66838,1,8,0:0:0:0:
244,193,66896,1,0,0:0:0:0:
233,171,66953,1,0,0:0:0:0:
238,180,67038,1,8,0:0:0:0:
198,193,67210,1,8,0:0:0:0:
259,161,67253,1,8,0:0:0:0:
242,181,67296,1,8,0:0:0:0:
221,178,67381,1,0,0:0:0:0:
246,174,67553,1,0,0:0:0:0:
214,189,67638,1,0,0:0:0:0:
214,189,67724,1,8,0:0:0:0:
202,192,67896,1,8,0:0:0:0:
221,187,67981,1,0,0:0:0:0:
239,179,68153,1,0,0:0:0:0:
216,190,68210,1,8,0:0:0:0:
216,190,68267,1,8,0:0:0:0:
216,190,68324,1,0,0:0:0:0:
236,173,68410,1,8,0:0:0:0:
210,197,68581,1,0,0:0:0:0:
202,194,68624,1,0,0:0:0:0:
173,195,68667,1,8,0:0:0:0:
234,182,68753,1,0,0:0:0:0:
223,197,68924,1,8,0:0:0:0:
214,189,69010,1,0,0:0:0:0:
214,189,69096,1,8,0:0:0:0:
202,192,69267,1,8,0:0:0:0:
221,187,69353,1,0,0:0:0:0:
239,179,69524,1,8,0:0:0:0:
239,179,69581,1,8,0:0:0:0:
225,190,69638,1,8,0:0:0:0:
238,209,69696,1,0,0:0:0:0:
238,180,69781,1,8,0:0:0:0:
212,198,69953,1,8,0:0:0:0:
215,211,70038,5,0,0:0:0:0:
231,203,70081,1,0,0:0:0:0:
231,185,70124,1,8,0:0:0:0:
239,189,70167,1,8,0:0:0:0:
239,189,70210,1,0,0:0:0:0:
239,189,70296,1,0,0:0:0:0:
230,190,70381,1,0,0:0:0:0:
214,189,70467,1,8,0:0:0:0:
202,192,70638,1,8,0:0:0:0:
221,187,70724,1,0,0:0:0:0:
239,179,70896,1,0,0:0:0:0:
239,179,70953,1,8,0:0:0:0:
222,182,71010,1,8,0:0:0:0:
233,171,71067,1,0,0:0:0:0:
238,180,71153,1,8,0:0:0:0:
234,183,71324,1,8,0:0:0:0:
207,187,71367,1,8,0:0:0:0:
234,182,71410,1,8,0:0:0:0:
221,178,71496,1,0,0:0:0:0:
170,180,71667,1,0,0:0:0:0:
214,189,71753,1,0,0:0:0:0:
214,189,71838,1,8,0:0:0:0:
202,192,72010,1,8,0:0:0:0:
221,187,72096,1,0,0:0:0:0:
239,179,72267,1,8,0:0:0:0:
239,179,72324,1,8,0:0:0:0:
233,171,72381,1,0,0:0:0:0:
210,184,72438,1,0,0:0:0:0:
238,180,72524,1,8,0:0:0:0:
234,192,72696,1,0,0:0:0:0:
225,197,72738,1,0,0:0:0:0:
234,192,72781,1,8,0:0:0:0:
221,178,72867,1,0,0:0:0:0:
233,167,73038,1,8,0:0:0:0:
214,189,73124,1,0,0:0:0:0:
214,189,73210,1,8,0:0:0:0:
202,192,73381,1,8,0:0:0:0:
221,187,73467,1,0,0:0:0:0:
212,190,73638,1,0,0:0:0:0:
239,179,73696,1,8,0:0:0:0:
210,187,73753,1,8,0:0:0:0:
233,171,73810,1,0,0:0:0:0:
238,180,73896,1,8,0:0:0:0:
192,190,74067,1,8,0:0:0:0:
181,185,74110,1,8,0:0:0:0:
243,189,74153,1,8,0:0:0:0:
221,178,74238,1,0,0:0:0:0:
233,167,74410,1,8,0:0:0:0:
208,177,74496,1,0,0:0:0:0:
214,189,74581,1,8,0:0:0:0:
221,180,74624,1,8,0:0:0:0:
221,180,74667,1,8,0:0:0:0:
203,178,74710,1,8,0:0:0:0:
221,180,74753,1,0,0:0:0:0:
221,180,74838,1,0,0:0:0:0:
221,182,74924,1,8,0:0:0:0:
221,182,75010,1,8,0:0:0:0:
221,178,75096,1,0,0:0:0:0:
221,178,75181,1,8,0:0:0:0:
221,182,75267,1,8,0:0:0:0:
231,192,75353,1,0,0:0:0:0:
231,192,75396,1,0,0:0:0:0:
231,192,75438,1,8,0:0:0:0:
218,185,75524,1,8,0:0:0:0:
221,180,75610,1,4,0:0:0:0:
245,217,75781,1,8,0:0:0:0:
225,215,75867,1,0,0:0:0:0:
257,196,75953,1,8,0:0:0:0:
221,195,76124,1,8,0:0:0:0:
281,221,76210,1,0,0:0:0:0:
234,206,76296,1,0,0:0:0:0:
265,215,76381,1,0,0:0:0:0:
265,215,76467,1,8,0:0:0:0:
252,215,76553,1,0,0:0:0:0:
241,207,76638,1,8,0:0:0:0:
245,217,76696,1,8,0:0:0:0:
247,213,76753,1,0,0:0:0:0:
255,205,76810,1,0,0:0:0:0:
254,164,76896,1,8,0:0:0:0:
247,216,76981,1,0,0:0:0:0:
234,181,77153,1,8,0:0:0:0:
204,156,77238,1,0,0:0:0:0:
258,183,77324,1,8,0:0:0:0:
236,165,77496,1,0,0:0:0:0:
236,165,77581,1,0,0:0:0:0:
257,159,77667,1,8,0:0:0:0:
257,159,77753,1,0,0:0:0:0:
257,159,77838,1,8,0:0:0:0:
257,159,77924,1,0,0:0:0:0:
257,159,78010,1,8,0:0:0:0:
257,159,78096,1,8,0:0:0:0:
257,159,78181,1,8,0:0:0:0:
221,180,78353,1,0,0:0:0:0:
245,217,78524,1,8,0:0:0:0:
238,211,78581,1,0,0:0:0:0:
238,211,78638,1,0,0:0:0:0:
257,196,78696,1,8,0:0:0:0:
221,195,78867,1,8,0:0:0:0:
281,221,78953,1,0,0:0:0:0:
234,206,79038,1,0,0:0:0:0:
265,215,79124,1,0,0:0:0:0:
265,215,79210,1,8,0:0:0:0:
252,215,79296,1,0,0:0:0:0:
241,207,79381,1,8,0:0:0:0:
245,217,79438,1,8,0:0:0:0:
247,213,79496,1,8,0:0:0:0:
255,205,79553,1,0,0:0:0:0:
241,160,79638,1,8,0:0:0:0:
247,216,79724,1,0,0:0:0:0:
258,183,79896,1,8,0:0:0:0:
157,175,79981,1,0,0:0:0:0:
234,181,80067,1,8,0:0:0:0:
236,165,80238,1,0,0:0:0:0:
236,165,80324,1,0,0:0:0:0:
257,159,80410,1,8,0:0:0:0:
257,159,80496,1,0,0:0:0:0:
257,159,80581,1,8,0:0:0:0:
257,159,80667,1,0,0:0:0:0:
257,159,80753,1,8,0:0:0:0:
257,159,80810,1,0,0:0:0:0:
257,159,80867,1,0,0:0:0:0:
168,185,80924,1,8,0:0:0:0:
221,180,81096,1,0,0:0:0:0:
245,217,81267,1,8,0:0:0:0:
225,215,81353,1,0,0:0:0:0:
257,196,81438,1,8,0:0:0:0:
221,195,81610,1,8,0:0:0:0:
281,221,81696,1,0,0:0:0:0:
234,206,81781,1,8,0:0:0:0:
265,215,81867,1,0,0:0:0:0:
265,215,81953,1,8,0:0:0:0:
252,215,82038,1,0,0:0:0:0:
241,207,82124,1,8,0:0:0:0:
245,217,82181,1,8,0:0:0:0:
247,213,82238,1,0,0:0:0:0:
255,205,82296,1,0,0:0:0:0:
254,164,82381,1,8,0:0:0:0:
247,216,82467,1,0,0:0:0:0:
234,181,82638,1,8,0:0:0:0:
204,156,82724,1,0,0:0:0:0:
258,183,82810,1,8,0:0:0:0:
236,165,82981,1,0,0:0:0:0:
236,165,83067,1,0,0:0:0:0:
257,159,83153,1,8,0:0:0:0:
257,159,83238,1,0,0:0:0:0:
257,159,83324,1,8,0:0:0:0:
257,159,83410,1,0,0:0:0:0:
257,159,83496,1,8,0:0:0:0:
257,159,83581,1,8,0:0:0:0:
257,159,83667,1,8,0:0:0:0:
221,180,83838,1,0,0:0:0:0:
245,217,84010,1,8,0:0:0:0:
238,211,84067,1,8,0:0:0:0:
238,211,84124,1,0,0:0:0:0:
257,196,84181,1,8,0:0:0:0:
221,195,84353,1,8,0:0:0:0:
281,221,84438,1,0,0:0:0:0:
234,206,84524,1,0,0:0:0:0:
265,215,84610,1,0,0:0:0:0:
265,215,84696,1,8,0:0:0:0:
252,215,84781,1,0,0:0:0:0:
241,207,84867,1,8,0:0:0:0:
257,211,84924,1,8,0:0:0:0:
264,208,84981,1,8,0:0:0:0:
257,211,85038,1,0,0:0:0:0:
261,221,85124,1,0,0:0:0:0:
265,187,85210,1,8,0:0:0:0:
221,178,86581,1,4,0:0:0:0:
228,198,87096,1,4,0:0:0:0:
276,189,87953,5,0,0:0:0:0:
259,190,88210,1,0,0:0:0:0:
252,194,88296,1,8,0:0:0:0:
250,174,88553,1,0,0:0:0:0:
250,174,88810,1,0,0:0:0:0:
185,177,88896,1,0,0:0:0:0:
250,174,88981,1,8,0:0:0:0:
207,174,89038,1,8,0:0:0:0:
207,174,89096,1,0,0:0:0:0:
234,192,89153,1,8,0:0:0:0:
239,180,89324,1,0,0:0:0:0:
228,178,89496,1,8,0:0:0:0:
228,178,89581,1,0,0:0:0:0:
228,178,89667,1,8,0:0:0:0:
223,191,89924,1,0,0:0:0:0:
208,189,90181,1,8,0:0:0:0:
228,198,90267,1,0,0:0:0:0:
225,190,90353,1,8,0:0:0:0:
222,197,90410,1,0,0:0:0:0:
223,202,90467,1,0,0:0:0:0:
200,209,90524,1,8,0:0:0:0:
218,196,90696,1,0,0:0:0:0:
220,219,90953,1,0,0:0:0:0:
220,219,91038,1,8,0:0:0:0:
222,213,91296,1,0,0:0:0:0:
222,213,91553,1,0,0:0:0:0:
222,213,91638,1,0,0:0:0:0:
222,213,91724,1,8,0:0:0:0:
200,208,91781,1,0,0:0:0:0:
200,208,91838,1,0,0:0:0:0:
200,208,91896,1,8,0:0:0:0:
200,208,91953,1,8,0:0:0:0:
200,208,92010,1,8,0:0:0:0:
200,208,92067,1,0,0:0:0:0:
213,209,92238,1,8,0:0:0:0:
222,213,92324,1,0,0:0:0:0:
215,216,92410,1,8,0:0:0:0:
215,216,92667,1,0,0:0:0:0:
171,213,92924,1,8,0:0:0:0:
240,221,93010,1,0,0:0:0:0:
208,210,93096,1,8,0:0:0:0:
223,216,93153,1,0,0:0:0:0:
223,216,93210,1,0,0:0:0:0:
214,223,93267,1,8,0:0:0:0:
218,219,93438,1,0,0:0:0:0:
218,219,93696,1,0,0:0:0:0:
218,219,93781,1,8,0:0:0:0:
217,217,94038,1,0,0:0:0:0:
251,250,94296,1,0,0:0:0:0:
246,247,94381,1,0,0:0:0:0:
246,247,94467,1,8,0:0:0:0:
251,250,94524,1,8,0:0:0:0:
251,250,94581,1,8,0:0:0:0:
230,248,94638,1,0,0:0:0:0:
250,236,94724,1,0,0:0:0:0:
228,236,94810,1,8,0:0:0:0:
243,224,94867,1,8,0:0:0:0:
243,224,94924,1,8,0:0:0:0:
230,219,94981,1,0,0:0:0:0:
244,242,95067,1,0,0:0:0:0:
228,236,95153,5,8,0:0:0:0:
298,194,95324,1,8,0:0:0:0:
246,202,95381,1,8,0:0:0:0:
266,193,95438,1,8,0:0:0:0:
282,200,95496,1,0,0:0:0:0:
273,206,95581,1,0,0:0:0:0:
258,203,95667,1,8,0:0:0:0:
279,203,95724,1,8,0:0:0:0:
279,203,95781,1,0,0:0:0:0:
236,225,95838,1,8,0:0:0:0:
256,203,95896,1,0,0:0:0:0:
251,200,95953,1,0,0:0:0:0:
215,208,96010,1,8,0:0:0:0:
270,188,96181,5,0,0:0:0:0:
275,193,96238,1,8,0:0:0:0:
275,193,96296,1,8,0:0:0:0:
275,193,96353,1,8,0:0:0:0:
275,193,96410,1,0,0:0:0:0:
275,193,96467,1,0,0:0:0:0:
275,193,96524,1,8,0:0:0:0:
275,193,96581,1,8,0:0:0:0:
275,193,96638,1,0,0:0:0:0:
275,193,96696,1,8,0:0:0:0:
275,193,96753,1,8,0:0:0:0:
275,193,96810,1,8,0:0:0:0:
273,206,96867,1,0,0:0:0:0:
284,205,97210,1,12,0:0:0:0:
221,178,97553,1,4,0:0:0:0:
