osu file format v14

[General]
AudioFilename: audio.mp3
AudioLeadIn: 0
PreviewTime: 107261
Countdown: 0
SampleSet: Normal
StackLeniency: 0.7
Mode: 3
LetterboxInBreaks: 0
SpecialStyle: 0
WidescreenStoryboard: 1

[Editor]
Bookmarks: 66008,110035,153539,175869,197687,219420,285642,304051,329534
DistanceSpacing: 0.8
BeatDivisor: 2
GridSize: 32
TimelineZoom: 1

[Metadata]
Title:Hours & Dreams
TitleUnicode:Hours & Dreams
Artist:The Outside Agency
ArtistUnicode:The Outside Agency
Creator:PreFiXAUT
Version:Easy
Source:
Tags:hardcore crossbreed drum and bass electronic
BeatmapID:1802575
BeatmapSetID:652784

[Difficulty]
HPDrainRate:6
CircleSize:4
OverallDifficulty:7
ApproachRate:5
SliderMultiplier:1.4
SliderTickRate:1

[Events]
//Background and Video events
0,0,"background.jpg",0,0
//Break Periods
//Storyboard Layer 0 (Background)
//Storyboard Layer 1 (Fail)
//Storyboard Layer 2 (Pass)
//Storyboard Layer 3 (Foreground)
//Storyboard Sound Samples

[TimingPoints]
80,342.857142857143,4,1,0,100,1,0

[HitObjects]
448,192,54937,5,0,0:0:0:0:
320,192,55451,1,0,0:0:0:0:
192,192,55965,1,0,0:0:0:0:
64,192,55965,1,0,0:0:0:0:
448,192,56480,1,0,0:0:0:0:
320,192,56651,1,0,0:0:0:0:
192,192,56651,1,0,0:0:0:0:
64,192,56994,1,0,0:0:0:0:
192,192,57337,1,0,0:0:0:0:
320,192,57680,1,0,0:0:0:0:
64,192,60422,1,0,0:0:0:0:
192,192,60937,1,0,0:0:0:0:
320,192,61451,1,0,0:0:0:0:
448,192,61451,1,0,0:0:0:0:
192,192,61794,1,0,0:0:0:0:
448,192,62480,1,0,0:0:0:0:
320,192,63165,1,0,0:0:0:0:
64,192,63165,1,0,0:0:0:0:
192,192,65908,128,0,66594:0:0:0:0:
320,192,66594,128,0,66937:0:0:0:0:
448,192,66937,128,0,67280:0:0:0:0:
320,192,67280,128,0,67965:0:0:0:0:
192,192,67965,128,0,68651:0:0:0:0:
64,192,68651,128,0,70022:0:0:0:0:
320,192,68651,128,0,70022:0:0:0:0:
448,192,70022,128,0,70708:0:0:0:0:
192,192,70022,128,0,71394:0:0:0:0:
320,192,70708,128,0,71394:0:0:0:0:
448,192,71394,128,0,71737:0:0:0:0:
64,192,71737,128,0,72765:0:0:0:0:
192,192,72765,128,0,74137:0:0:0:0:
320,192,72765,128,0,74137:0:0:0:0:
448,192,74137,128,0,76880:0:0:0:0:
320,192,76880,128,0,77565:0:0:0:0:
192,192,77565,128,0,77908:0:0:0:0:
64,192,77908,128,0,78251:0:0:0:0:
320,192,78251,128,0,78937:0:0:0:0:
448,192,78937,128,0,79622:0:0:0:0:
192,192,79622,128,0,80994:0:0:0:0:
64,192,80994,128,0,81680:0:0:0:0:
192,192,81680,128,0,82365:0:0:0:0:
320,192,82365,128,0,82708:0:0:0:0:
448,192,82708,128,0,83737:0:0:0:0:
64,192,83737,128,0,85108:0:0:0:0:
192,192,85108,128,0,87851:0:0:0:0:
448,192,85108,128,0,87851:0:0:0:0:
320,192,87851,1,0,0:0:0:0:
64,192,88022,1,0,0:0:0:0:
192,192,88537,1,0,0:0:0:0:
192,192,88708,1,0,0:0:0:0:
320,192,89222,1,0,0:0:0:0:
320,192,89394,1,0,0:0:0:0:
320,192,89908,128,0,90251:0:0:0:0:
64,192,89908,128,0,90251:0:0:0:0:
320,192,90594,128,0,90937:0:0:0:0:
448,192,90594,128,0,90937:0:0:0:0:
192,192,90937,1,0,0:0:0:0:
192,192,91280,1,0,0:0:0:0:
448,192,91280,1,0,0:0:0:0:
320,192,91451,1,0,0:0:0:0:
64,192,91965,1,0,0:0:0:0:
320,192,91965,1,0,0:0:0:0:
192,192,92137,1,0,0:0:0:0:
64,192,92651,128,0,92994:0:0:0:0:
320,192,92651,128,0,92994:0:0:0:0:
192,192,92994,1,0,0:0:0:0:
320,192,93337,1,0,0:0:0:0:
448,192,93508,1,0,0:0:0:0:
192,192,94022,1,0,0:0:0:0:
64,192,94194,1,0,0:0:0:0:
320,192,94365,1,0,0:0:0:0:
192,192,94708,1,0,0:0:0:0:
320,192,94880,1,0,0:0:0:0:
192,192,95394,128,0,95737:0:0:0:0:
64,192,95394,128,0,95737:0:0:0:0:
320,192,95737,1,0,0:0:0:0:
320,192,96080,128,0,96422:0:0:0:0:
192,192,96422,1,0,0:0:0:0:
64,192,96765,1,0,0:0:0:0:
448,192,96937,1,0,0:0:0:0:
320,192,97108,1,0,0:0:0:0:
448,192,97451,1,0,0:0:0:0:
192,192,97622,1,0,0:0:0:0:
448,192,98137,128,0,98480:0:0:0:0:
192,192,98137,128,0,98480:0:0:0:0:
320,192,98480,1,0,0:0:0:0:
64,192,98822,1,0,0:0:0:0:
448,192,98994,1,0,0:0:0:0:
320,192,99165,1,0,0:0:0:0:
448,192,99508,1,0,0:0:0:0:
192,192,99680,1,0,0:0:0:0:
192,192,100194,1,0,0:0:0:0:
448,192,100194,1,0,0:0:0:0:
64,192,100365,1,0,0:0:0:0:
192,192,100880,128,0,101222:0:0:0:0:
64,192,100880,128,0,101222:0:0:0:0:
320,192,101222,1,0,0:0:0:0:
320,192,101565,128,0,101908:0:0:0:0:
192,192,101908,1,0,0:0:0:0:
320,192,102251,1,0,0:0:0:0:
192,192,102422,1,0,0:0:0:0:
448,192,102594,1,0,0:0:0:0:
64,192,102937,1,0,0:0:0:0:
448,192,103108,1,0,0:0:0:0:
192,192,103280,1,0,0:0:0:0:
320,192,103622,128,0,103965:0:0:0:0:
448,192,103622,128,0,103965:0:0:0:0:
64,192,103965,1,0,0:0:0:0:
192,192,104308,128,0,104651:0:0:0:0:
64,192,104651,1,0,0:0:0:0:
64,192,104994,1,0,0:0:0:0:
320,192,104994,1,0,0:0:0:0:
192,192,105165,1,0,0:0:0:0:
448,192,105337,1,0,0:0:0:0:
448,192,105680,128,0,106022:0:0:0:0:
320,192,106022,1,0,0:0:0:0:
320,192,106365,128,0,106708:0:0:0:0:
192,192,106365,128,0,106708:0:0:0:0:
64,192,106708,1,0,0:0:0:0:
320,192,107051,128,0,108251:0:0:0:0:
448,192,107051,128,0,108251:0:0:0:0:
192,192,107051,128,0,107394:0:0:0:0:
320,192,109794,1,0,0:0:0:0:
192,192,109965,1,0,0:0:0:0:
320,192,110137,1,0,0:0:0:0:
64,192,110308,1,0,0:0:0:0:
192,192,110480,1,0,0:0:0:0:
64,192,110651,1,0,0:0:0:0:
448,192,110822,1,0,0:0:0:0:
192,192,110994,1,0,0:0:0:0:
320,192,111165,1,0,0:0:0:0:
192,192,111337,1,0,0:0:0:0:
320,192,111508,1,0,0:0:0:0:
448,192,111680,1,0,0:0:0:0:
192,192,111851,1,0,0:0:0:0:
320,192,112022,1,0,0:0:0:0:
192,192,112194,1,0,0:0:0:0:
64,192,112365,1,0,0:0:0:0:
192,192,112451,1,0,0:0:0:0:
320,192,112537,1,0,0:0:0:0:
448,192,112622,1,0,0:0:0:0:
64,192,112708,1,0,0:0:0:0:
192,192,112794,1,0,0:0:0:0:
320,192,112880,1,0,0:0:0:0:
448,192,113051,1,0,0:0:0:0:
320,192,113222,1,0,0:0:0:0:
64,192,113394,1,0,0:0:0:0:
192,192,113565,1,0,0:0:0:0:
320,192,113737,1,0,0:0:0:0:
192,192,113908,1,0,0:0:0:0:
64,192,114080,1,0,0:0:0:0:
192,192,114165,1,0,0:0:0:0:
320,192,114251,1,0,0:0:0:0:
448,192,114337,1,0,0:0:0:0:
64,192,114422,1,0,0:0:0:0:
192,192,114508,1,0,0:0:0:0:
320,192,114594,1,0,0:0:0:0:
448,192,114594,128,0,114937:0:0:0:0:
192,192,114937,1,0,0:0:0:0:
64,192,115108,1,0,0:0:0:0:
192,192,115280,1,0,0:0:0:0:
320,192,115622,1,0,0:0:0:0:
192,192,115794,1,0,0:0:0:0:
320,192,115965,1,0,0:0:0:0:
192,192,116137,1,0,0:0:0:0:
64,192,116308,1,0,0:0:0:0:
320,192,116480,1,0,0:0:0:0:
192,192,116651,1,0,0:0:0:0:
320,192,116822,1,0,0:0:0:0:
192,192,116994,1,0,0:0:0:0:
448,192,116994,1,0,0:0:0:0:
64,192,117165,1,0,0:0:0:0:
192,192,117337,1,0,0:0:0:0:
64,192,117508,1,0,0:0:0:0:
448,192,117680,1,0,0:0:0:0:
320,192,117765,1,0,0:0:0:0:
192,192,117851,1,0,0:0:0:0:
64,192,117937,1,0,0:0:0:0:
320,192,118022,1,0,0:0:0:0:
64,192,118194,1,0,0:0:0:0:
320,192,118365,1,0,0:0:0:0:
448,192,118537,1,0,0:0:0:0:
320,192,118708,1,0,0:0:0:0:
192,192,118880,1,0,0:0:0:0:
320,192,119051,1,0,0:0:0:0:
192,192,119222,1,0,0:0:0:0:
64,192,119394,1,0,0:0:0:0:
448,192,119565,1,0,0:0:0:0:
320,192,119565,128,0,119908:0:0:0:0:
192,192,119908,1,0,0:0:0:0:
448,192,120080,1,0,0:0:0:0:
64,192,120165,1,0,0:0:0:0:
192,192,120251,1,0,0:0:0:0:
320,192,120337,1,0,0:0:0:0:
448,192,120422,1,0,0:0:0:0:
320,192,120765,1,0,0:0:0:0:
64,192,120937,1,0,0:0:0:0:
448,192,121108,1,0,0:0:0:0:
192,192,121108,1,0,0:0:0:0:
64,192,121280,1,0,0:0:0:0:
448,192,121451,1,0,0:0:0:0:
320,192,121622,1,0,0:0:0:0:
192,192,121794,1,0,0:0:0:0:
448,192,121965,1,0,0:0:0:0:
192,192,122137,1,0,0:0:0:0:
448,192,122308,1,0,0:0:0:0:
320,192,122480,1,0,0:0:0:0:
192,192,122651,1,0,0:0:0:0:
64,192,122822,1,0,0:0:0:0:
448,192,122822,1,0,0:0:0:0:
320,192,122994,1,0,0:0:0:0:
192,192,123165,1,0,0:0:0:0:
320,192,123337,1,0,0:0:0:0:
448,192,123422,1,0,0:0:0:0:
320,192,123508,1,0,0:0:0:0:
192,192,123594,1,0,0:0:0:0:
64,192,123680,1,0,0:0:0:0:
320,192,123851,1,0,0:0:0:0:
192,192,124022,1,0,0:0:0:0:
320,192,124194,1,0,0:0:0:0:
192,192,124365,1,0,0:0:0:0:
64,192,124537,1,0,0:0:0:0:
448,192,124537,1,0,0:0:0:0:
320,192,124708,1,0,0:0:0:0:
448,192,124880,1,0,0:0:0:0:
64,192,125051,1,0,0:0:0:0:
448,192,125222,1,0,0:0:0:0:
64,192,125394,1,0,0:0:0:0:
320,192,125565,1,0,0:0:0:0:
448,192,125737,128,0,125908:0:0:0:0:
192,192,125908,1,0,0:0:0:0:
64,192,126080,1,0,0:0:0:0:
320,192,126251,1,0,0:0:0:0:
192,192,126422,1,0,0:0:0:0:
320,192,126594,1,0,0:0:0:0:
64,192,126765,1,0,0:0:0:0:
320,192,126937,1,0,0:0:0:0:
448,192,127108,1,0,0:0:0:0:
64,192,127280,1,0,0:0:0:0:
192,192,127451,1,0,0:0:0:0:
64,192,127622,1,0,0:0:0:0:
192,192,127794,1,0,0:0:0:0:
448,192,127965,1,0,0:0:0:0:
192,192,128137,1,0,0:0:0:0:
320,192,128308,1,0,0:0:0:0:
448,192,128480,1,0,0:0:0:0:
64,192,128651,1,0,0:0:0:0:
192,192,128822,1,0,0:0:0:0:
64,192,128994,1,0,0:0:0:0:
192,192,129165,1,0,0:0:0:0:
320,192,129337,1,0,0:0:0:0:
64,192,129337,1,0,0:0:0:0:
192,192,129508,1,0,0:0:0:0:
320,192,129680,1,0,0:0:0:0:
448,192,129851,1,0,0:0:0:0:
192,192,130022,1,0,0:0:0:0:
64,192,130194,1,0,0:0:0:0:
192,192,130365,1,0,0:0:0:0:
64,192,130537,1,0,0:0:0:0:
320,192,130708,1,0,0:0:0:0:
192,192,130880,1,0,0:0:0:0:
64,192,131051,128,0,131222:0:0:0:0:
320,192,131222,1,0,0:0:0:0:
448,192,131394,1,0,0:0:0:0:
320,192,131565,128,0,131737:0:0:0:0:
192,192,131737,1,0,0:0:0:0:
448,192,131908,1,0,0:0:0:0:
192,192,132080,1,0,0:0:0:0:
448,192,132251,1,0,0:0:0:0:
64,192,132422,1,0,0:0:0:0:
448,192,132594,1,0,0:0:0:0:
192,192,132765,1,0,0:0:0:0:
320,192,132937,1,0,0:0:0:0:
448,192,133108,1,0,0:0:0:0:
64,192,133108,1,0,0:0:0:0:
192,192,133280,1,0,0:0:0:0:
320,192,133280,1,0,0:0:0:0:
64,192,133451,1,0,0:0:0:0:
448,192,133451,1,0,0:0:0:0:
320,192,133622,1,0,0:0:0:0:
64,192,133794,1,0,0:0:0:0:
320,192,133965,1,0,0:0:0:0:
192,192,134137,1,0,0:0:0:0:
320,192,134308,128,0,134480:0:0:0:0:
192,192,134480,128,0,135165:0:0:0:0:
448,192,134480,1,0,0:0:0:0:
320,192,134822,1,0,0:0:0:0:
64,192,135165,1,0,0:0:0:0:
320,192,135508,1,0,0:0:0:0:
192,192,135851,128,0,136194:0:0:0:0:
448,192,135851,1,0,0:0:0:0:
320,192,136194,128,0,136537:0:0:0:0:
448,192,136537,128,0,136880:0:0:0:0:
320,192,136880,1,0,0:0:0:0:
64,192,137051,1,0,0:0:0:0:
448,192,137222,1,0,0:0:0:0:
320,192,137308,1,0,0:0:0:0:
192,192,137394,1,0,0:0:0:0:
64,192,137480,1,0,0:0:0:0:
320,192,137565,1,0,0:0:0:0:
64,192,137737,1,0,0:0:0:0:
320,192,137908,1,0,0:0:0:0:
448,192,138080,1,0,0:0:0:0:
320,192,138251,1,0,0:0:0:0:
192,192,138422,1,0,0:0:0:0:
320,192,138594,1,0,0:0:0:0:
448,192,138765,128,0,138937:0:0:0:0:
192,192,138937,128,0,139108:0:0:0:0:
64,192,139108,128,0,139280:0:0:0:0:
320,192,139451,1,0,0:0:0:0:
448,192,139622,1,0,0:0:0:0:
64,192,139794,1,0,0:0:0:0:
192,192,139965,1,0,0:0:0:0:
448,192,139965,128,0,140308:0:0:0:0:
320,192,140308,1,0,0:0:0:0:
192,192,140308,128,0,140480:0:0:0:0:
64,192,140480,128,0,140651:0:0:0:0:
448,192,140822,1,0,0:0:0:0:
320,192,140908,1,0,0:0:0:0:
192,192,140994,1,0,0:0:0:0:
64,192,141165,1,0,0:0:0:0:
192,192,141337,1,0,0:0:0:0:
320,192,141508,1,0,0:0:0:0:
192,192,141680,1,0,0:0:0:0:
64,192,141851,1,0,0:0:0:0:
192,192,142022,1,0,0:0:0:0:
448,192,142022,1,0,0:0:0:0:
64,192,142194,1,0,0:0:0:0:
320,192,142365,1,0,0:0:0:0:
192,192,142537,1,0,0:0:0:0:
320,192,142708,1,0,0:0:0:0:
448,192,142794,1,0,0:0:0:0:
320,192,142880,1,0,0:0:0:0:
192,192,142965,1,0,0:0:0:0:
320,192,143051,1,0,0:0:0:0:
192,192,143394,1,0,0:0:0:0:
448,192,143394,1,0,0:0:0:0:
320,192,143565,1,0,0:0:0:0:
64,192,143737,1,0,0:0:0:0:
320,192,143908,1,0,0:0:0:0:
448,192,144080,1,0,0:0:0:0:
192,192,144080,128,0,144422:0:0:0:0:
320,192,144422,1,0,0:0:0:0:
448,192,144594,1,0,0:0:0:0:
64,192,144765,128,0,145108:0:0:0:0:
320,192,144765,128,0,145108:0:0:0:0:
192,192,145108,1,0,0:0:0:0:
448,192,145451,128,0,145794:0:0:0:0:
320,192,145794,1,0,0:0:0:0:
64,192,145965,1,0,0:0:0:0:
192,192,146137,1,0,0:0:0:0:
448,192,146137,1,0,0:0:0:0:
64,192,146308,1,0,0:0:0:0:
320,192,146480,1,0,0:0:0:0:
192,192,146651,1,0,0:0:0:0:
64,192,146822,1,0,0:0:0:0:
320,192,146822,1,0,0:0:0:0:
448,192,146994,1,0,0:0:0:0:
192,192,147165,1,0,0:0:0:0:
448,192,147337,1,0,0:0:0:0:
192,192,147508,128,0,147851:0:0:0:0:
448,192,147851,1,0,0:0:0:0:
64,192,148022,1,0,0:0:0:0:
320,192,148194,1,0,0:0:0:0:
448,192,148365,1,0,0:0:0:0:
64,192,148537,1,0,0:0:0:0:
192,192,148708,1,0,0:0:0:0:
320,192,148880,1,0,0:0:0:0:
64,192,149051,1,0,0:0:0:0:
320,192,149222,1,0,0:0:0:0:
64,192,149394,1,0,0:0:0:0:
448,192,149565,1,0,0:0:0:0:
320,192,149737,1,0,0:0:0:0:
64,192,149908,1,0,0:0:0:0:
448,192,149908,1,0,0:0:0:0:
192,192,150080,1,0,0:0:0:0:
320,192,150251,128,0,150594:0:0:0:0:
192,192,150594,1,0,0:0:0:0:
64,192,150765,1,0,0:0:0:0:
192,192,150937,1,0,0:0:0:0:
448,192,150937,128,0,151280:0:0:0:0:
320,192,151280,1,0,0:0:0:0:
64,192,151280,1,0,0:0:0:0:
192,192,151451,1,0,0:0:0:0:
64,192,151622,1,0,0:0:0:0:
448,192,151622,1,0,0:0:0:0:
320,192,151794,1,0,0:0:0:0:
64,192,151965,1,0,0:0:0:0:
320,192,152137,1,0,0:0:0:0:
448,192,152308,1,0,0:0:0:0:
192,192,152480,1,0,0:0:0:0:
320,192,152994,1,0,0:0:0:0:
448,192,153165,1,0,0:0:0:0:
192,192,153337,128,0,153680:0:0:0:0:
64,192,153337,128,0,153680:0:0:0:0:
320,192,153680,1,0,0:0:0:0:
448,192,153680,128,0,154022:0:0:0:0:
320,192,154022,1,0,0:0:0:0:
64,192,154365,128,0,154537:0:0:0:0:
192,192,154537,128,0,154708:0:0:0:0:
320,192,154708,128,0,154880:0:0:0:0:
448,192,154880,128,0,155051:0:0:0:0:
320,192,155222,1,0,0:0:0:0:
192,192,155394,1,0,0:0:0:0:
320,192,155565,1,0,0:0:0:0:
192,192,155908,128,0,156080:0:0:0:0:
64,192,156080,128,0,156251:0:0:0:0:
320,192,156251,128,0,156422:0:0:0:0:
448,192,156422,128,0,156594:0:0:0:0:
192,192,156765,1,0,0:0:0:0:
320,192,156937,1,0,0:0:0:0:
448,192,157022,1,0,0:0:0:0:
320,192,157280,1,0,0:0:0:0:
448,192,157451,1,0,0:0:0:0:
320,192,157537,1,0,0:0:0:0:
192,192,157622,1,0,0:0:0:0:
320,192,157708,1,0,0:0:0:0:
448,192,157794,1,0,0:0:0:0:
192,192,158137,1,0,0:0:0:0:
64,192,158308,1,0,0:0:0:0:
320,192,158651,1,0,0:0:0:0:
448,192,158737,1,0,0:0:0:0:
320,192,158822,1,0,0:0:0:0:
192,192,158908,1,0,0:0:0:0:
64,192,158994,1,0,0:0:0:0:
448,192,159080,1,0,0:0:0:0:
320,192,159165,1,0,0:0:0:0:
192,192,159508,1,0,0:0:0:0:
320,192,159680,1,0,0:0:0:0:
448,192,160022,128,0,160194:0:0:0:0:
320,192,160194,128,0,160365:0:0:0:0:
192,192,160365,128,0,160537:0:0:0:0:
448,192,160708,1,0,0:0:0:0:
320,192,160880,1,0,0:0:0:0:
192,192,160965,1,0,0:0:0:0:
64,192,161051,1,0,0:0:0:0:
192,192,161137,1,0,0:0:0:0:
320,192,161394,1,0,0:0:0:0:
192,192,161480,1,0,0:0:0:0:
448,192,161565,128,0,161737:0:0:0:0:
192,192,161737,128,0,161908:0:0:0:0:
448,192,162080,1,0,0:0:0:0:
64,192,162251,1,0,0:0:0:0:
320,192,162251,1,0,0:0:0:0:
192,192,162422,1,0,0:0:0:0:
320,192,162765,128,0,162937:0:0:0:0:
192,192,162937,128,0,163108:0:0:0:0:
448,192,163108,128,0,163280:0:0:0:0:
64,192,163280,128,0,163451:0:0:0:0:
320,192,163622,1,0,0:0:0:0:
192,192,163794,1,0,0:0:0:0:
320,192,163965,1,0,0:0:0:0:
448,192,164137,1,0,0:0:0:0:
192,192,164308,1,0,0:0:0:0:
448,192,164651,128,0,166022:0:0:0:0:
320,192,164651,1,0,0:0:0:0:
320,192,164994,1,0,0:0:0:0:
192,192,165080,1,0,0:0:0:0:
320,192,165508,1,0,0:0:0:0:
192,192,165594,1,0,0:0:0:0:
64,192,165680,1,0,0:0:0:0:
192,192,165765,1,0,0:0:0:0:
320,192,166022,128,0,167394:0:0:0:0:
192,192,166880,1,0,0:0:0:0:
64,192,166965,1,0,0:0:0:0:
192,192,167051,1,0,0:0:0:0:
192,192,167394,128,0,168765:0:0:0:0:
320,192,167737,1,0,0:0:0:0:
448,192,168251,1,0,0:0:0:0:
320,192,168337,1,0,0:0:0:0:
64,192,168422,1,0,0:0:0:0:
64,192,169108,1,0,0:0:0:0:
192,192,169108,128,0,169280:0:0:0:0:
320,192,169280,128,0,169451:0:0:0:0:
192,192,169794,1,0,0:0:0:0:
320,192,169880,1,0,0:0:0:0:
448,192,169965,1,0,0:0:0:0:
320,192,170051,1,0,0:0:0:0:
192,192,170137,1,0,0:0:0:0:
320,192,170480,1,0,0:0:0:0:
192,192,170651,1,0,0:0:0:0:
64,192,170994,1,0,0:0:0:0:
192,192,171080,1,0,0:0:0:0:
320,192,171165,1,0,0:0:0:0:
64,192,171251,1,0,0:0:0:0:
192,192,171337,1,0,0:0:0:0:
320,192,171422,1,0,0:0:0:0:
448,192,171508,1,0,0:0:0:0:
320,192,171851,1,0,0:0:0:0:
192,192,172022,1,0,0:0:0:0:
320,192,172365,1,0,0:0:0:0:
192,192,172451,1,0,0:0:0:0:
320,192,172537,1,0,0:0:0:0:
64,192,172622,1,0,0:0:0:0:
192,192,172708,1,0,0:0:0:0:
320,192,172794,1,0,0:0:0:0:
448,192,172880,1,0,0:0:0:0:
448,192,173222,1,0,0:0:0:0:
320,192,173394,1,0,0:0:0:0:
192,192,173737,1,0,0:0:0:0:
64,192,173822,1,0,0:0:0:0:
320,192,173908,1,0,0:0:0:0:
448,192,173994,1,0,0:0:0:0:
320,192,174080,1,0,0:0:0:0:
192,192,174165,1,0,0:0:0:0:
448,192,174251,1,0,0:0:0:0:
320,192,174337,1,0,0:0:0:0:
192,192,174594,128,0,174765:0:0:0:0:
320,192,174594,1,0,0:0:0:0:
64,192,174765,128,0,174937:0:0:0:0:
320,192,175280,1,0,0:0:0:0:
64,192,175622,1,0,0:0:0:0:
320,192,175794,1,0,0:0:0:0:
448,192,175965,1,0,0:0:0:0:
192,192,176137,128,0,176308:0:0:0:0:
320,192,176308,128,0,176480:0:0:0:0:
192,192,176651,1,0,0:0:0:0:
448,192,176822,128,0,176994:0:0:0:0:
64,192,176994,128,0,177165:0:0:0:0:
192,192,177337,1,0,0:0:0:0:
320,192,177508,128,0,177680:0:0:0:0:
192,192,177680,128,0,177851:0:0:0:0:
64,192,178022,1,0,0:0:0:0:
320,192,178194,1,0,0:0:0:0:
64,192,178365,1,0,0:0:0:0:
320,192,178537,1,0,0:0:0:0:
192,192,178708,1,0,0:0:0:0:
320,192,178880,1,0,0:0:0:0:
192,192,178965,1,0,0:0:0:0:
64,192,179051,1,0,0:0:0:0:
448,192,179137,1,0,0:0:0:0:
320,192,179222,1,0,0:0:0:0:
64,192,179394,1,0,0:0:0:0:
320,192,179565,1,0,0:0:0:0:
192,192,179651,1,0,0:0:0:0:
320,192,179737,1,0,0:0:0:0:
192,192,179822,1,0,0:0:0:0:
64,192,179908,1,0,0:0:0:0:
448,192,180080,1,0,0:0:0:0:
192,192,180251,1,0,0:0:0:0:
320,192,180337,1,0,0:0:0:0:
192,192,180422,1,0,0:0:0:0:
448,192,180508,1,0,0:0:0:0:
320,192,180594,1,0,0:0:0:0:
192,192,180765,1,0,0:0:0:0:
448,192,181108,1,0,0:0:0:0:
320,192,181108,128,0,181451:0:0:0:0:
192,192,181451,1,0,0:0:0:0:
448,192,181622,1,0,0:0:0:0:
64,192,181708,1,0,0:0:0:0:
320,192,181794,1,0,0:0:0:0:
192,192,181880,1,0,0:0:0:0:
320,192,181965,1,0,0:0:0:0:
64,192,182137,1,0,0:0:0:0:
320,192,182308,1,0,0:0:0:0:
192,192,182394,1,0,0:0:0:0:
448,192,182480,1,0,0:0:0:0:
64,192,182565,1,0,0:0:0:0:
320,192,182651,1,0,0:0:0:0:
448,192,182822,1,0,0:0:0:0:
320,192,182994,1,0,0:0:0:0:
192,192,183080,1,0,0:0:0:0:
448,192,183165,1,0,0:0:0:0:
320,192,183251,1,0,0:0:0:0:
64,192,183337,1,0,0:0:0:0:
448,192,183508,1,0,0:0:0:0:
192,192,183680,1,0,0:0:0:0:
448,192,183851,1,0,0:0:0:0:
192,192,184022,1,0,0:0:0:0:
320,192,184194,1,0,0:0:0:0:
192,192,184280,1,0,0:0:0:0:
64,192,184365,1,0,0:0:0:0:
192,192,184451,1,0,0:0:0:0:
320,192,184537,1,0,0:0:0:0:
448,192,184622,1,0,0:0:0:0:
192,192,184708,1,0,0:0:0:0:
448,192,184880,1,0,0:0:0:0:
192,192,185051,1,0,0:0:0:0:
320,192,185137,1,0,0:0:0:0:
192,192,185222,1,0,0:0:0:0:
448,192,185394,1,0,0:0:0:0:
192,192,185565,1,0,0:0:0:0:
448,192,185737,1,0,0:0:0:0:
320,192,185822,1,0,0:0:0:0:
448,192,185908,1,0,0:0:0:0:
192,192,186251,1,0,0:0:0:0:
64,192,186422,1,0,0:0:0:0:
192,192,186594,1,0,0:0:0:0:
448,192,186594,128,0,186937:0:0:0:0:
320,192,186937,1,0,0:0:0:0:
192,192,187108,128,0,187280:0:0:0:0:
64,192,187280,128,0,187451:0:0:0:0:
192,192,187622,1,0,0:0:0:0:
320,192,187794,128,0,187965:0:0:0:0:
448,192,187965,128,0,188137:0:0:0:0:
320,192,188308,1,0,0:0:0:0:
192,192,188480,1,0,0:0:0:0:
64,192,188565,1,0,0:0:0:0:
192,192,188651,1,0,0:0:0:0:
448,192,188737,1,0,0:0:0:0:
320,192,188822,1,0,0:0:0:0:
64,192,188994,1,0,0:0:0:0:
192,192,189165,1,0,0:0:0:0:
320,192,189337,1,0,0:0:0:0:
192,192,189508,1,0,0:0:0:0:
320,192,189680,128,0,189851:0:0:0:0:
64,192,189851,128,0,190022:0:0:0:0:
192,192,190022,128,0,190194:0:0:0:0:
448,192,190194,128,0,190365:0:0:0:0:
192,192,190537,1,0,0:0:0:0:
320,192,190622,1,0,0:0:0:0:
448,192,190708,1,0,0:0:0:0:
192,192,190794,1,0,0:0:0:0:
64,192,190880,1,0,0:0:0:0:
192,192,191051,1,0,0:0:0:0:
320,192,191222,1,0,0:0:0:0:
192,192,191308,1,0,0:0:0:0:
64,192,191394,1,0,0:0:0:0:
192,192,191480,1,0,0:0:0:0:
448,192,191565,1,0,0:0:0:0:
64,192,191737,1,0,0:0:0:0:
448,192,192080,128,0,192251:0:0:0:0:
320,192,192251,128,0,192422:0:0:0:0:
192,192,192422,128,0,192594:0:0:0:0:
64,192,192594,128,0,192765:0:0:0:0:
320,192,192851,1,0,0:0:0:0:
448,192,192937,1,0,0:0:0:0:
192,192,193108,128,0,193280:0:0:0:0:
320,192,193280,128,0,193451:0:0:0:0:
64,192,193451,128,0,193622:0:0:0:0:
448,192,193622,128,0,193794:0:0:0:0:
192,192,193794,1,0,0:0:0:0:
320,192,193965,1,0,0:0:0:0:
192,192,194137,1,0,0:0:0:0:
448,192,194222,1,0,0:0:0:0:
64,192,194308,1,0,0:0:0:0:
320,192,194480,1,0,0:0:0:0:
448,192,194651,1,0,0:0:0:0:
192,192,194822,1,0,0:0:0:0:
64,192,194994,1,0,0:0:0:0:
320,192,195165,1,0,0:0:0:0:
192,192,195337,1,0,0:0:0:0:
320,192,195508,1,0,0:0:0:0:
64,192,195680,1,0,0:0:0:0:
448,192,195851,1,0,0:0:0:0:
320,192,196022,1,0,0:0:0:0:
192,192,196194,1,0,0:0:0:0:
320,192,196365,1,0,0:0:0:0:
192,192,196451,1,0,0:0:0:0:
64,192,196537,1,0,0:0:0:0:
448,192,196708,1,0,0:0:0:0:
320,192,196880,128,0,197222:0:0:0:0:
192,192,197222,1,0,0:0:0:0:
192,192,197565,128,0,197908:0:0:0:0:
64,192,197565,1,0,0:0:0:0:
320,192,197908,1,0,0:0:0:0:
448,192,198422,128,0,198594:0:0:0:0:
320,192,198594,1,0,0:0:0:0:
192,192,199108,128,0,199280:0:0:0:0:
64,192,199280,1,0,0:0:0:0:
320,192,199794,128,0,199965:0:0:0:0:
448,192,199965,1,0,0:0:0:0:
64,192,200051,1,0,0:0:0:0:
192,192,200308,128,0,200651:0:0:0:0:
64,192,200308,128,0,200651:0:0:0:0:
320,192,200651,1,0,0:0:0:0:
448,192,200651,1,0,0:0:0:0:
448,192,201165,128,0,201337:0:0:0:0:
320,192,201337,1,0,0:0:0:0:
192,192,201851,128,0,202022:0:0:0:0:
320,192,202022,1,0,0:0:0:0:
64,192,202537,128,0,202708:0:0:0:0:
192,192,202708,1,0,0:0:0:0:
320,192,203051,1,0,0:0:0:0:
448,192,203137,1,0,0:0:0:0:
320,192,203394,1,0,0:0:0:0:
192,192,203394,1,0,0:0:0:0:
448,192,203908,128,0,204080:0:0:0:0:
320,192,204080,1,0,0:0:0:0:
320,192,204594,128,0,204765:0:0:0:0:
448,192,204765,1,0,0:0:0:0:
192,192,205280,128,0,205451:0:0:0:0:
64,192,205451,1,0,0:0:0:0:
320,192,205622,1,0,0:0:0:0:
192,192,205794,128,0,206137:0:0:0:0:
320,192,206137,1,0,0:0:0:0:
448,192,206651,128,0,206822:0:0:0:0:
320,192,206822,1,0,0:0:0:0:
64,192,207337,128,0,207508:0:0:0:0:
192,192,207508,1,0,0:0:0:0:
192,192,208194,1,0,0:0:0:0:
448,192,208194,1,0,0:0:0:0:
320,192,208365,1,0,0:0:0:0:
192,192,208537,1,0,0:0:0:0:
64,192,208537,1,0,0:0:0:0:
448,192,208708,1,0,0:0:0:0:
320,192,208880,1,0,0:0:0:0:
192,192,209394,128,0,209565:0:0:0:0:
320,192,209565,1,0,0:0:0:0:
320,192,210080,128,0,210251:0:0:0:0:
192,192,210251,1,0,0:0:0:0:
64,192,210765,128,0,210937:0:0:0:0:
192,192,210937,1,0,0:0:0:0:
320,192,211108,1,0,0:0:0:0:
448,192,211280,128,0,211622:0:0:0:0:
320,192,211622,1,0,0:0:0:0:
192,192,212137,128,0,212308:0:0:0:0:
64,192,212308,1,0,0:0:0:0:
320,192,212822,128,0,212994:0:0:0:0:
448,192,212994,1,0,0:0:0:0:
192,192,213508,128,0,213680:0:0:0:0:
320,192,213680,1,0,0:0:0:0:
320,192,214022,1,0,0:0:0:0:
192,192,214022,1,0,0:0:0:0:
64,192,214194,1,0,0:0:0:0:
320,192,214365,1,0,0:0:0:0:
448,192,214365,1,0,0:0:0:0:
448,192,214880,128,0,215051:0:0:0:0:
320,192,215051,1,0,0:0:0:0:
64,192,215565,128,0,215737:0:0:0:0:
192,192,215737,1,0,0:0:0:0:
320,192,216251,128,0,216422:0:0:0:0:
192,192,216422,1,0,0:0:0:0:
64,192,216594,1,0,0:0:0:0:
192,192,216765,128,0,216937:0:0:0:0:
320,192,216937,1,0,0:0:0:0:
320,192,217280,128,0,217451:0:0:0:0:
192,192,217451,1,0,0:0:0:0:
64,192,217794,128,0,217965:0:0:0:0:
192,192,217965,1,0,0:0:0:0:
448,192,218480,128,0,218651:0:0:0:0:
320,192,218480,128,0,218994:0:0:0:0:
192,192,218994,1,0,0:0:0:0:
64,192,218994,128,0,219337:0:0:0:0:
320,192,219337,1,0,0:0:0:0:
192,192,219337,1,0,0:0:0:0:
448,192,219508,1,0,0:0:0:0:
320,192,219680,1,0,0:0:0:0:
192,192,219680,1,0,0:0:0:0:
64,192,219851,1,0,0:0:0:0:
192,192,220022,1,0,0:0:0:0:
448,192,220194,1,0,0:0:0:0:
320,192,220365,1,0,0:0:0:0:
448,192,220537,1,0,0:0:0:0:
192,192,220708,1,0,0:0:0:0:
64,192,220880,1,0,0:0:0:0:
320,192,221051,1,0,0:0:0:0:
448,192,221137,1,0,0:0:0:0:
320,192,221222,1,0,0:0:0:0:
192,192,221565,1,0,0:0:0:0:
320,192,221908,1,0,0:0:0:0:
192,192,222080,1,0,0:0:0:0:
64,192,222165,1,0,0:0:0:0:
192,192,222251,1,0,0:0:0:0:
320,192,222337,1,0,0:0:0:0:
448,192,222422,1,0,0:0:0:0:
192,192,222594,1,0,0:0:0:0:
64,192,222937,1,0,0:0:0:0:
448,192,223280,1,0,0:0:0:0:
320,192,223280,1,0,0:0:0:0:
192,192,223451,128,0,223622:0:0:0:0:
64,192,223622,1,0,0:0:0:0:
448,192,223708,1,0,0:0:0:0:
320,192,223794,1,0,0:0:0:0:
192,192,223880,1,0,0:0:0:0:
64,192,223965,1,0,0:0:0:0:
192,192,224137,1,0,0:0:0:0:
320,192,224137,1,0,0:0:0:0:
64,192,224308,1,0,0:0:0:0:
448,192,224308,1,0,0:0:0:0:
192,192,224480,128,0,224651:0:0:0:0:
320,192,224651,1,0,0:0:0:0:
448,192,224822,1,0,0:0:0:0:
320,192,224994,1,0,0:0:0:0:
192,192,225165,1,0,0:0:0:0:
320,192,225337,1,0,0:0:0:0:
448,192,225337,1,0,0:0:0:0:
192,192,225680,1,0,0:0:0:0:
320,192,226022,1,0,0:0:0:0:
64,192,226365,1,0,0:0:0:0:
448,192,226708,1,0,0:0:0:0:
320,192,227051,1,0,0:0:0:0:
448,192,227394,1,0,0:0:0:0:
320,192,227565,1,0,0:0:0:0:
192,192,227737,1,0,0:0:0:0:
320,192,227908,1,0,0:0:0:0:
64,192,228080,1,0,0:0:0:0:
192,192,228422,1,0,0:0:0:0:
64,192,228765,1,0,0:0:0:0:
320,192,229108,1,0,0:0:0:0:
448,192,229108,1,0,0:0:0:0:
192,192,229280,1,0,0:0:0:0:
64,192,229451,1,0,0:0:0:0:
320,192,229451,1,0,0:0:0:0:
192,192,229622,1,0,0:0:0:0:
320,192,229794,1,0,0:0:0:0:
64,192,229794,1,0,0:0:0:0:
448,192,229965,128,0,230137:0:0:0:0:
320,192,230137,1,0,0:0:0:0:
192,192,230480,1,0,0:0:0:0:
320,192,230651,1,0,0:0:0:0:
448,192,230822,1,0,0:0:0:0:
64,192,230822,1,0,0:0:0:0:
192,192,231165,1,0,0:0:0:0:
320,192,231165,128,0,231508:0:0:0:0:
448,192,231508,1,0,0:0:0:0:
64,192,231851,1,0,0:0:0:0:
192,192,231851,128,0,232194:0:0:0:0:
320,192,232194,1,0,0:0:0:0:
448,192,232537,1,0,0:0:0:0:
320,192,232537,1,0,0:0:0:0:
192,192,232880,1,0,0:0:0:0:
320,192,232880,1,0,0:0:0:0:
64,192,233222,1,0,0:0:0:0:
192,192,233222,1,0,0:0:0:0:
448,192,233222,128,0,233565:0:0:0:0:
320,192,233565,1,0,0:0:0:0:
64,192,233908,128,0,234251:0:0:0:0:
192,192,233908,1,0,0:0:0:0:
320,192,234251,1,0,0:0:0:0:
448,192,234594,1,0,0:0:0:0:
192,192,234594,1,0,0:0:0:0:
320,192,234937,1,0,0:0:0:0:
64,192,234937,1,0,0:0:0:0:
192,192,235280,1,0,0:0:0:0:
320,192,235451,1,0,0:0:0:0:
448,192,235622,1,0,0:0:0:0:
64,192,235622,128,0,235965:0:0:0:0:
192,192,235965,1,0,0:0:0:0:
320,192,236137,1,0,0:0:0:0:
448,192,236308,1,0,0:0:0:0:
64,192,236308,1,0,0:0:0:0:
192,192,236651,128,0,236994:0:0:0:0:
64,192,236651,1,0,0:0:0:0:
320,192,236994,1,0,0:0:0:0:
320,192,237337,128,0,237680:0:0:0:0:
448,192,237337,1,0,0:0:0:0:
192,192,237680,1,0,0:0:0:0:
64,192,238022,128,0,238365:0:0:0:0:
320,192,238022,128,0,238365:0:0:0:0:
448,192,238365,1,0,0:0:0:0:
320,192,238708,1,0,0:0:0:0:
192,192,238708,128,0,239051:0:0:0:0:
64,192,239051,1,0,0:0:0:0:
320,192,239394,1,0,0:0:0:0:
448,192,239394,1,0,0:0:0:0:
64,192,239737,1,0,0:0:0:0:
320,192,239737,1,0,0:0:0:0:
192,192,240080,1,0,0:0:0:0:
320,192,240080,1,0,0:0:0:0:
448,192,240422,1,0,0:0:0:0:
320,192,240765,1,0,0:0:0:0:
192,192,240937,1,0,0:0:0:0:
64,192,241108,1,0,0:0:0:0:
192,192,241280,1,0,0:0:0:0:
448,192,241622,1,0,0:0:0:0:
320,192,241794,1,0,0:0:0:0:
192,192,242137,1,0,0:0:0:0:
320,192,242308,1,0,0:0:0:0:
448,192,242480,1,0,0:0:0:0:
192,192,242651,1,0,0:0:0:0:
64,192,242822,1,0,0:0:0:0:
192,192,242994,1,0,0:0:0:0:
448,192,243165,1,0,0:0:0:0:
320,192,243337,1,0,0:0:0:0:
192,192,243508,1,0,0:0:0:0:
64,192,243508,1,0,0:0:0:0:
320,192,243680,1,0,0:0:0:0:
192,192,243851,1,0,0:0:0:0:
320,192,244022,1,0,0:0:0:0:
448,192,244194,1,0,0:0:0:0:
320,192,244365,1,0,0:0:0:0:
192,192,244537,1,0,0:0:0:0:
64,192,244537,1,0,0:0:0:0:
448,192,244708,1,0,0:0:0:0:
320,192,244880,1,0,0:0:0:0:
448,192,245051,1,0,0:0:0:0:
64,192,245222,1,0,0:0:0:0:
320,192,245222,1,0,0:0:0:0:
192,192,245394,1,0,0:0:0:0:
320,192,245565,1,0,0:0:0:0:
192,192,245737,1,0,0:0:0:0:
320,192,245908,1,0,0:0:0:0:
192,192,246080,1,0,0:0:0:0:
320,192,246251,1,0,0:0:0:0:
448,192,246251,1,0,0:0:0:0:
64,192,246422,128,0,246594:0:0:0:0:
192,192,246594,1,0,0:0:0:0:
320,192,246765,1,0,0:0:0:0:
192,192,246937,1,0,0:0:0:0:
448,192,246937,1,0,0:0:0:0:
320,192,247108,1,0,0:0:0:0:
448,192,247280,1,0,0:0:0:0:
64,192,247280,1,0,0:0:0:0:
192,192,247451,1,0,0:0:0:0:
320,192,247622,1,0,0:0:0:0:
192,192,247794,1,0,0:0:0:0:
64,192,247965,1,0,0:0:0:0:
448,192,248137,1,0,0:0:0:0:
320,192,248308,1,0,0:0:0:0:
192,192,248308,1,0,0:0:0:0:
64,192,248480,1,0,0:0:0:0:
192,192,248651,1,0,0:0:0:0:
320,192,248822,1,0,0:0:0:0:
448,192,248994,1,0,0:0:0:0:
64,192,249165,1,0,0:0:0:0:
320,192,249337,1,0,0:0:0:0:
192,192,249508,1,0,0:0:0:0:
320,192,249680,1,0,0:0:0:0:
448,192,249851,1,0,0:0:0:0:
64,192,250022,1,0,0:0:0:0:
192,192,250022,1,0,0:0:0:0:
320,192,250194,1,0,0:0:0:0:
448,192,250365,1,0,0:0:0:0:
320,192,250537,1,0,0:0:0:0:
192,192,250708,1,0,0:0:0:0:
64,192,250708,1,0,0:0:0:0:
320,192,250880,128,0,251222:0:0:0:0:
448,192,251222,1,0,0:0:0:0:
192,192,251394,1,0,0:0:0:0:
64,192,251565,1,0,0:0:0:0:
192,192,251737,128,0,252251:0:0:0:0:
320,192,252422,1,0,0:0:0:0:
448,192,252422,1,0,0:0:0:0:
192,192,252765,1,0,0:0:0:0:
64,192,252937,1,0,0:0:0:0:
448,192,253280,1,0,0:0:0:0:
320,192,253451,1,0,0:0:0:0:
64,192,253622,1,0,0:0:0:0:
448,192,253794,1,0,0:0:0:0:
320,192,253965,1,0,0:0:0:0:
192,192,254137,1,0,0:0:0:0:
64,192,254308,1,0,0:0:0:0:
320,192,254480,128,0,254822:0:0:0:0:
192,192,254822,1,0,0:0:0:0:
64,192,254994,1,0,0:0:0:0:
320,192,255165,1,0,0:0:0:0:
448,192,255337,1,0,0:0:0:0:
320,192,255508,1,0,0:0:0:0:
192,192,255680,1,0,0:0:0:0:
64,192,255851,1,0,0:0:0:0:
320,192,256022,1,0,0:0:0:0:
192,192,256194,1,0,0:0:0:0:
448,192,256194,1,0,0:0:0:0:
320,192,256365,1,0,0:0:0:0:
64,192,256537,1,0,0:0:0:0:
192,192,256708,1,0,0:0:0:0:
320,192,256880,1,0,0:0:0:0:
448,192,257051,1,0,0:0:0:0:
320,192,257222,1,0,0:0:0:0:
192,192,257222,1,0,0:0:0:0:
64,192,257394,1,0,0:0:0:0:
320,192,257565,1,0,0:0:0:0:
448,192,257565,1,0,0:0:0:0:
192,192,257908,1,0,0:0:0:0:
320,192,257908,1,0,0:0:0:0:
64,192,258251,1,0,0:0:0:0:
320,192,258422,1,0,0:0:0:0:
192,192,258594,1,0,0:0:0:0:
320,192,258765,1,0,0:0:0:0:
64,192,258937,1,0,0:0:0:0:
192,192,259108,1,0,0:0:0:0:
64,192,259280,1,0,0:0:0:0:
192,192,259451,1,0,0:0:0:0:
320,192,259622,1,0,0:0:0:0:
448,192,259794,1,0,0:0:0:0:
64,192,259965,128,0,260308:0:0:0:0:
192,192,260308,1,0,0:0:0:0:
320,192,260480,1,0,0:0:0:0:
192,192,260651,1,0,0:0:0:0:
448,192,260651,128,0,260994:0:0:0:0:
320,192,260994,1,0,0:0:0:0:
192,192,261165,1,0,0:0:0:0:
64,192,261337,1,0,0:0:0:0:
320,192,261508,1,0,0:0:0:0:
448,192,261680,1,0,0:0:0:0:
320,192,261851,1,0,0:0:0:0:
64,192,262022,1,0,0:0:0:0:
192,192,262022,128,0,263394:0:0:0:0:
320,192,262365,128,0,263394:0:0:0:0:
448,192,263565,1,0,0:0:0:0:
320,192,263737,1,0,0:0:0:0:
64,192,263908,1,0,0:0:0:0:
192,192,264080,1,0,0:0:0:0:
320,192,264251,1,0,0:0:0:0:
192,192,264422,1,0,0:0:0:0:
64,192,264594,1,0,0:0:0:0:
320,192,264765,1,0,0:0:0:0:
448,192,264937,1,0,0:0:0:0:
320,192,265108,1,0,0:0:0:0:
192,192,265280,1,0,0:0:0:0:
320,192,265451,1,0,0:0:0:0:
448,192,265622,1,0,0:0:0:0:
64,192,265708,1,0,0:0:0:0:
192,192,265794,1,0,0:0:0:0:
320,192,265880,1,0,0:0:0:0:
448,192,265965,1,0,0:0:0:0:
64,192,266051,1,0,0:0:0:0:
192,192,266137,1,0,0:0:0:0:
448,192,266480,1,0,0:0:0:0:
192,192,266822,1,0,0:0:0:0:
320,192,266994,1,0,0:0:0:0:
192,192,267165,1,0,0:0:0:0:
64,192,267337,1,0,0:0:0:0:
320,192,267508,1,0,0:0:0:0:
192,192,267680,1,0,0:0:0:0:
448,192,267851,1,0,0:0:0:0:
320,192,268022,1,0,0:0:0:0:
64,192,268022,128,0,268365:0:0:0:0:
192,192,268365,1,0,0:0:0:0:
320,192,268537,1,0,0:0:0:0:
448,192,268708,1,0,0:0:0:0:
320,192,268880,1,0,0:0:0:0:
448,192,269051,1,0,0:0:0:0:
320,192,269222,1,0,0:0:0:0:
192,192,269394,1,0,0:0:0:0:
64,192,269565,1,0,0:0:0:0:
320,192,269737,1,0,0:0:0:0:
192,192,269908,1,0,0:0:0:0:
64,192,270080,1,0,0:0:0:0:
320,192,270251,1,0,0:0:0:0:
448,192,270422,1,0,0:0:0:0:
192,192,270594,1,0,0:0:0:0:
320,192,270765,1,0,0:0:0:0:
448,192,270937,1,0,0:0:0:0:
320,192,271108,1,0,0:0:0:0:
64,192,271280,1,0,0:0:0:0:
192,192,271451,1,0,0:0:0:0:
320,192,271622,1,0,0:0:0:0:
192,192,271794,1,0,0:0:0:0:
64,192,271965,1,0,0:0:0:0:
448,192,272137,1,0,0:0:0:0:
192,192,272308,1,0,0:0:0:0:
320,192,272480,1,0,0:0:0:0:
64,192,272651,1,0,0:0:0:0:
448,192,272822,1,0,0:0:0:0:
192,192,272994,1,0,0:0:0:0:
320,192,273165,128,0,273508:0:0:0:0:
64,192,273508,1,0,0:0:0:0:
192,192,273851,1,0,0:0:0:0:
320,192,274022,1,0,0:0:0:0:
448,192,274194,1,0,0:0:0:0:
64,192,274365,1,0,0:0:0:0:
192,192,274537,1,0,0:0:0:0:
64,192,274708,1,0,0:0:0:0:
320,192,274880,1,0,0:0:0:0:
448,192,275051,1,0,0:0:0:0:
320,192,275222,1,0,0:0:0:0:
448,192,275394,1,0,0:0:0:0:
192,192,275565,1,0,0:0:0:0:
64,192,275737,1,0,0:0:0:0:
192,192,275908,1,0,0:0:0:0:
64,192,276080,1,0,0:0:0:0:
320,192,276251,1,0,0:0:0:0:
448,192,276422,1,0,0:0:0:0:
192,192,276594,1,0,0:0:0:0:
320,192,276765,1,0,0:0:0:0:
192,192,276937,1,0,0:0:0:0:
64,192,277108,1,0,0:0:0:0:
448,192,277280,1,0,0:0:0:0:
192,192,277451,1,0,0:0:0:0:
64,192,277622,1,0,0:0:0:0:
320,192,277794,1,0,0:0:0:0:
448,192,277965,1,0,0:0:0:0:
64,192,278137,1,0,0:0:0:0:
320,192,278308,1,0,0:0:0:0:
192,192,278480,1,0,0:0:0:0:
448,192,278651,1,0,0:0:0:0:
64,192,278822,1,0,0:0:0:0:
320,192,278994,1,0,0:0:0:0:
192,192,279165,1,0,0:0:0:0:
64,192,279337,128,0,279508:0:0:0:0:
192,192,279508,1,0,0:0:0:0:
320,192,279680,1,0,0:0:0:0:
192,192,280194,1,0,0:0:0:0:
64,192,280365,1,0,0:0:0:0:
448,192,280537,1,0,0:0:0:0:
320,192,280708,1,0,0:0:0:0:
448,192,280880,1,0,0:0:0:0:
192,192,281051,1,0,0:0:0:0:
64,192,281222,1,0,0:0:0:0:
320,192,281394,1,0,0:0:0:0:
192,192,281565,1,0,0:0:0:0:
320,192,281737,1,0,0:0:0:0:
448,192,281908,1,0,0:0:0:0:
192,192,282080,1,0,0:0:0:0:
64,192,282251,1,0,0:0:0:0:
320,192,282422,1,0,0:0:0:0:
192,192,282594,1,0,0:0:0:0:
320,192,282765,1,0,0:0:0:0:
192,192,282937,1,0,0:0:0:0:
64,192,283108,1,0,0:0:0:0:
320,192,283280,1,0,0:0:0:0:
448,192,283365,1,0,0:0:0:0:
320,192,283451,1,0,0:0:0:0:
192,192,283537,1,0,0:0:0:0:
64,192,283622,1,0,0:0:0:0:
448,192,283794,1,0,0:0:0:0:
320,192,283880,1,0,0:0:0:0:
192,192,283965,1,0,0:0:0:0:
64,192,284137,1,0,0:0:0:0:
192,192,284308,1,0,0:0:0:0:
448,192,284651,1,0,0:0:0:0:
320,192,284737,1,0,0:0:0:0:
192,192,284822,1,0,0:0:0:0:
64,192,284908,1,0,0:0:0:0:
192,192,285337,1,0,0:0:0:0:
64,192,285337,128,0,286022:0:0:0:0:
320,192,286022,128,0,286365:0:0:0:0:
192,192,286365,128,0,286708:0:0:0:0:
448,192,286708,128,0,287394:0:0:0:0:
320,192,287394,128,0,288080:0:0:0:0:
192,192,288080,128,0,289451:0:0:0:0:
64,192,289451,128,0,290137:0:0:0:0:
192,192,290137,128,0,290822:0:0:0:0:
320,192,290137,1,0,0:0:0:0:
64,192,290822,128,0,290994:0:0:0:0:
320,192,290994,128,0,291165:0:0:0:0:
448,192,291165,128,0,292194:0:0:0:0:
64,192,292194,128,0,293565:0:0:0:0:
320,192,293565,128,0,296308:0:0:0:0:
192,192,293565,1,0,0:0:0:0:
192,192,296308,128,0,296994:0:0:0:0:
448,192,296308,1,0,0:0:0:0:
320,192,296994,128,0,297680:0:0:0:0:
64,192,297680,128,0,299051:0:0:0:0:
192,192,297680,1,0,0:0:0:0:
448,192,299051,128,0,300422:0:0:0:0:
320,192,299051,1,0,0:0:0:0:
320,192,300422,128,0,301108:0:0:0:0:
192,192,300422,1,0,0:0:0:0:
192,192,301108,128,0,301794:0:0:0:0:
320,192,301794,128,0,301965:0:0:0:0:
448,192,301965,128,0,302137:0:0:0:0:
64,192,302137,128,0,304537:0:0:0:0:
