osu file format v14

[General]
AudioFilename: Your Mom.mp3
AudioLeadIn: 0
PreviewTime: 283
Countdown: 0
SampleSet: Soft
StackLeniency: 0.7
Mode: 0
LetterboxInBreaks: 0
WidescreenStoryboard: 1

[Editor]
Bookmarks: 15167,30013,44839,59665,74491,89318,104135,118952,133769,148586,163403,178220,193037,207854
DistanceSpacing: 1.1
BeatDivisor: 4
GridSize: 4
TimelineZoom: 1.1

[Metadata]
Title:Your Love
TitleUnicode:Your Love
Artist:The Outfield
ArtistUnicode:The Outfield
Creator:ezek
Version:Mk's Low
Source:
Tags:80s 80's tonight Blue Dragon Mismagius CrystilonZ BeatOfTheDragon botd HappyRocket88 ReFaller Xanandra ErufenRito MkGuh gta grand theft auto vice city Luvdic 50 first dates adventureland sing star
BeatmapID:1477922
BeatmapSetID:697615

[Difficulty]
HPDrainRate:2
CircleSize:3
OverallDifficulty:2
ApproachRate:3
SliderMultiplier:1.2
SliderTickRate:1

[Events]
//Background and Video events
Video,-498,"Hate.avi"
0,0,"Toniiiiiiiiiiiiiiiiiiiiiiiiiiiiiight.jpg",0,0
//Break Periods
//Storyboard Layer 0 (Background)
//Storyboard Layer 1 (Fail)
//Storyboard Layer 2 (Pass)
//Storyboard Layer 3 (Foreground)
//Storyboard Sound Samples

[TimingPoints]
341,463.320463320463,4,2,2,80,1,0
341,-133.333333333333,4,2,2,80,0,0
30013,463.320463320463,4,2,1,80,1,0
44839,-100,4,2,1,80,0,1
59665,-100,4,2,1,80,0,0
89318,463.034418891804,4,2,1,80,1,0
118952,-100,4,2,1,80,0,1
145345,-100,4,2,1,40,0,1
145808,-100,4,2,1,60,0,1
146271,-100,4,2,1,80,0,1
146734,-100,4,2,1,60,0,1
148586,-100,4,2,1,80,0,0
193037,-100,4,2,1,60,0,0
200446,-100,4,2,1,40,0,0
204150,-100,4,2,1,20,0,0

[Colours]
Combo1 : 183,175,106
Combo2 : 208,53,53
Combo3 : 121,181,32
Combo4 : 166,102,185

[HitObjects]
204,150,1267,6,0,P|168:178|107:193,1,90.0000034332277,0|2,0:0|0:0,0:0:0:0:
131,92,2194,2,0,P|164:67|290:111,1,180.000006866455,0|2,0:0|0:0,0:0:0:0:
338,187,3584,1,2,0:0:0:0:
430,153,4047,6,0,P|430:233|344:290,1,180.000006866455,2|0,0:0|0:0,0:0:0:0:
260,319,5437,1,2,0:0:0:0:
161,331,5900,1,0,0:0:0:0:
72,286,6364,1,2,0:0:0:0:
120,199,6827,2,0,L|215:203,1,90.0000034332277,2|2,0:0|0:0,0:0:0:0:
306,180,7754,6,0,P|321:108|246:34,1,180.000006866455,2|2,0:0|0:0,0:0:0:0:
154,31,9144,1,0,0:0:0:0:
84,101,9607,2,0,P|82:193|88:204,1,90.0000034332277,0|0,0:0|0:0,0:0:0:0:
138,270,10534,2,0,L|248:282,1,90.0000034332277,2|2,0:0|0:0,0:0:0:0:
326,282,11460,6,0,P|380:254|387:137,1,180.000006866455,2|0,0:0|0:0,0:0:0:0:
335,62,12850,1,2,0:0:0:0:
249,112,13313,1,0,0:0:0:0:
181,39,13777,1,0,0:0:0:0:
122,118,14240,2,0,L|23:107,2,90.0000034332277,2|2|2,0:0|0:0|0:0,0:0:0:0:
258,290,16093,6,0,B|296:310|296:310|355:268|446:278,1,180.000006866455,2|2,0:0|0:0,0:0:0:0:
376,190,17483,1,0,0:0:0:0:
425,104,17947,2,0,B|387:84|387:84|328:126|237:116,1,180.000006866455,2|2,0:0|0:0,0:0:0:0:
124,60,19568,6,0,P|101:130|125:194,1,135.000005149841,2|2,0:0|0:0,0:0:0:0:
180,264,20727,2,0,P|247:288|342:232,1,180.000006866455,0|2,0:0|0:0,0:0:0:0:
401,163,22117,2,0,L|387:57,1,90.0000034332277,2|2,0:0|0:0,0:0:0:0:
251,129,23275,5,0,0:0:0:0:
251,129,23507,2,0,P|210:136|156:115,2,90.0000034332277,2|0|2,0:0|0:0|0:0,0:0:0:0:
348,111,24896,1,0,0:0:0:0:
410,188,25360,6,0,P|373:294|296:312,1,180.000006866455,2|2,0:0|0:0,0:0:0:0:
228,267,26750,2,0,P|183:261|124:277,2,90.0000034332277,0|2|2,0:0|0:0|0:0,0:0:0:0:
372,296,28371,2,0,P|428:232|432:164,1,135.000005149841,2|0,0:0|0:0,0:0:0:0:
416,120,29298,1,0,1:0:0:0:
378,65,29530,1,4,1:2:0:0:
257,10,30013,5,4,1:2:0:0:
137,65,30476,2,0,B|162:114|123:179|123:179|190:287,1,240,8|8,0:0|0:0,0:0:0:0:
256,169,31866,1,2,0:0:0:0:
328,279,32329,2,0,L|395:172,1,120,8|2,0:0|0:0,0:0:0:0:
466,68,33256,1,8,0:0:0:0:
337,98,33719,1,2,0:0:0:0:
236,12,34182,2,0,P|172:16|126:61,1,120,8|2,0:0|0:0,0:0:0:0:
41,148,35109,6,0,P|46:182|82:213,1,60,8|0,0:0|0:0,0:0:0:0:
113,241,35572,2,0,P|145:252|230:214,1,120,2|8,0:0|0:0,0:0:0:0:
313,127,36499,1,2,0:0:0:0:
404,221,36962,1,8,0:0:0:0:
487,118,37426,1,2,0:0:0:0:
372,52,37889,6,0,P|267:44|231:179,1,240,8|8,0:0|0:0,0:0:0:0:
232,285,39279,2,0,P|169:301|104:275,2,120,2|8|2,0:0|0:0|0:0,0:0:0:0:
346,218,40669,1,8,0:0:0:0:
476,236,41132,2,0,B|477:170|416:128|416:128|468:19,1,240,2|2,0:0|0:0,0:0:0:0:
332,46,42522,6,0,P|262:31|210:52,1,120,8|2,0:0|0:0,0:0:0:0:
104,114,43449,1,8,0:0:0:0:
204,199,43912,1,2,0:0:0:0:
313,280,44375,1,12,1:2:0:0:
331,149,44839,6,0,B|397:155|427:213,1,120,2|8,0:0|0:0,0:0:0:0:
313,280,45765,1,0,0:0:0:0:
189,233,46229,1,8,0:0:0:0:
216,103,46692,2,0,B|244:39|324:41,1,120,2|8,0:0|0:0,0:0:0:0:
432,93,47619,6,0,P|451:129|366:313,1,240,2|2,0:0|0:0,0:0:0:0:
256,293,49009,1,8,0:0:0:0:
123,301,49472,2,0,P|55:206|80:93,1,240,2|2,0:0|0:0,0:0:0:0:
200,38,50862,1,8,0:0:0:0:
285,138,51325,1,2,0:0:0:0:
414,111,51789,2,0,L|461:-4,2,120,8|2|8,0:0|0:0|0:0,0:0:0:0:
339,219,53179,6,0,P|359:322|381:343,2,120,2|8|2,0:0|0:0|0:0,0:0:0:0:
256,116,54568,1,8,0:0:0:0:
173,220,55032,2,0,P|153:323|131:344,2,120,2|8|2,0:0|0:0|0:0,0:0:0:0:
60,151,56422,2,0,P|47:100|186:81,1,240,8|8,0:0|0:0,0:0:0:0:
256,188,57812,1,2,0:0:0:0:
327,77,58275,2,0,P|430:46|452:151,1,240,8|8,0:0|0:0,0:0:0:0:
420,208,59433,1,8,0:0:0:0:
388,265,59665,6,0,B|341:301|274:263|274:263|206:319|143:284,1,240,2|2,0:0|0:0,0:0:0:0:
37,256,61055,2,0,P|55:219|144:178,1,120,8|2,0:0|0:0,0:0:0:0:
241,126,61982,1,8,0:0:0:0:
355,191,62445,2,0,P|438:158|469:123,1,120,2|8,0:0|0:0,0:0:0:0:
335,88,63372,2,0,P|256:192|310:284,1,240,2|2,0:0|0:0,0:0:0:0:
177,326,64762,5,8,0:0:0:0:
107,213,65225,2,0,L|-10:238,2,120,2|8|2,0:0|0:0|0:0,0:0:0:0:
108,80,66615,1,8,0:0:0:0:
217,153,67078,2,0,B|319:128|319:128|333:40|420:34,1,240,2|2,0:0|0:0,0:0:0:0:
463,154,68468,5,8,0:0:0:0:
403,269,68931,2,0,B|335:262|318:176|318:176|216:151,1,240,2|2,0:0|0:0,0:0:0:0:
144,262,70321,1,8,0:0:0:0:
40,180,70785,2,0,P|78:114|216:152,1,240,2|2,0:0|0:0,0:0:0:0:
329,220,72175,5,8,0:0:0:0:
376,96,72638,2,0,P|406:56|489:31,2,120,2|8|2,0:0|0:0|0:0,0:0:0:0:
340,151,73796,2,0,P|333:183|339:233,1,60,8|8,0:0|0:0,0:0:0:0:
331,276,74260,1,8,0:0:0:0:
335,341,74491,6,0,P|260:366|157:253,1,240,2|2,0:0|0:0,0:0:0:0:
127,134,75881,1,8,0:0:0:0:
230,52,76345,2,0,L|364:17,2,120,2|8|2,0:0|0:0|0:0,0:0:0:0:
240,183,77735,2,0,P|340:214|425:100,1,240,8|8,0:0|0:0,0:0:0:0:
306,65,79124,6,0,P|249:32|186:26,1,120,2|8,0:0|0:0,0:0:0:0:
74,78,80051,2,0,P|59:152|66:205,1,120,2|8,0:0|0:0,0:0:0:0:
183,252,80978,2,0,P|234:237|295:181,1,120,2|8,0:0|0:0,0:0:0:0:
319,67,81904,6,0,P|406:73|456:211,1,240,2|2,0:0|0:0,0:0:0:0:
368,296,83294,1,8,0:0:0:0:
240,261,83758,2,0,P|183:268|108:236,1,120,2|8,0:0|0:0,0:0:0:0:
199,139,84684,2,0,P|228:102|302:70,1,120,2|8,0:0|0:0,0:0:0:0:
324,199,85611,2,0,P|342:241|329:323,1,120,2|8,0:0|0:0,0:0:0:0:
202,331,86538,5,2,0:0:0:0:
73,299,87001,1,8,0:0:0:0:
31,173,87464,2,0,P|120:172|153:197,1,120,2|8,0:0|0:0,0:0:0:0:
270,224,88391,2,0,P|328:197|357:126,1,120,2|8,0:0|0:0,0:0:0:0:
266,50,89318,6,0,P|203:47|163:202,1,240,2|0,0:0|0:0,0:0:0:0:
144,320,90707,2,0,B|200:336|236:296|236:296|396:312,1,240,8|0,0:0|0:0,0:0:0:0:
412,184,92096,1,2,0:0:0:0:
356,56,92559,1,8,0:0:0:0:
212,56,93022,6,0,B|128:136|128:136|48:108|20:180,1,240,2|0,0:0|0:0,0:0:0:0:
40,304,94411,2,0,B|124:224|124:224|204:252|232:180,1,240,8|0,0:0|0:0,0:0:0:0:
336,112,95800,2,0,P|392:120|452:176,1,120,8|0,3:0|0:0,0:0:0:0:
400,284,96726,6,0,P|336:352|200:292,1,240,2|0,0:0|0:0,0:0:0:0:
228,180,98115,2,0,P|128:140|24:240,1,240,8|0,0:0|0:0,0:0:0:0:
52,344,99504,1,2,0:0:0:0:
180,308,99967,1,8,0:0:0:0:
228,180,100430,6,0,B|276:64|276:64|404:72,1,240,2|0,0:0|0:0,0:0:0:0:
460,184,101819,2,0,B|412:300|412:300|284:292,1,240,8|0,0:0|0:0,0:0:0:0:
184,224,103209,2,0,P|132:280|136:336,2,120,8|0|2,3:0|0:0|0:0,0:0:0:0:
244,196,104366,1,2,0:0:0:0:
328,92,104829,1,2,0:0:0:0:
328,92,105061,6,0,L|496:280,1,240,2|0,0:0|0:0,0:0:0:0:
356,288,106450,1,0,0:0:0:0:
244,360,106913,2,0,P|156:348|128:312,1,120,0|8,0:0|0:0,0:0:0:0:
28,252,107839,2,0,P|36:172|168:192,1,240,2|0,0:0|0:0,0:0:0:0:
296,168,109228,2,0,P|398:132|433:234,1,240,8|0,0:0|0:0,0:0:0:0:
328,312,110617,2,0,P|240:348|196:332,2,120,2|8|2,0:0|0:0|0:0,0:0:0:0:
452,80,112469,6,0,P|400:76|324:228,1,240,2|2,0:0|0:0,0:0:0:0:
256,332,113858,1,0,0:0:0:0:
192,218,114321,2,0,P|170:107|60:80,1,240,2|2,0:0|0:0,0:0:0:0:
60,212,115710,2,0,L|24:352,2,120,0|0|8,0:0|0:0|0:0,0:0:0:0:
100,88,117100,1,8,0:0:0:0:
196,176,117563,1,8,0:0:0:0:
296,264,118026,1,8,0:0:0:0:
332,136,118489,2,0,L|428:32,1,120,8|4,0:0|0:0,0:0:0:0:
452,172,119415,6,0,P|376:252|248:212,1,240,8|8,0:0|0:0,0:0:0:0:
168,132,120804,2,0,P|136:196|148:260,1,120,2|8,0:0|0:0,0:0:0:0:
252,316,121730,2,0,B|268:220|268:220|356:208|384:132,1,240,2|2,0:0|0:0,0:0:0:0:
468,44,123119,6,0,P|392:16|344:28,1,120,8|0,0:0|0:0,0:0:0:0:
244,92,124045,1,8,0:0:0:0:
120,48,124508,1,2,0:0:0:0:
40,152,124971,2,0,P|84:232|216:196,1,240,8|8,0:0|0:0,0:0:0:0:
304,108,126360,1,4,0:0:0:0:
400,200,126823,6,0,L|460:324,2,120,8|2|8,0:0|0:0|0:0,0:0:0:0:
304,108,128212,1,2,0:0:0:0:
212,204,128675,1,8,0:0:0:0:
80,220,129138,2,0,P|72:168|212:76,1,240,2|2,0:0|0:0,0:0:0:0:
324,12,130528,6,0,B|360:64|332:128|332:128|428:212,1,240,8|8,0:0|0:0,0:0:0:0:
300,256,131917,2,0,L|396:336,2,120,2|2|8,0:0|0:0|0:0,0:0:0:0:
200,168,133306,1,8,0:0:0:0:
102,250,133769,6,0,P|190:310|302:250,1,240,2|0,0:0|0:0,0:0:0:0:
388,160,135158,1,8,1:2:0:0:
292,68,135621,2,0,P|352:28|404:28,2,120,2|8|0,0:0|0:0|0:0,0:0:0:0:
208,168,137010,1,8,1:2:0:0:
76,180,137473,6,0,P|68:104|208:44,1,240,2|0,0:0|0:0,0:0:0:0:
256,156,138862,1,8,1:2:0:0:
315,39,139325,2,0,P|424:67|436:180,1,240,2|8,0:0|1:2,0:0:0:0:
364,292,140714,1,0,0:0:0:0:
232,272,141177,2,0,P|264:204|328:176,1,120,2|8,0:0|0:0,0:0:0:0:
432,180,142103,6,0,P|440:104|300:44,1,240,0|2,0:0|0:0,0:0:0:0:
256,156,143492,1,8,0:0:0:0:
196,39,143955,2,0,P|87:67|76:180,1,240,2|4,0:0|0:0,0:0:0:0:
148,292,145344,5,0,1:0:0:0:
244,204,145808,1,0,1:0:0:0:
340,296,146271,1,0,1:0:0:0:
440,208,146734,2,0,L|480:76,2,120,0|2|2,1:0|1:2|1:2,0:0:0:0:
316,160,148123,1,2,1:2:0:0:
260,280,148586,6,0,P|180:352|72:292,1,240,4|2,1:0|0:0,0:0:0:0:
156,196,149975,1,12,0:0:0:0:
52,116,150438,2,0,P|132:44|240:104,1,240,2|2,0:0|0:0,0:0:0:0:
352,164,151827,1,4,1:2:0:0:
436,60,152290,6,0,B|352:16|352:16|304:84|236:100,1,240,2|2,0:0|0:0,0:0:0:0:
104,92,153679,1,8,0:0:0:0:
20,192,154142,2,0,P|48:216|128:220,1,120,2|12,0:0|0:0,0:0:0:0:
188,188,154837,2,0,P|256:184|304:220,1,120,12|0,0:0|0:0,0:0:0:0:
336,264,155531,2,0,L|408:144,1,120,12|4,0:0|1:0,0:0:0:0:
456,44,156457,6,0,B|392:16|340:52|340:52|200:32,1,240,8|12,0:0|0:0,0:0:0:0:
104,92,157847,1,2,0:0:0:0:
44,212,158310,2,0,P|144:224|224:120,1,240,8|8,0:0|0:0,0:0:0:0:
348,164,159699,6,0,L|432:60,2,120,4|2|12,1:0|0:0|0:0,0:0:0:0:
428,272,161088,2,0,L|344:376,2,120,4|2|12,1:0|0:0|0:0,0:0:0:0:
348,164,162477,6,0,P|304:120|232:120,1,120,4|2,1:0|0:0,0:0:0:0:
140,40,163403,2,0,P|112:148|212:244,1,240,4|2,0:0|0:0,0:0:0:0:
256,352,164792,1,8,0:0:0:0:
321,238,165255,2,0,P|399:152|372:40,1,240,2|2,0:0|0:0,0:0:0:0:
256,100,166644,1,8,0:0:0:0:
136,40,167107,6,0,B|112:92|48:120|48:120|108:152|136:220,1,240,2|2,0:0|0:0,0:0:0:0:
144,336,168496,1,8,0:0:0:0:
276,340,168959,2,0,P|320:296|248:160,1,240,2|8,0:0|0:0,0:0:0:0:
132,100,170349,1,8,0:0:0:0:
260,64,170812,6,0,P|344:96|428:224,1,240,4|2,0:0|0:0,0:0:0:0:
316,292,172201,1,8,0:0:0:0:
192,340,172664,2,0,P|184:260|296:160,1,240,2|2,0:0|0:0,0:0:0:0:
424,156,174053,1,8,0:0:0:0:
320,72,174516,6,0,P|232:80|112:180,1,240,4|0,0:0|0:0,0:0:0:0:
20,260,175905,2,0,P|64:296|132:308,1,120,8|8,0:0|0:0,0:0:0:0:
244,256,176831,1,8,0:0:0:0:
344,344,177294,1,8,0:0:0:0:
444,256,177757,1,8,0:0:0:0:
352,160,178220,6,0,P|304:108|240:108,1,120,4|8,0:0|0:0,0:0:0:0:
156,20,179146,2,0,P|128:132|208:224,1,240,2|2,0:0|0:0,0:0:0:0:
240,348,180535,2,0,P|296:320|324:256,1,120,8|2,0:0|0:0,0:0:0:0:
388,156,181461,1,8,0:0:0:0:
392,24,181924,6,0,P|280:68|272:184,1,240,2|2,0:0|0:0,0:0:0:0:
344,280,183313,2,0,P|300:304|216:288,2,120,8|0|8,0:0|0:0|0:0,0:0:0:0:
404,164,184703,2,0,L|352:120,2,60,2|8|12,0:0|0:0|0:2,0:0:0:0:
344,280,185629,6,0,P|224:248|184:136,1,240,2|2,0:0|0:0,0:0:0:0:
284,64,187018,1,8,0:0:0:0:
156,28,187481,2,0,P|68:100|88:232,1,240,2|2,0:0|0:0,0:0:0:0:
148,328,188870,1,8,0:0:0:0:
244,236,189333,5,2,0:0:0:0:
244,236,189564,2,0,B|324:264|324:264|340:212|384:188,1,180,8|8,0:0|0:0,0:0:0:0:
280,104,190722,1,0,0:0:0:0:
280,104,190953,2,0,B|200:76|200:76|184:128|140:152,1,180,8|8,0:0|0:0,0:0:0:0:
12,156,192111,2,0,P|32:228|76:264,1,120,2|2,0:0|0:0,0:0:0:0:
192,284,193037,1,4,0:0:0:0:
256,192,193153,12,2,200446,0:0:0:0:
