osu file format v14

[General]
AudioFilename: Your Mom.mp3
AudioLeadIn: 0
PreviewTime: 283
Countdown: 0
SampleSet: Soft
StackLeniency: 0.7
Mode: 0
LetterboxInBreaks: 0
WidescreenStoryboard: 1

[Editor]
Bookmarks: 15167,30013,44839,59665,74491,89318,104135,118952,133769,148586,163403,178220,193037,207854
DistanceSpacing: 1
BeatDivisor: 4
GridSize: 4
TimelineZoom: 1.1

[Metadata]
Title:Your Love
TitleUnicode:Your Love
Artist:The Outfield
ArtistUnicode:The Outfield
Creator:ezek
Version:Medium
Source:
Tags:80s 80's tonight Blue Dragon Mismagius CrystilonZ BeatOfTheDragon botd HappyRocket88 ReFaller Xanandra ErufenRito MkGuh gta grand theft auto vice city Luvdic 50 first dates adventureland sing star
BeatmapID:1477735
BeatmapSetID:697615

[Difficulty]
HPDrainRate:4
CircleSize:3.5
OverallDifficulty:4
ApproachRate:4.3
SliderMultiplier:1.4
SliderTickRate:1

[Events]
//Background and Video events
Video,-498,"Hate.avi"
0,0,"Toniiiiiiiiiiiiiiiiiiiiiiiiiiiiiight.jpg",0,0
//Break Periods
2,89318,95406
//Storyboard Layer 0 (Background)
//Storyboard Layer 1 (Fail)
//Storyboard Layer 2 (Pass)
//Storyboard Layer 3 (Foreground)
//Storyboard Sound Samples

[TimingPoints]
341,463.320463320463,4,2,2,80,1,0
341,-133.333333333333,4,2,2,80,0,0
30013,463.320463320463,4,2,1,80,1,0
44839,-100,4,2,1,80,0,1
59665,-100,4,2,1,80,0,0
89318,463.034418891804,4,2,1,80,1,0
118952,-100,4,2,1,80,0,1
148586,-100,4,2,1,80,0,0
193037,-100,4,2,1,60,0,0
200446,-100,4,2,1,40,0,0
204150,-100,4,2,1,20,0,0

[Colours]
Combo1 : 183,175,106
Combo2 : 208,53,53
Combo3 : 121,181,32
Combo4 : 166,102,185

[HitObjects]
86,361,341,6,0,P|116:292|76:225,1,157.500006008148,2|0,0:0|0:0,0:0:0:0:
28,206,1267,2,0,L|35:100,1,105.000004005432,2|0,0:0|0:0,0:0:0:0:
138,81,2194,2,0,P|140:43|158:0,2,78.7500030040742,2|0|0,0:0|0:0|0:0,0:0:0:0:
176,116,3120,1,2,0:0:0:0:
120,205,3584,1,0,0:0:0:0:
202,270,4047,6,0,L|189:325,2,52.5000020027161,2|0|0,0:0|0:0|0:0,0:0:0:0:
253,258,4742,1,0,0:0:0:0:
243,153,5205,2,0,P|299:162|337:194,1,105.000004005432,2|0,0:0|0:0,0:0:0:0:
342,243,5900,2,0,L|336:351,1,105.000004005432
437,376,6827,2,0,L|443:268,1,105.000004005432,2|0,0:0|0:0,0:0:0:0:
434,166,7754,6,0,P|468:168|494:178,2,52.5000020027161,2|0|0,0:0|0:0|0:0,0:0:0:0:
329,166,8680,1,0,0:0:0:0:
329,166,8912,2,0,P|266:133|248:105,1,105.000004005432,2|0,0:0|0:0,0:0:0:0:
207,72,9607,2,0,L|133:70,1,52.5000020027161
59,114,10302,1,0,0:0:0:0:
59,114,10534,2,0,P|47:186|57:218,1,105.000004005432,2|0,0:0|0:0,0:0:0:0:
73,264,11229,1,0,0:0:0:0:
111,299,11460,6,0,P|152:300|214:334,1,105.000004005432,2|0,0:0|0:0,0:0:0:0:
255,352,12155,2,0,L|366:353,1,105.000004005432,2|0,0:0|0:0,0:0:0:0:
410,367,12850,1,0,0:0:0:0:
444,267,13313,2,0,L|501:279,2,52.5000020027161,2|0|0,0:0|0:0|0:0,0:0:0:0:
341,245,14240,1,2,0:0:0:0:
356,141,14703,1,0,0:0:0:0:
259,111,15167,5,0,0:0:0:0:
259,111,15398,2,0,P|202:122|152:118,1,105.000004005432
102,118,16093,2,0,L|92:226,1,105.000004005432,2|0,0:0|0:0,0:0:0:0:
138,317,17020,1,2,0:0:0:0:
233,272,17483,1,0,0:0:0:0:
309,343,17947,1,0,0:0:0:0:
438,253,18642,1,0,0:0:0:0:
438,253,18873,6,0,B|465:178|402:178|425:102,1,157.500006008148,2|0,0:0|0:0,0:0:0:0:
453,56,19800,2,0,P|432:29|349:12,1,105.000004005432,2|0,0:0|0:0,0:0:0:0:
280,68,20727,1,0,0:0:0:0:
280,68,20958,2,0,L|174:62,1,105.000004005432,2|0,0:0|0:0,0:0:0:0:
124,75,21653,2,0,P|91:115|85:175,1,105.000004005432,2|0,0:0|0:0,0:0:0:0:
144,251,22580,6,0,B|196:268|196:268|218:308|218:308|278:332,1,157.500006008148,2|0,0:0|0:0,0:0:0:0:
322,340,23507,2,0,P|383:341|425:321,1,105.000004005432,2|0,0:0|0:0,0:0:0:0:
394,221,24433,2,0,L|401:104,1,105.000004005432,2|0,0:0|0:0,0:0:0:0:
325,41,25360,1,0,0:0:0:0:
176,93,26055,1,0,0:0:0:0:
176,93,26286,6,0,P|198:143|161:238,1,157.500006008148,2|0,0:0|0:0,0:0:0:0:
111,241,27213,2,0,L|-7:239,1,105.000004005432,2|0,0:0|0:0,0:0:0:0:
42,337,28140,1,0,0:0:0:0:
42,337,28371,2,0,L|150:336,1,105.000004005432,2|0,0:0|0:0,0:0:0:0:
249,312,29298,1,4,1:2:0:0:
249,312,29530,1,4,1:2:0:0:
184,164,30013,6,0,P|149:79|179:34,1,140,6|8,0:0|0:0,0:0:0:0:
239,13,30707,1,0,0:0:0:0:
314,26,30939,2,0,B|345:66|345:66|340:112|340:112|364:152,1,140,2|8,0:0|0:0,0:0:0:0:
482,245,31866,2,0,P|450:294|369:310,1,140,2|8,0:0|0:0,0:0:0:0:
308,270,32561,1,0,0:0:0:0:
244,312,32792,2,0,L|83:316,1,140,2|8,0:0|0:0,0:0:0:0:
12,191,33719,6,0,P|32:101|80:73,1,140,2|8,0:0|0:0,0:0:0:0:
134,115,34414,2,0,L|285:118,1,140,2|0,0:0|0:0,0:0:0:0:
342,153,35109,1,8,0:0:0:0:
484,95,35572,2,0,P|485:63|476:24,2,70,2|0|8,0:0|0:0|0:0,0:0:0:0:
442,160,36267,1,2,0:0:0:0:
442,160,36499,2,0,L|445:299,1,140,2|8,0:0|0:0,0:0:0:0:
298,349,37426,6,0,P|261:321|171:325,1,140,2|8,0:0|0:0,0:0:0:0:
97,346,38121,1,0,0:0:0:0:
36,298,38352,2,0,B|27:251|27:251|33:203|33:203|25:153,1,140,2|8,0:0|0:0,0:0:0:0:
122,39,39279,2,0,L|264:30,1,140,2|8,0:0|0:0,0:0:0:0:
336,49,39974,1,0,0:0:0:0:
324,125,40206,2,0,P|313:198|361:262,1,140,2|8,0:0|0:0,0:0:0:0:
476,170,41132,6,0,P|487:97|439:33,1,140,2|8,0:0|0:0,0:0:0:0:
382,13,41827,2,0,L|241:25,1,140,2|0,0:0|0:0,0:0:0:0:
166,34,42522,1,8,0:0:0:0:
67,152,42985,2,0,L|-5:151,2,70,2|0|8,0:0|0:0|0:0,0:0:0:0:
136,198,43680,1,2,0:0:0:0:
136,198,43912,2,0,P|148:267|131:339,1,140,2|8,0:0|0:0,0:0:0:0:
287,329,44839,6,0,P|358:311|435:325,1,140,6|8,0:0|0:0,0:0:0:0:
495,346,45534,1,0,0:0:0:0:
485,269,45765,2,0,L|484:196,1,70,2|0,0:0|0:0,0:0:0:0:
414,164,46229,2,0,L|413:91,1,70,8|0,0:0|0:0,0:0:0:0:
369,30,46692,2,0,B|323:48|323:48|211:28,1,140,2|8,0:0|0:0,0:0:0:0:
121,138,47619,2,0,B|167:120|167:120|279:140,1,140,2|8,0:0|0:0,0:0:0:0:
334,160,48314,1,0,0:0:0:0:
334,160,48545,6,0,P|351:229|325:305,1,140,2|8,0:0|0:0,0:0:0:0:
263,328,49240,2,0,L|111:333,1,140,2|0,0:0|0:0,0:0:0:0:
45,330,49935,1,8,0:0:0:0:
5,180,50399,2,0,P|15:106|57:57,1,140,2|8,0:0|0:0,0:0:0:0:
126,89,51094,2,0,B|178:89|178:89|207:74|207:74|272:71,1,140,2|0,0:0|0:0,0:0:0:0:
339,72,51789,1,8,0:0:0:0:
486,115,52252,6,0,P|505:180|479:263,1,140,2|8,0:0|0:0,0:0:0:0:
437,306,52947,1,0,0:0:0:0:
367,273,53179,2,0,L|289:269,1,70,2|0,0:0|0:0,0:0:0:0:
228,304,53642,2,0,L|150:308,1,70,8|0,0:0|0:0,0:0:0:0:
86,278,54105,2,0,B|68:232|68:232|63:140,1,140,2|8,0:0|0:0,0:0:0:0:
167,28,55032,2,0,B|185:74|185:74|190:166,1,140,2|8,0:0|0:0,0:0:0:0:
189,241,55727,1,0,0:0:0:0:
248,289,55958,6,0,L|391:325,1,140,2|8,0:0|0:0,0:0:0:0:
454,292,56653,2,0,P|487:250|485:163,1,140,2|0,0:0|0:0,0:0:0:0:
460,93,57348,1,8,0:0:0:0:
314,42,57812,2,0,L|241:49,1,70,2|0,0:0|0:0,0:0:0:0:
168,61,58275,1,8,0:0:0:0:
168,61,58507,1,2,0:0:0:0:
51,161,58970,2,0,L|64:255,1,70,8|8,0:0|0:0,0:0:0:0:
74,306,59433,1,8,0:0:0:0:
145,276,59665,6,0,P|234:270|276:296,1,140,6|8,0:0|0:0,0:0:0:0:
333,345,60360,1,0,0:0:0:0:
402,311,60592,2,0,L|463:178,1,140,2|8,0:0|0:0,0:0:0:0:
393,45,61518,2,0,B|290:37|290:37|256:53,1,140,2|8,0:0|0:0,0:0:0:0:
118,121,62445,2,0,P|97:173|114:260,1,140,2|8,0:0|0:0,0:0:0:0:
240,337,63372,6,0,L|405:341,1,140,2|8,0:0|0:0,0:0:0:0:
457,339,64067,1,0,0:0:0:0:
496,273,64298,2,0,P|509:216|492:134,1,140,2|8,0:0|0:0,0:0:0:0:
361,57,65225,2,0,P|326:112|250:135,1,140,2|8,0:0|0:0,0:0:0:0:
110,89,66151,2,0,P|145:34|221:11,1,140,2|8,0:0|0:0,0:0:0:0:
361,57,67078,6,0,B|385:101|385:101|423:125|423:125|445:168,1,140,2|8,0:0|0:0,0:0:0:0:
475,235,67773,1,0,0:0:0:0:
429,297,68005,2,0,P|392:332|293:340,1,140,2|8,0:0|0:0,0:0:0:0:
164,285,68931,2,0,L|52:195,1,140,2|8,0:0|0:0,0:0:0:0:
84,45,69858,2,0,L|196:135,1,140,2|8,0:0|0:0,0:0:0:0:
332,199,70785,6,0,B|366:161|366:161|385:73,1,140,2|8,0:0|0:0,0:0:0:0:
451,35,71480,1,0,0:0:0:0:
490,101,71711,2,0,B|470:187|470:187|485:236,1,140,2|8,0:0|0:0,0:0:0:0:
379,349,72638,2,0,P|330:365|237:355,1,140,2|8,0:0|0:0,0:0:0:0:
95,313,73565,1,2,0:0:0:0:
67,241,73796,2,0,L|-3:248,2,70,8|8|8,0:0|0:0|0:0,0:0:0:0:
121,186,74491,6,0,P|152:148|165:56,1,140,2|8,0:0|0:0,0:0:0:0:
228,15,75186,1,0,0:0:0:0:
285,65,75418,2,0,L|355:76,1,70,2|0,0:0|0:0,0:0:0:0:
417,119,75881,2,0,L|487:130,1,70,8|0,0:0|0:0,0:0:0:0:
510,203,76345,2,0,B|518:272|518:272|510:350,1,140,2|8,0:0|0:0,0:0:0:0:
364,294,77271,2,0,B|306:282|306:282|220:304,1,140,2|8,0:0|0:0,0:0:0:0:
79,343,78198,6,0,B|71:272|71:272|79:203,1,140,2|8,0:0|0:0,0:0:0:0:
114,135,78893,1,0,0:0:0:0:
168,80,79124,2,0,P|193:58|239:39,1,70,2|0,0:0|0:0,0:0:0:0:
303,42,79588,2,0,P|332:60|361:88,1,70,8|0,0:0|0:0,0:0:0:0:
413,138,80051,2,0,P|425:210|395:269,1,140,2|8,0:0|0:0,0:0:0:0:
252,323,80978,2,0,P|240:251|270:192,1,140,2|8,0:0|0:0,0:0:0:0:
372,79,81904,6,0,B|330:48|330:48|239:48,1,140,2|8,0:0|0:0,0:0:0:0:
165,48,82599,1,0,0:0:0:0:
102,93,82831,2,0,P|81:121|68:154,1,70,2|0,0:0|0:0,0:0:0:0:
32,221,83294,2,0,P|24:252|24:292,1,70,8|0,0:0|0:0,0:0:0:0:
73,349,83758,2,0,B|115:380|115:380|206:380,1,140,2|8,0:0|0:0,0:0:0:0:
350,337,84684,1,2,0:0:0:0:
350,337,84916,2,0,B|363:288|363:288|435:224,1,140
488,178,85611,6,0,P|507:122|487:44,1,140,2|8,0:0|0:0,0:0:0:0:
333,40,86538,2,0,L|261:40,1,70,2|0,0:0|0:0,0:0:0:0:
206,92,87001,2,0,L|134:92,1,70,8|0,0:0|0:0,0:0:0:0:
70,131,87464,2,0,P|40:170|85:236,1,140,2|8,0:0|0:0,0:0:0:0:
225,301,88391,2,0,P|255:262|210:196,1,140,2|8,0:0|0:0,0:0:0:0:
440,172,96726,6,0,P|463:228|458:308,1,140,2|0,0:0|0:0,0:0:0:0:
382,316,97421,2,0,P|359:260|364:180,1,140,2|0,0:0|0:0,0:0:0:0:
386,108,98115,2,0,P|394:64|390:33,1,70,8|0,0:0|0:0,0:0:0:0:
237,53,98810,2,0,L|82:44,1,140,2|2,0:0|0:0,0:0:0:0:
32,86,99504,1,2,0:0:0:0:
144,191,99967,1,8,0:0:0:0:
32,297,100430,6,0,B|64:332|64:332|107:337|154:317,1,140,2|0,0:0|0:0,0:0:0:0:
208,262,101125,2,0,B|255:242|298:247|298:247|330:282,1,140,2|0,0:0|0:0,0:0:0:0:
384,336,101819,2,0,P|417:359|451:361,1,70,8|0,0:0|0:0,0:0:0:0:
497,216,102514,2,8,B|480:171|480:171|491:129|491:129|476:83,1,140,2|0,0:0|0:0,0:0:0:0:
442,13,103209,1,8,3:0:0:0:
336,125,103672,1,8,0:0:0:0:
214,30,104135,6,0,L|134:23,1,70,2|2,0:0|0:0,0:0:0:0:
22,118,104829,1,2,0:0:0:0:
22,118,105061,2,0,L|165:131,1,140,2|8,0:0|0:0,0:0:0:0:
237,140,105755,1,0,0:0:0:0:
265,211,105987,5,0,0:0:0:0:
114,244,106450,1,0,0:0:0:0:
219,356,106913,2,0,P|293:365|363:343,1,140,2|8,0:0|0:0,0:0:0:0:
414,298,107607,1,0,0:0:0:0:
414,298,107839,6,0,L|453:149,1,140,2|0,0:0|0:0,0:0:0:0:
472,89,108533,2,0,P|398:80|328:102,1,140,2|0,0:0|0:0,0:0:0:0:
268,134,109228,1,8,0:0:0:0:
144,42,109691,1,0,0:0:0:0:
144,42,109923,2,0,L|131:183,1,140,8|2,3:0|0:0,0:0:0:0:
70,229,110617,2,0,L|64:299,1,70,2|2,0:0|0:0,0:0:0:0:
9,353,111080,1,8,0:0:0:0:
149,290,111543,6,0,B|187:277|187:277|292:286,1,140,2|0,0:0|0:0,0:0:0:0:
333,347,112238,2,0,B|432:355|432:355|470:343,1,140,2|0,0:0|0:0,0:0:0:0:
509,276,112932,2,0,P|516:245|511:203,1,70,8|0,0:0|0:0,0:0:0:0:
480,136,113395,1,2,0:0:0:0:
333,183,113858,1,0,0:0:0:0:
279,38,114321,2,0,P|213:17|139:37,1,140,2|8,0:0|0:0,0:0:0:0:
80,74,115016,1,0,0:0:0:0:
80,74,115247,6,0,B|61:125|61:125|69:160|69:160|50:206,1,140,2|0,0:0|0:0,0:0:0:0:
13,273,115942,2,0,P|79:294|153:274,1,140,2|2,0:0|0:0,0:0:0:0:
215,243,116637,1,8,0:0:0:0:
268,298,116868,2,0,L|253:341,2,35,2|0|8,0:0|0:0|0:0,0:0:0:0:
326,247,117331,2,0,L|341:204,2,35,2|0|8,0:0|0:0|0:0,0:0:0:0:
366,312,117794,2,0,L|351:355,2,35,2|0|8,0:0|0:0|0:0,0:0:0:0:
429,267,118257,2,0,L|444:224,2,35,2|0|8,0:0|0:0|0:0,0:0:0:0:
282,314,118952,6,0,L|137:332,1,140,6|8,0:0|0:0,0:0:0:0:
67,345,119646,1,0,0:0:0:0:
18,284,119878,2,0,P|10:237|13:210,1,70,2|0,0:0|0:0,0:0:0:0:
72,166,120341,2,0,P|80:119|77:92,1,70,8|0,0:0|0:0,0:0:0:0:
44,27,120804,2,0,P|98:47|183:27,1,140,2|8,0:0|0:0,0:0:0:0:
292,132,121730,2,0,P|238:112|153:132,1,140,2|8,0:0|0:0,0:0:0:0:
90,162,122424,1,0,0:0:0:0:
90,162,122656,6,0,L|97:310,1,140,2|8,0:0|0:0,0:0:0:0:
151,356,123351,2,0,P|205:376|290:356,1,140,2|0,0:0|0:0,0:0:0:0:
343,311,124045,1,8,0:0:0:0:
491,353,124508,2,0,L|494:273,1,70,2|0,0:0|0:0,0:0:0:0:
443,224,124971,2,0,L|418:147,1,70,8|8,0:0|0:0,0:0:0:0:
344,158,125434,2,0,L|294:94,1,70,2|0,0:0|0:0,0:0:0:0:
224,113,125897,2,0,L|156:70,1,70,8|8,0:0|0:0,0:0:0:0:
87,82,126360,6,0,P|47:144|36:212,1,140,2|8,0:0|0:0,0:0:0:0:
44,286,127055,1,0,0:0:0:0:
103,335,127286,2,0,P|138:344|172:341,1,70,2|0,0:0|0:0,0:0:0:0:
239,305,127749,2,0,P|273:302|307:311,1,70,8|0,0:0|0:0,0:0:0:0:
380,336,128212,2,0,B|442:304|442:304|474:237,1,140,2|8,0:0|0:0,0:0:0:0:
428,93,129138,2,0,B|366:125|366:125|334:192,1,140,2|8,0:0|0:0,0:0:0:0:
298,255,129833,1,0,0:0:0:0:
231,293,130065,6,0,P|166:303|89:285,1,140,2|8,0:0|0:0,0:0:0:0:
41,231,130759,2,0,P|31:166|49:89,1,140,2|0,0:0|0:0,0:0:0:0:
96,35,131454,1,8,0:0:0:0:
241,85,131917,1,2,0:0:0:0:
241,85,132148,2,0,P|288:75|320:60,1,70,8|0,0:0|0:0,0:0:0:0:
384,42,132611,1,2,0:0:0:0:
384,42,132843,2,0,P|398:77|419:104,1,70,8|0,0:0|0:0,0:0:0:0:
478,150,133306,2,0,L|480:224,1,70,8|8,0:0|0:0,0:0:0:0:
510,290,133769,6,0,P|484:344|410:371,1,140,2|8,0:0|0:0,0:0:0:0:
349,327,134463,1,0,0:0:0:0:
284,284,134695,2,0,L|213:293,1,70,2|0,0:0|0:0,0:0:0:0:
140,313,135158,2,0,L|69:304,1,70,8|0,0:0|0:0,0:0:0:0:
22,244,135621,2,0,B|18:204|18:204|14:144|40:108,1,140,2|8,0:0|0:0,0:0:0:0:
190,76,136547,2,0,B|194:116|194:116|198:176|172:212,1,140,2|8,0:0|0:0,0:0:0:0:
116,264,137242,1,0,0:0:0:0:
116,264,137473,6,0,B|154:302|205:283|205:283|250:303,1,140,2|8,0:0|0:0,0:0:0:0:
313,335,138168,2,0,P|364:344|453:323,1,140,2|0,0:0|0:0,0:0:0:0:
499,266,138862,1,8,0:0:0:0:
449,120,139325,1,2,0:0:0:0:
449,120,139557,2,0,P|394:85|308:97,1,140,8|0,0:0|0:0,0:0:0:0:
296,162,140251,2,0,P|227:167|168:131,1,140,8|2,0:0|0:0,0:0:0:0:
113,78,140946,1,8,0:0:0:0:
113,78,141177,6,0,B|57:117|57:117|46:189,1,140,2|8,0:0|0:0,0:0:0:0:
35,264,141872,1,0,0:0:0:0:
69,332,142103,2,0,P|106:334|146:324,1,70,2|0,0:0|0:0,0:0:0:0:
202,284,142566,2,0,P|236:276|271:279,1,70,8|0,0:0|0:0,0:0:0:0:
332,325,143029,2,0,P|311:235|321:188,1,140,2|8,0:0|0:0,0:0:0:0:
441,94,143956,2,0,P|462:184|452:231,1,140,2|8,0:0|0:0,0:0:0:0:
415,296,144650,1,0,0:0:0:0:
415,296,144882,6,0,B|367:309|367:309|322:303|322:303|279:315,1,140,6|0,0:0|0:0,0:0:0:0:
204,336,145576,1,0,0:0:0:0:
128,349,145808,2,0,P|90:329|69:296,1,70,2|2,0:0|0:0,0:0:0:0:
84,231,146271,2,0,P|71:189|79:151,1,70,2|2,0:0|0:0,0:0:0:0:
133,113,146734,2,0,P|153:75|186:54,1,70,2|8,0:0|3:0,0:0:0:0:
251,69,147197,2,0,P|293:56|331:64,1,70,2|8,0:0|3:0,0:0:0:0:
362,122,147660,2,0,P|400:142|421:175,1,70,2|2,0:0|0:0,0:0:0:0:
407,240,148123,2,0,P|420:282|412:320,1,70,2|2,0:0|0:0,0:0:0:0:
347,341,148586,6,0,P|289:362|205:343,1,140,6|8,0:0|0:0,0:0:0:0:
145,313,149280,1,0,0:0:0:0:
99,250,149512,2,0,L|95:108,1,140,2|8,0:0|0:0,0:0:0:0:
233,42,150438,2,0,P|291:21|375:40,1,140,2|8,0:0|0:0,0:0:0:0:
435,70,151132,1,0,0:0:0:0:
481,133,151364,2,0,L|485:275,1,140,2|8,0:0|0:0,0:0:0:0:
352,350,152290,6,0,B|307:341|307:341|265:356|265:356|206:348,1,140,2|8,0:0|0:0,0:0:0:0:
139,336,152985,1,0,0:0:0:0:
64,316,153216,2,0,P|37:244|53:182,1,140,2|8,0:0|0:0,0:0:0:0:
185,108,154142,2,0,P|232:87|252:62,1,70,2|0,0:0|0:0,0:0:0:0:
285,8,154605,1,8,0:0:0:0:
285,8,154837,1,8,0:0:0:0:
334,66,155068,2,0,P|360:88|393:99,1,70,2|0,0:0|0:0,0:0:0:0:
474,106,155531,1,8,0:0:0:0:
474,106,155763,1,8,0:0:0:0:
429,168,155994,6,0,P|418:205|446:301,1,140,2|8,0:0|0:0,0:0:0:0:
491,361,156689,1,0,0:0:0:0:
415,374,156921,2,0,L|275:361,1,140,2|8,0:0|0:0,0:0:0:0:
162,256,157847,2,0,L|302:243,1,140,2|8,0:0|0:0,0:0:0:0:
377,230,158541,1,0,0:0:0:0:
425,170,158773,2,0,B|410:126|410:126|417:88|417:88|402:34,1,140,2|8,0:0|0:0,0:0:0:0:
255,80,159699,5,2,0:0:0:0:
255,80,159930,2,0,P|173:103|112:88,1,140,8|2,0:0|0:0,0:0:0:0:
43,91,160625,2,0,P|49:160|24:229,1,140,8|2,0:0|0:0,0:0:0:0:
58,295,161319,2,0,P|140:272|201:287,1,140,8|2,0:0|0:0,0:0:0:0:
262,250,162014,2,0,P|256:181|281:112,1,140,8|2,0:0|0:0,0:0:0:0:
332,59,162708,1,8,0:0:0:0:
457,148,163171,1,2,0:0:0:0:
457,148,163403,6,0,L|455:310,1,140,6|8,0:0|0:0,0:0:0:0:
416,354,164098,1,0,0:0:0:0:
347,319,164329,2,0,B|300:299|300:299|211:316,1,140,2|8,0:0|0:0,0:0:0:0:
141,345,165024,1,0,0:0:0:0:
69,317,165255,2,0,L|50:170,1,140,2|8,0:0|0:0,0:0:0:0:
91,112,165950,1,0,0:0:0:0:
161,143,166181,2,0,B|208:163|208:163|297:146,1,140,2|8,0:0|0:0,0:0:0:0:
350,91,166876,1,0,0:0:0:0:
421,118,167107,6,0,L|451:266,1,140,2|8,0:0|0:0,0:0:0:0:
396,312,167802,1,0,0:0:0:0:
323,283,168033,2,0,L|293:135,1,140,2|8,0:0|0:0,0:0:0:0:
169,56,168959,1,2,0:0:0:0:
169,56,169191,2,0,L|95:77,1,70,8|0,0:0|0:0,0:0:0:0:
60,140,169654,1,2,0:0:0:0:
60,140,169886,2,0,L|134:161,1,70,8|0,0:0|0:0,0:0:0:0:
186,219,170349,1,8,0:0:0:0:
186,219,170580,1,8,0:0:0:0:
117,256,170812,6,0,P|120:320|184:332,1,140,2|8,0:0|0:0,0:0:0:0:
256,300,171506,1,0,0:0:0:0:
327,331,171738,2,0,P|391:320|395:256,1,140,2|8,0:0|0:0,0:0:0:0:
335,205,172432,1,0,0:0:0:0:
385,147,172664,2,0,P|373:75|315:46,1,140,2|8,0:0|0:0,0:0:0:0:
256,92,173358,1,0,0:0:0:0:
193,46,173590,2,0,P|135:79|127:147,1,140,2|8,0:0|0:0,0:0:0:0:
195,193,174284,1,0,0:0:0:0:
195,193,174516,6,0,B|190:243|190:243|162:279|162:279|159:325,1,140,2|8,0:0|0:0,0:0:0:0:
225,362,175210,2,0,P|276:371|374:336,1,140,2|0,0:0|0:0,0:0:0:0:
426,309,175905,1,8,0:0:0:0:
448,156,176368,2,0,P|397:147|299:182,1,140,2|8,0:0|0:0,0:0:0:0:
248,213,177063,2,0,P|182:236|113:228,1,140,2|8,0:0|0:0,0:0:0:0:
43,197,177757,1,8,0:0:0:0:
43,197,177989,1,8,0:0:0:0:
70,125,178220,6,0,B|115:72|115:72|190:59,1,140,2|8,0:0|0:0,0:0:0:0:
256,88,178915,1,0,0:0:0:0:
328,60,179146,2,0,B|397:72|397:72|442:125,1,140,2|8,0:0|0:0,0:0:0:0:
456,280,180072,2,0,B|426:312|375:304|375:304|327:325,1,140,2|8,0:0|0:0,0:0:0:0:
256,352,180767,1,0,0:0:0:0:
185,325,180998,2,0,B|137:304|137:304|86:312|56:280,1,140,2|8,0:0|0:0,0:0:0:0:
23,210,181693,1,0,0:0:0:0:
23,210,181924,6,0,P|0:146|20:67,1,140,2|8,0:0|0:0,0:0:0:0:
80,38,182619,2,0,L|239:39,1,140,2|0,0:0|0:0,0:0:0:0:
296,37,183313,1,8,0:0:0:0:
397,153,183777,2,0,P|433:146|474:143,2,70,2|0|8,0:0|0:0|0:0,0:0:0:0:
311,281,184703,1,2,0:0:0:0:
311,281,184934,2,0,P|276:277|241:271,1,70,8|8,0:0|0:0,0:0:0:0:
167,251,185397,1,0,0:0:0:0:
157,174,185629,6,0,P|102:208|97:287,1,140,2|8,0:0|0:0,0:0:0:0:
141,337,186323,1,0,0:0:0:0:
217,325,186555,2,0,B|267:329|267:329|301:355|301:355|349:362,1,140,2|8,0:0|0:0,0:0:0:0:
474,275,187481,2,0,L|480:135,1,140,2|8,0:0|0:0,0:0:0:0:
482,58,188175,1,0,0:0:0:0:
419,13,188407,2,0,P|350:17|292:66,1,140,2|8,0:0|0:0,0:0:0:0:
237,109,189101,1,0,0:0:0:0:
237,109,189333,5,2,0:0:0:0:
172,150,189564,2,0,P|160:215|175:291,1,140,8|2,0:0|0:0,0:0:0:0:
104,321,190259,2,0,L|264:330,1,140,8|2,0:0|0:0,0:0:0:0:
309,369,190954,2,0,P|297:304|312:228,1,140,8|2,0:0|0:0,0:0:0:0:
260,174,191648,2,0,L|420:183,1,140,8|2,0:0|0:0,0:0:0:0:
476,187,192343,1,8,0:0:0:0:
401,51,192806,1,2,0:0:0:0:
336,9,193037,6,0,B|292:18|264:37|264:37|195:32,1,140,6|8,0:0|0:0,0:0:0:0:
124,28,193732,1,0,0:0:0:0:
60,71,193963,2,0,P|47:116|62:209,1,140,2|8,0:0|0:0,0:0:0:0:
150,331,194889,2,0,B|194:322|222:303|222:303|291:308,1,140,2|8,0:0|0:0,0:0:0:0:
362,312,195584,1,0,0:0:0:0:
426,269,195815,2,0,P|439:224|424:131,1,140,2|8,0:0|0:0,0:0:0:0:
362,87,196510,1,0,0:0:0:0:
362,87,196741,6,0,L|209:60,1,140,2|8,0:0|0:0,0:0:0:0:
152,91,197436,2,0,P|123:153|125:244,1,140,2|0,0:0|0:0,0:0:0:0:
148,295,198131,1,8,0:0:0:0:
298,327,198594,2,0,L|375:329,2,70,2|0|8,0:0|0:0|0:0,0:0:0:0:
197,210,199520,1,2,0:0:0:0:
197,210,199751,2,0,L|182:136,1,70,8|8,0:0|0:0,0:0:0:0:
304,45,200446,6,0,P|366:47|432:94,1,140,2|8,0:0|0:0,0:0:0:0:
460,159,201140,1,0,0:0:0:0:
453,235,201372,2,0,P|428:273|394:287,1,70,2|0,0:0|0:0,0:0:0:0:
330,277,201835,2,0,P|300:295|284:326,1,70,8|0,0:0|0:0,0:0:0:0:
218,366,202298,2,0,L|78:375,1,140,2|8,0:0|0:0,0:0:0:0:
19,232,203224,2,0,L|159:223,1,140,2|8,0:0|0:0,0:0:0:0:
218,174,203919,1,0,0:0:0:0:
218,174,204150,5,2,0:0:0:0:
256,192,204382,12,4,207854,0:0:0:0:
