osu file format v14

[General]
AudioFilename: Your Mom.mp3
AudioLeadIn: 0
PreviewTime: 283
Countdown: 0
SampleSet: Soft
StackLeniency: 0.7
Mode: 0
LetterboxInBreaks: 0
WidescreenStoryboard: 1

[Editor]
Bookmarks: 15167,30013,44839,59665,74491,89318,104135,118952,133769,148586,163403,178220,193037,207854
DistanceSpacing: 0.3
BeatDivisor: 4
GridSize: 4
TimelineZoom: 1.1

[Metadata]
Title:Your Love
TitleUnicode:Your Love
Artist:The Outfield
ArtistUnicode:The Outfield
Creator:ezek
Version:Love Collab
Source:
Tags:80s 80's tonight Blue Dragon Mismagius CrystilonZ BeatOfTheDragon botd HappyRocket88 ReFaller Xanandra ErufenRito MkGuh gta grand theft auto vice city Luvdic 50 first dates adventureland sing star
BeatmapID:1477733
BeatmapSetID:697615

[Difficulty]
HPDrainRate:6.2
CircleSize:4.3
OverallDifficulty:8
ApproachRate:7.8
SliderMultiplier:2.2
SliderTickRate:1

[Events]
//Background and Video events
Video,-498,"Hate.avi"
0,0,"Toniiiiiiiiiiiiiiiiiiiiiiiiiiiiiight.jpg",0,0
//Break Periods
//Storyboard Layer 0 (Background)
//Storyboard Layer 1 (Fail)
//Storyboard Layer 2 (Pass)
//Storyboard Layer 3 (Foreground)
Sprite,Foreground,Centre,"Beatezerocketilonfallgiusandra\ReFaller.png",320,240 S,0,341,,0.3 F,0,341,572,0,1 M,0,341,15398,320,445 F,0,572,15167,1 F,0,15167,15398,1,0
Sprite,Foreground,Centre,"Beatezerocketilonfallgiusandra\HR88.png",320,240 S,0,15167,,0.3 F,0,15167,15398,0,1 M,0,15167,30224,320,445 F,0,15398,29993,1 F,0,29993,30224,1,0
Sprite,Foreground,Centre,"Beatezerocketilonfallgiusandra\CrystilonZ.png",320,240 S,0,30013,,0.3 F,0,30013,30244,0,1 M,0,30013,45070,320,445 F,0,30244,44839,1 F,0,44839,45070,1,0
Sprite,Foreground,Centre,"Beatezerocketilonfallgiusandra\Xanandra.png",320,240 S,0,44839,,0.3 F,0,44839,45070,0,1 M,0,44839,59896,320,445 F,0,45070,59665,1 F,0,59665,59896,1,0
Sprite,Foreground,Centre,"Beatezerocketilonfallgiusandra\ezek.png",320,240 S,0,59665,,0.3 F,0,59665,59896,0,1 M,0,59665,74722,320,445 F,0,59896,74491,1 F,0,74491,74722,1,0
Sprite,Foreground,Centre,"Beatezerocketilonfallgiusandra\BOTD.png",320,240 S,0,74491,,0.3 F,0,74491,74722,0,1 M,0,74491,89548,320,445 F,0,74722,89317,1 F,0,89317,89548,1,0
Sprite,Foreground,Centre,"Beatezerocketilonfallgiusandra\HR88.png",320,240 S,0,89318,,0.3 F,0,89318,89549,0,1 M,0,89318,104375,320,445 F,0,89549,104144,1 F,0,104144,104375,1,0
Sprite,Foreground,Centre,"Beatezerocketilonfallgiusandra\Xanandra.png",320,240 S,0,104135,,0.3 F,0,104135,104366,0,1 M,0,104135,119192,320,445 F,0,104366,118961,1 F,0,118961,119192,1,0
Sprite,Foreground,Centre,"Beatezerocketilonfallgiusandra\Mismagius.png",320,240 S,0,118952,,0.3 F,0,118952,119183,0,1 M,0,118952,134009,320,445 F,0,119183,133778,1 F,0,133778,134009,1,0
Sprite,Foreground,Centre,"Beatezerocketilonfallgiusandra\CrystilonZ.png",320,240 S,0,133769,,0.3 F,0,133769,134000,0,1 M,0,133769,148826,320,445 F,0,134000,148595,1 F,0,148595,148826,1,0
Sprite,Foreground,Centre,"Beatezerocketilonfallgiusandra\ReFaller.png",320,240 S,0,148586,,0.3 F,0,148586,148817,0,1 M,0,148586,163643,320,445 F,0,148817,163412,1 F,0,163412,163643,1,0
Sprite,Foreground,Centre,"Beatezerocketilonfallgiusandra\BOTD.png",320,240 S,0,163403,,0.3 F,0,163403,163634,0,1 M,0,163403,178460,320,445 F,0,163634,178229,1 F,0,178229,178460,1,0
Sprite,Foreground,Centre,"Beatezerocketilonfallgiusandra\Mismagius.png",320,240 S,0,178220,,0.3 F,0,178220,178451,0,1 M,0,178220,193277,320,445 F,0,178451,193046,1 F,0,193046,193277,1,0
Sprite,Foreground,Centre,"Beatezerocketilonfallgiusandra\ezek.png",320,240 S,0,193037,,0.3 F,0,193037,193268,0,1 M,0,193037,208094,320,445 F,0,193268,207863,1 F,0,207863,208094,1,0
//Storyboard Sound Samples

[TimingPoints]
341,463.320463320463,4,2,2,80,1,0
341,-133.333333333333,4,2,2,80,0,0
24781,-133.333333333333,4,2,2,5,0,0
24896,-133.333333333333,4,2,2,80,0,0
25244,-133.333333333333,4,2,2,5,0,0
25360,-133.333333333333,4,2,2,80,0,0
29877,-133.333333333333,4,2,2,5,0,0
30013,463.320463320463,4,2,1,80,1,0
33603,-100,4,2,1,5,0,0
33719,-100,4,2,1,80,0,0
37310,-100,4,2,1,5,0,0
37426,-100,4,2,1,80,0,0
41016,-100,4,2,1,5,0,0
41132,-100,4,2,1,80,0,0
44839,-100,4,2,1,80,0,1
59665,-100,4,2,1,80,0,0
61866,-100,4,2,1,5,0,0
61982,-100,4,2,1,80,0,0
62329,-100,4,2,1,5,0,0
62445,-100,4,2,1,80,0,0
62792,-100,4,2,1,5,0,0
62908,-100,4,2,1,80,0,0
63256,-100,4,2,1,5,0,0
63372,-100,4,2,1,80,0,0
65572,-100,4,2,1,5,0,0
65688,-100,4,2,1,80,0,0
66036,-100,4,2,1,5,0,0
66151,-100,4,2,1,80,0,0
66499,-100,4,2,1,5,0,0
66615,-100,4,2,1,80,0,0
66962,-100,4,2,1,5,0,0
67078,-100,4,2,1,80,0,0
69279,-100,4,2,1,5,0,0
69395,-100,4,2,1,80,0,0
69742,-100,4,2,1,5,0,0
69858,-100,4,2,1,80,0,0
70206,-100,4,2,1,5,0,0
70321,-100,4,2,1,80,0,0
70669,-100,4,2,1,5,0,0
70785,-100,4,2,1,80,0,0
72985,-100,4,2,1,5,0,0
73101,-100,4,2,1,80,0,0
73449,-100,4,2,1,5,0,0
73565,-100,4,2,1,80,0,0
76692,-100,4,2,1,5,0,0
76808,-100,4,2,1,80,0,0
77155,-100,4,2,1,5,0,0
77271,-100,4,2,1,80,0,0
77619,-100,4,2,1,5,0,0
77735,-100,4,2,1,80,0,0
80399,-100,4,2,1,5,0,0
80514,-100,4,2,1,80,0,0
80862,-100,4,2,1,5,0,0
80978,-100,4,2,1,80,0,0
81325,-100,4,2,1,5,0,0
81441,-100,4,2,1,80,0,0
81789,-100,4,2,1,5,0,0
81904,-100,4,2,1,80,0,0
84105,-100,4,2,1,5,0,0
84221,-100,4,2,1,80,0,0
84568,-100,4,2,1,5,0,0
84684,-100,4,2,1,80,0,0
85958,-100,4,2,1,5,0,0
86074,-100,4,2,1,80,0,0
87812,-100,4,2,1,5,0,0
87928,-100,4,2,1,80,0,0
88275,-100,4,2,1,5,0,0
88391,-100,4,2,1,80,0,0
88738,-100,4,2,1,5,0,0
88854,-100,4,2,1,80,0,0
89318,463.034418891804,4,2,1,80,1,0
89318,-133.333333333333,4,2,1,80,0,0
99852,-133.333333333333,4,2,1,5,0,0
99967,-133.333333333333,4,2,1,80,0,0
100315,-133.333333333333,4,2,1,5,0,0
100430,-133.333333333333,4,2,1,80,0,0
118952,-90.9090909090909,4,2,1,80,0,1
148470,-90.9090909090909,4,2,1,80,0,0
148586,-90.9090909090909,4,2,1,70,0,1
148702,-90.9090909090909,4,2,1,80,0,0
149628,-90.9090909090909,4,2,0,80,0,0
149859,-90.9090909090909,4,2,1,80,0,0
151596,-90.9090909090909,4,2,0,80,0,0
151711,-90.9090909090909,4,2,1,80,0,0
153448,-90.9090909090909,4,2,0,80,0,0
153564,-90.9090909090909,4,2,1,80,0,0
155994,-90.9090909090909,4,2,1,50,0,0
156226,-90.9090909090909,4,2,1,80,0,0
157036,-90.9090909090909,4,2,0,80,0,0
157268,-90.9090909090909,4,2,1,80,0,0
159004,-90.9090909090909,4,2,0,80,0,0
159120,-90.9090909090909,4,2,1,80,0,0
159699,-90.9090909090909,4,2,1,60,0,0
159930,-90.9090909090909,4,2,1,80,0,0
160162,-90.9090909090909,4,2,0,80,0,0
160393,-90.9090909090909,4,2,1,70,0,0
160625,-90.9090909090909,4,2,1,80,0,0
160856,-90.9090909090909,4,2,0,80,0,0
161088,-90.9090909090909,4,2,1,60,0,0
161319,-90.9090909090909,4,2,1,80,0,0
161551,-90.9090909090909,4,2,0,80,0,0
161782,-90.9090909090909,4,2,1,70,0,0
162014,-90.9090909090909,4,2,1,80,0,0
162245,-90.9090909090909,4,2,0,80,0,0
162477,-90.9090909090909,4,2,1,60,0,0
162708,-90.9090909090909,4,2,1,80,0,0
162940,-90.9090909090909,4,2,0,60,0,0
163171,-90.9090909090909,4,2,0,45,0,0
163403,-90.9090909090909,4,2,1,80,0,1
163519,-90.9090909090909,4,2,1,80,0,0
193037,-100,4,2,1,60,0,0
200446,-100,4,2,1,40,0,0
204150,-100,4,2,1,20,0,0

[Colours]
Combo1 : 183,175,106
Combo2 : 208,53,53
Combo3 : 121,181,32
Combo4 : 166,102,185

[HitObjects]
96,76,341,5,2,0:0:0:0:
188,64,572,2,0,P|190:105|182:145,1,82.5000031471254
164,252,1035,1,2,0:0:0:0:
175,165,1267,1,0,0:0:0:0:
260,176,1499,1,0,0:0:0:0:
251,263,1730,1,2,0:0:0:0:
152,260,1962,1,0,0:0:0:0:
264,272,2194,6,0,P|324:264|392:260,2,123.750004720688,0|2|0,0:0|0:0|0:0,0:0:0:0:
148,244,3120,2,0,P|139:204|150:164,1,82.5000031471254,2|0,0:0|0:0,0:0:0:0:
261,89,3584,2,0,P|270:128|257:167,1,82.5000031471254,2|0,0:0|0:0,0:0:0:0:
156,148,4047,6,0,P|115:141|74:137,1,82.5000031471254,2|0,0:0|0:0,0:0:0:0:
20,228,4510,1,0,0:0:0:0:
20,228,4742,2,0,P|60:235|101:238,1,82.5000031471254,2|0,0:0|0:0,0:0:0:0:
192,324,5205,2,0,P|204:284|202:243,1,82.5000031471254,0|2,0:0|0:0,0:0:0:0:
156,148,5669,1,0,0:0:0:0:
216,232,5900,5,0,0:0:0:0:
300,172,6132,1,2,0:0:0:0:
240,88,6364,1,2,0:0:0:0:
156,148,6595,1,0,0:0:0:0:
228,160,6827,1,2,0:0:0:0:
232,164,7290,1,2,0:0:0:0:
236,168,7754,5,2,0:0:0:0:
240,88,7985,1,0,0:0:0:0:
156,148,8217,2,0,L|68:156,1,82.5000031471254
216,232,8680,1,2,0:0:0:0:
216,232,8912,2,0,L|384:248,1,165.000006294251,2|0,0:0|0:0,0:0:0:0:
504,220,9607,5,0,0:0:0:0:
504,220,9839,2,0,P|512:260|496:308,1,82.5000031471254,2|0,0:0|0:0,0:0:0:0:
380,224,10302,1,2,0:0:0:0:
380,224,10534,2,0,P|372:184|388:136,1,82.5000031471254,2|0,0:0|0:0,0:0:0:0:
512,32,10997,2,0,P|512:84|492:120,1,82.5000031471254,2|0,0:0|0:0,0:0:0:0:
392,124,11460,6,0,P|309:126|224:136,1,165.000006294251,2|0,0:0|0:0,0:0:0:0:
136,208,12155,2,0,P|115:166|116:120,1,82.5000031471254,2|0,0:0|0:0,0:0:0:0:
240,36,12618,1,0,0:0:0:0:
240,36,12850,2,0,P|244:76|232:115,1,82.5000031471254,2|0,0:0|0:0,0:0:0:0:
200,260,13313,5,0,0:0:0:0:
88,232,13545,1,2,0:0:0:0:
212,280,13777,2,0,L|295:286,1,82.5000031471254
420,264,14240,1,2,0:0:0:0:
396,368,14471,1,2,0:0:0:0:
308,276,14703,1,2,0:0:0:0:
332,172,14934,1,0,0:0:0:0:
452,128,15167,5,2,0:0:0:0:
332,172,15398,2,0,B|289:196|255:169|255:169|205:136|153:175,1,165.000006294251
81,252,16093,1,2,0:0:0:0:
208,228,16325,1,0,0:0:0:0:
92,169,16557,1,0,0:0:0:0:
153,285,16788,1,0,0:0:0:0:
286,239,17020,6,0,P|332:226|375:243,1,82.5000031471254,2|0,0:0|0:0,0:0:0:0:
371,363,17483,2,0,P|336:330|329:285,1,82.5000031471254
437,228,17947,2,0,P|425:274|389:303,1,82.5000031471254,2|0,0:0|0:0,0:0:0:0:
258,313,18410,2,0,P|229:342|221:382,1,82.5000031471254
208,256,18873,6,0,P|160:232|184:312,1,165.000006294251,2|0,0:0|0:0,0:0:0:0:
304,256,19568,2,0,P|352:232|328:312,1,165.000006294251,2|0,0:0|0:0,0:0:0:0:
190,173,20263,2,0,B|157:145|157:145|213:269,1,165.000006294251,2|0,0:0|0:0,0:0:0:0:
321,173,20958,2,0,B|354:145|354:145|303:255,1,165.000006294251,2|0,0:0|0:0,0:0:0:0:
252,352,21653,5,2,0:0:0:0:
302,255,21885,1,0,0:0:0:0:
456,356,22117,5,2,0:0:0:0:
405,259,22349,1,0,0:0:0:0:
252,352,22580,6,0,B|208:360|180:316|180:316|152:360|88:340,1,165.000006294251,2|0,0:0|0:0,0:0:0:0:
40,240,23275,1,0,0:0:0:0:
168,184,23507,2,0,P|208:152|216:100,1,82.5000031471254,2|0,0:0|0:0,0:0:0:0:
80,88,23970,2,0,P|74:128|92:165,1,82.5000031471254
204,244,24433,6,0,P|256:204|284:132,1,123.750004720688,2|0,0:0|0:0,0:0:0:0:
348,180,24896,2,0,P|344:241|368:297,1,123.750004720688
429,249,25360,2,0,P|447:185|484:240,1,165.000006294251,2|0,0:0|0:0,0:0:0:0:
432,352,26055,1,0,0:0:0:0:
270,197,26286,6,0,B|224:136|140:204|192:248|192:248|144:304|248:356|276:280,1,330.000012588501,2|0,0:0|0:0,0:0:0:0:
348,180,27445,1,0,0:0:0:0:
344,312,27676,2,0,P|312:360|268:384,2,82.5000031471254,2|0|0,0:0|0:0|0:0,0:0:0:0:
348,180,28371,2,0,P|316:136|264:112,2,82.5000031471254,2|0|0,0:0|0:0|0:0,0:0:0:0:
344,312,29066,1,0,0:0:0:0:
472,224,29298,5,4,1:2:0:0:
232,300,29530,2,0,P|228:280|236:304,1,123.750004720688,4|0,1:2|0:0,0:0:0:0:
142,322,30013,6,0,P|134:273|154:216,1,110,4|0,1:2|0:0,0:0:0:0:
277,112,30476,1,8,0:0:0:0:
104,149,30707,1,2,0:0:0:0:
142,322,30939,1,2,0:0:0:0:
314,284,31171,1,0,0:0:0:0:
153,216,31402,1,8,0:0:0:0:
242,367,31634,1,0,0:0:0:0:
349,163,31866,6,0,P|358:109|343:56,1,110,2|0,0:0|0:0,0:0:0:0:
267,11,32213,1,0,0:0:0:0:
267,11,32329,1,8,0:0:0:0:
496,40,32561,1,2,0:0:0:0:
277,112,32792,2,0,P|266:164|281:217,1,110,2|0,0:0|0:0,0:0:0:0:
511,170,33256,2,0,B|400:148|400:148|349:161,1,165,8|0,0:0|0:0,0:0:0:0:
281,217,33719,6,0,L|299:329,1,110,2|0,0:0|0:0,0:0:0:0:
349,161,34182,1,8,0:0:0:0:
213,272,34414,2,0,L|231:384,1,110,2|2,0:0|0:0,0:0:0:0:
281,217,34877,1,0,0:0:0:0:
145,328,35109,1,8,0:0:0:0:
34,192,35341,1,0,0:0:0:0:
170,81,35572,5,2,0:0:0:0:
213,272,35804,1,0,0:0:0:0:
22,315,36036,1,8,0:0:0:0:
102,137,36267,1,2,0:0:0:0:
281,217,36499,2,0,P|300:279|272:335,1,110,2|0,0:0|0:0,0:0:0:0:
34,192,36962,2,0,P|29:91|97:53,1,165,8|0,0:0|0:0,0:0:0:0:
165,51,37426,6,0,P|226:57|291:84,1,110,2|0,0:0|0:0,0:0:0:0:
239,245,37889,1,8,0:0:0:0:
102,137,38121,2,0,P|162:130|232:143,1,110,2|2,0:0|0:0,0:0:0:0:
214,311,38584,1,0,0:0:0:0:
46,262,38816,1,8,0:0:0:0:
239,245,39047,1,0,0:0:0:0:
61,330,39279,5,2,0:0:0:0:
102,137,39511,2,0,P|162:130|232:143,1,110,0|8,0:0|0:0,0:0:0:0:
250,370,39974,1,2,0:0:0:0:
46,262,40206,2,0,P|99:233|168:218,1,110,2|0,0:0|0:0,0:0:0:0:
325,359,40669,2,0,B|319:246|319:246|328:186,1,165,8|0,0:0|0:0,0:0:0:0:
362,114,41132,6,0,L|484:106,1,110,2|0,0:0|0:0,0:0:0:0:
326,194,41596,1,8,0:0:0:0:
398,34,41827,2,0,L|520:26,1,110,2|2,0:0|0:0,0:0:0:0:
362,114,42290,2,0,L|240:106,1,110,0|8,0:0|0:0,0:0:0:0:
76,34,42754,1,0,0:0:0:0:
201,191,42985,5,2,0:0:0:0:
297,19,43217,1,0,0:0:0:0:
137,115,43449,1,8,0:0:0:0:
262,272,43680,1,2,0:0:0:0:
182,25,43912,2,0,P|128:18|76:34,1,110,2|0,0:0|0:0,0:0:0:0:
155,280,44375,2,0,P|209:287|261:271,1,110,12|2,1:2|0:0,0:0:0:0:
389,353,44723,5,0,0:0:0:0:
389,353,44839,2,0,L|394:239,1,110,2|0,0:0|0:0,0:0:0:0:
433,106,45302,2,0,L|428:220,1,110,8|2,0:0|0:0,0:0:0:0:
290,329,45765,2,0,P|250:351|162:359,1,110
26,287,46229,2,0,L|37:151,1,110,8|2,0:0|0:0,0:0:0:0:
278,12,46692,5,2,0:0:0:0:
304,118,47155,1,8,0:0:0:0:
330,224,47619,1,2,0:0:0:0:
357,330,48082,1,8,0:0:0:0:
404,230,48314,1,2,0:0:0:0:
449,130,48545,5,2,0:0:0:0:
404,230,48777,1,0,0:0:0:0:
304,183,49009,1,8,0:0:0:0:
223,257,49240,2,0,P|108:272|-3:218,1,220,2|0,0:0|0:0,0:0:0:0:
249,296,49935,2,0,P|364:281|475:335,1,220,8|2,0:0|0:0,0:0:0:0:
471,122,50630,5,2,0:0:0:0:
290,39,50862,1,8,0:0:0:0:
122,145,51094,2,0,P|81:253|-25:319,1,220,2|0,0:0|0:0,0:0:0:0:
159,117,51789,2,0,P|179:62|232:29,1,110,8|0,0:0|0:0,0:0:0:0:
439,139,52136,5,0,0:0:0:0:
439,139,52252,2,0,L|294:104,1,110,2|0,0:0|0:0,0:0:0:0:
188,110,52715,2,0,L|332:144,1,110,8|0,0:0|0:0,0:0:0:0:
357,360,53178,2,0,P|408:342|451:308,1,110,2|0,0:0|0:0,0:0:0:0:
504,125,53642,2,0,L|515:-11,1,110,8|2,0:0|0:0,0:0:0:0:
330,234,54105,5,2,0:0:0:0:
234,178,54568,1,8,0:0:0:0:
138,122,55032,1,2,0:0:0:0:
42,66,55495,1,8,0:0:0:0:
150,46,55727,1,2,0:0:0:0:
257,26,55958,5,2,0:0:0:0:
150,46,56190,1,0,0:0:0:0:
224,127,56422,1,8,0:0:0:0:
200,234,56653,2,0,P|121:247|-18:164,1,220,2|0,0:0|0:0,0:0:0:0:
243,263,57348,2,0,P|322:250|461:333,1,220,8|2,0:0|0:0,0:0:0:0:
498,96,58043,5,2,0:0:0:0:
293,13,58275,1,8,0:0:0:0:
116,144,58507,2,0,P|111:261|36:351,1,220,2|8,0:0|0:0,0:0:0:0:
237,320,59202,2,0,L|371:315,1,110,8|8,0:0|0:0,0:0:0:0:
479,372,59665,6,0,B|522:269|429:268|477:160,1,220,2|8,0:0|0:0,0:0:0:0:
409,22,60360,2,0,P|459:49|493:97,1,110,2|2,0:0|0:0,0:0:0:0:
323,155,60823,2,0,P|273:128|239:80,1,110,0|8,0:0|0:0,0:0:0:0:
82,192,61287,1,0,0:0:0:0:
82,192,61518,6,0,B|67:254|67:254|80:296|80:296|63:355,1,165,2|0,0:0|0:0,0:0:0:0:
152,361,61982,2,0,P|227:320|309:333,1,165,8|0,0:0|0:0,0:0:0:0:
386,358,62445,2,0,B|401:296|401:296|388:254|388:254|405:195,1,165,2|0,0:0|0:0,0:0:0:0:
325,157,62908,2,0,P|250:198|168:185,1,165,8|0,0:0|0:0,0:0:0:0:
123,68,63372,6,0,P|209:17|326:38,1,220,2|8,0:0|0:0,0:0:0:0:
409,193,64067,2,0,L|381:85,1,110,2|2,0:0|0:0,0:0:0:0:
485,237,64530,2,0,L|513:345,1,110,0|8,0:0|0:0,0:0:0:0:
294,276,64993,1,0,0:0:0:0:
294,276,65225,6,0,P|261:344|178:375,1,165,2|0,0:0|0:0,0:0:0:0:
95,354,65688,2,0,L|60:191,1,165,8|0,0:0|0:0,0:0:0:0:
86,108,66151,2,0,P|119:40|202:9,1,165,2|0,0:0|0:0,0:0:0:0:
251,80,66615,2,0,L|286:243,1,165,8|0,0:0|0:0,0:0:0:0:
369,366,67078,6,0,P|418:310|404:164,1,220,2|8,0:0|0:0,0:0:0:0:
257,64,67773,2,0,P|283:108|335:136,1,110,2|2,0:0|0:0,0:0:0:0:
163,80,68236,2,0,P|137:36|85:8,1,110,0|8,0:0|0:0,0:0:0:0:
5,169,68700,1,0,0:0:0:0:
5,169,68931,6,0,P|0:245|42:321,1,165,2|0,0:0|0:0,0:0:0:0:
128,339,69395,2,0,B|208:309|208:309|280:344,1,165,8|0,0:0|0:0,0:0:0:0:
367,343,69858,2,0,P|407:272|403:191,1,165,2|0,0:0|0:0,0:0:0:0:
318,170,70321,2,0,B|238:200|238:200|166:165,1,165,8|0,0:0|0:0,0:0:0:0:
49,94,70785,6,0,P|115:40|246:57,1,220,2|8,0:0|0:0,0:0:0:0:
319,207,71480,2,0,P|325:162|310:98,1,110,2|2,0:0|0:0,0:0:0:0:
399,241,71943,2,0,P|393:286|408:350,1,110,0|8,0:0|0:0,0:0:0:0:
204,310,72406,1,0,0:0:0:0:
204,310,72638,6,0,B|159:250|159:250|63:218,1,165,2|0,0:0|0:0,0:0:0:0:
96,135,73101,2,0,B|182:163|182:163|253:143,1,165,8|0,0:0|0:0,0:0:0:0:
337,109,73565,1,2,0:0:0:0:
284,312,73796,1,8,0:0:0:0:
453,141,74028,1,8,0:0:0:0:
220,79,74260,1,8,0:0:0:0:
275,221,74491,6,0,P|378:252|484:217,1,220,2|8,0:0|0:0,0:0:0:0:
377,40,75186,1,0,0:0:0:0:
377,171,75418,1,2,0:0:0:0:
481,98,75650,1,0,0:0:0:0:
279,82,75881,2,0,P|238:87|177:119,1,110,8|0,0:0|0:0,0:0:0:0:
87,276,76345,6,0,P|60:204|79:119,1,165,2|0,0:0|0:0,0:0:0:0:
147,166,76808,2,0,P|225:143|278:82,1,165,8|0,0:0|0:0,0:0:0:0:
335,154,77271,2,0,P|410:166|474:225,1,165,2|0,0:0|0:0,0:0:0:0:
483,304,77735,2,0,P|452:225|464:146,1,165,8|0,0:0|0:0,0:0:0:0:
374,246,78198,6,0,B|325:262|325:262|291:225|241:225|241:225|212:247|170:242,1,220,2|8,0:0|0:0,0:0:0:0:
61,348,78893,1,0,0:0:0:0:
181,130,79124,2,0,L|200:60,2,73.3333333333333,2|0|0,0:0|0:0|0:0,0:0:0:0:
254,301,79588,1,8,0:0:0:0:
59,194,79819,1,0,0:0:0:0:
317,101,80051,6,0,P|351:161|314:244,1,165,2|0,0:0|0:0,0:0:0:0:
197,243,80514,2,0,P|160:172|195:101,1,165,8|0,0:0|0:0,0:0:0:0:
327,101,80978,2,0,P|361:161|324:244,1,165,2|0,0:0|0:0,0:0:0:0:
257,342,81441,2,0,B|234:314|234:314|292:297|302:338|358:339,1,165,8|0,0:0|0:0,0:0:0:0:
439,291,81904,6,0,L|465:73,1,220,2|8,0:0|0:0,0:0:0:0:
257,172,82599,1,0,0:0:0:0:
346,46,82831,2,0,P|362:72|372:114,2,73.3333333333333,2|0|0,0:0|0:0|0:0,0:0:0:0:
149,151,83294,1,8,0:0:0:0:
366,194,83526,1,0,0:0:0:0:
102,67,83758,6,0,P|60:144|80:214,1,165,2|0,0:0|0:0,0:0:0:0:
224,195,84221,2,0,P|229:282|181:337,1,165,8|0,0:0|0:0,0:0:0:0:
99,352,84684,1,2,0:0:0:0:
224,195,84916,1,0,0:0:0:0:
103,66,85148,1,8,0:0:0:0:
101,241,85379,1,0,0:0:0:0:
231,87,85611,6,0,B|320:80|320:80|393:113,1,165,2|0,0:0|0:0,0:0:0:0:
464,184,86074,2,0,P|489:143|489:83,1,110,8|0,0:0|0:0,0:0:0:0:
331,234,86538,1,2,0:0:0:0:
432,337,86769,1,0,0:0:0:0:
404,119,87001,1,8,0:0:0:0:
190,231,87233,1,0,0:0:0:0:
59,81,87464,6,0,P|118:74|219:103,1,165,2|0,0:0|0:0,0:0:0:0:
303,191,87928,2,0,P|244:184|143:213,1,165,8|0,0:0|0:0,0:0:0:0:
70,309,88391,2,0,P|129:302|230:331,1,165,2|0,0:0|0:0,0:0:0:0:
306,279,88854,2,0,P|366:276|412:247,1,110,8|2,0:0|0:0,0:0:0:0:
430,180,89202,1,0,0:0:0:0:
400,112,89318,6,0,P|424:60|468:128,1,165.000006294251,2|0,0:0|0:0,0:0:0:0:
344,172,90012,2,0,P|299:208|377:233,1,165.000006294251,2|0,0:0|0:0,0:0:0:0:
322,96,90707,2,0,B|286:76|246:96|246:96|202:120|154:88,1,165.000006294251,8|2,0:0|0:0,0:0:0:0:
44,64,91401,6,0,B|8:36|8:36|43:105|36:152,1,165.000006294251,2|2,0:0|0:0,0:0:0:0:
12,272,92096,2,0,P|32:320|88:340,1,82.5000031471254,2|0,0:0|0:0,0:0:0:0:
172,248,92559,2,0,P|152:200|96:180,1,82.5000031471254,8|0,0:0|0:0,0:0:0:0:
160,324,93022,6,0,B|212:328|236:288|236:288|316:312,1,165.000006294251,2|0,0:0|0:0,0:0:0:0:
408,332,93716,2,0,B|456:351|456:351|393:293|429:222,1,165.000006294251,2|0,0:0|0:0,0:0:0:0:
500,92,94411,1,8,0:0:0:0:
404,168,94642,1,0,0:0:0:0:
504,272,94874,5,0,0:0:0:0:
300,236,95105,2,0,B|268:224|244:236|244:236|217:243|192:228|192:228|164:215|132:228,1,165.000006294251,2|2,0:0|0:0,0:0:0:0:
139,104,95800,2,0,P|219:140|227:196,2,123.750004720688,8|2|8,3:0|0:0|3:0,0:0:0:0:
282,310,96726,6,0,P|335:304|368:203,1,165.000006294251,2|0,0:0|0:0,0:0:0:0:
294,81,97421,2,0,B|270:186|270:186|303:242,1,165.000006294251,2|0,0:0|0:0,0:0:0:0:
420,163,98115,1,8,0:0:0:0:
390,288,98347,1,0,0:0:0:0:
350,176,98578,5,0,0:0:0:0:
449,238,98810,1,2,0:0:0:0:
196,138,99041,2,0,P|178:94|202:48,1,82.5000031471254,0|2,0:0|0:0,0:0:0:0:
119,207,99504,2,0,P|78:257|5:257,1,123.750004720688,2|0,0:0|0:0,0:0:0:0:
119,207,99967,2,0,P|178:218|214:267,1,123.750004720688,8|0,0:0|0:0,0:0:0:0:
164,325,100430,6,0,B|211:313|215:267|215:267|248:299|296:285,1,165.000006294251,2|0,0:0|0:0,0:0:0:0:
387,221,101125,2,0,P|444:195|492:298,1,165.000006294251,2|0,0:0|0:0,0:0:0:0:
309,221,101819,1,8,0:0:0:0:
400,373,102051,1,0,0:0:0:0:
439,264,102282,5,0,0:0:0:0:
269,334,102514,2,0,B|221:361|189:327|188:327|161:294|100:340,1,165.000006294251,2|0,0:0|0:0,0:0:0:0:
239,267,103209,2,0,P|246:215|213:166,2,110.000004196167,8|2|4,3:0|0:0|3:0,0:0:0:0:
349,358,104135,5,2,0:0:0:0:
442,305,104366,2,0,L|462:112,1,165.000006294251,2|2,0:0|0:0,0:0:0:0:
338,226,105061,2,0,L|358:33,1,165.000006294251,2|8,0:0|0:0,0:0:0:0:
71,0,105987,5,0,0:0:0:0:
86,81,106450,1,0,0:0:0:0:
101,162,106913,1,0,0:0:0:0:
117,242,107376,1,8,0:0:0:0:
176,184,107607,1,0,0:0:0:0:
235,126,107839,5,2,0:0:0:0:
318,268,108302,1,0,0:0:0:0:
363,199,108533,2,0,P|446:194|520:250,1,165.000006294251,2|0,0:0|0:0,0:0:0:0:
325,170,109228,2,0,P|242:175|168:119,1,165.000006294251,8|0,0:0|0:0,0:0:0:0:
217,360,109923,6,0,P|295:332|341:251,1,165.000006294251,2|0,0:0|0:0,0:0:0:0:
323,151,110617,1,2,0:0:0:0:
392,58,110849,1,2,0:0:0:0:
507,59,111080,1,8,0:0:0:0:
268,58,111543,2,0,L|95:36,1,165.000006294251,2|0,0:0|0:0,0:0:0:0:
192,171,112238,2,0,L|19:149,1,165.000006294251,2|0,0:0|0:0,0:0:0:0:
0,16,112932,1,8,0:0:0:0:
316,14,113395,5,0,0:0:0:0:
301,95,113858,1,0,0:0:0:0:
286,176,114321,1,0,0:0:0:0:
270,256,114784,1,8,0:0:0:0:
211,198,115015,1,2,0:0:0:0:
152,140,115247,5,2,0:0:0:0:
361,139,115710,1,0,0:0:0:0:
361,57,115941,2,0,P|444:52|518:108,1,165.000006294251,2|2,0:0|0:0,0:0:0:0:
317,41,116637,6,0,P|275:43|238:15,1,82.5000031471254,8|0,0:0|0:0,0:0:0:0:
72,143,117100,2,0,P|69:183|92:217,1,82.5000031471254,8|0,0:0|0:0,0:0:0:0:
338,289,117563,2,0,P|356:251|399:233,1,82.5000031471254,8|0,0:0|0:0,0:0:0:0:
317,41,118026,2,0,P|283:18|242:21,1,82.5000031471254,8|0,0:0|0:0,0:0:0:0:
73,144,118489,2,0,P|95:178|90:224,1,82.5000031471254,8|0,0:0|0:0,0:0:0:0:
244,368,118952,6,0,L|284:184,1,181.500005538941,4|0,0:0|0:0,0:0:0:0:
304,108,119415,1,8,0:0:0:0:
360,268,119646,1,0,0:0:0:0:
296,80,119878,6,0,P|248:68|180:88,1,121.000003692627,2|0,0:0|0:0,0:0:0:0:
96,280,120341,1,8,0:0:0:0:
32,148,120572,1,0,0:0:0:0:
212,220,120804,2,0,B|264:236|264:236|384:180,1,181.500005538941,2|0,0:0|0:0,0:0:0:0:
452,140,121267,1,8,0:0:0:0:
288,92,121498,1,0,0:0:0:0:
408,264,121730,6,0,L|384:384,1,121.000003692627,2|0,0:0|0:0,0:0:0:0:
144,320,122193,1,8,0:0:0:0:
304,264,122424,1,0,0:0:0:0:
60,208,122656,6,0,P|32:144|136:12,1,242.000007385254,2|8,0:0|0:0,0:0:0:0:
288,52,123351,2,0,B|376:72|376:72|512:0,1,242.000007385254
460,252,124045,1,8,0:0:0:0:
380,104,124277,1,0,0:0:0:0:
268,316,124508,6,0,L|388:276,1,121.000003692627,2|2,0:0|0:0,0:0:0:0:
136,220,124971,1,8,0:0:0:0:
382,162,125203,1,8,0:0:0:0:
136,220,125434,2,0,L|16:180,1,121.000003692627,2|2,0:0|0:0,0:0:0:0:
267,123,125897,1,8,0:0:0:0:
21,65,126129,1,8,0:0:0:0:
88,304,126360,6,0,P|152:316|230:236,1,181.500005538941,4|0,0:0|0:0,0:0:0:0:
200,160,126823,1,8,0:0:0:0:
316,284,127055,1,0,0:0:0:0:
336,40,127286,2,0,L|360:164,1,121.000003692627,2|0,0:0|0:0,0:0:0:0:
460,340,127749,2,0,L|484:216,1,121.000003692627,8|0,0:0|0:0,0:0:0:0:
336,40,128212,6,0,B|248:5|248:74|160:40,1,181.500005538941,2|0,0:0|0:0,0:0:0:0:
80,8,128675,1,8,0:0:0:0:
140,168,128907,1,0,0:0:0:0:
296,108,129138,2,0,L|420:136,1,121.000003692627,2|0,0:0|0:0,0:0:0:0:
500,376,129601,1,8,0:0:0:0:
324,336,129833,1,0,0:0:0:0:
496,188,130065,6,0,P|508:112|429:38,1,181.500005538941,2|0,0:0|0:0,0:0:0:0:
367,83,130528,1,8,0:0:0:0:
276,272,130759,2,0,P|176:292|84:192,1,242.000007385254
300,104,131454,1,8,0:0:0:0:
140,48,131685,1,0,0:0:0:0:
192,220,131917,5,2,0:0:0:0:
272,0,132148,1,8,0:0:0:0:
312,168,132380,1,2,0:0:0:0:
152,112,132611,1,2,0:0:0:0:
380,60,132843,5,8,0:0:0:0:
328,296,133074,1,2,0:0:0:0:
152,112,133306,5,8,0:0:0:0:
428,188,133537,1,8,0:0:0:0:
152,112,133769,5,2,0:0:0:0:
332,116,134000,1,2,0:0:0:0:
328,296,134232,1,8,0:0:0:0:
148,292,134463,1,0,0:0:0:0:
242,114,134695,1,0,0:0:0:0:
428,188,134926,1,2,0:0:0:0:
150,202,135158,1,8,1:2:0:0:
332,116,135389,1,0,0:0:0:0:
238,294,135621,6,0,P|228:235|261:175,1,121.000003692627,2|2,0:0|0:0,0:0:0:0:
437,73,136084,2,0,P|390:111|322:112,1,121.000003692627,8|0,0:0|0:0,0:0:0:0:
147,12,136547,2,0,P|203:32|238:91,1,121.000003692627,0|2,0:0|0:0,0:0:0:0:
119,355,137010,1,8,1:2:0:0:
334,251,137242,1,0,0:0:0:0:
136,116,137473,6,0,L|11:120,2,121.000003692627,2|2|8,0:0|0:0|0:0,0:0:0:0:
309,55,138168,2,0,L|434:59,2,121.000003692627,0|0|2,0:0|0:0|0:0,0:0:0:0:
102,296,138862,5,8,1:2:0:0:
136,116,139094,1,2,0:0:0:0:
102,296,139325,1,2,0:0:0:0:
309,55,139557,5,8,1:2:0:0:
136,116,139788,1,2,0:0:0:0:
309,55,140020,1,2,0:0:0:0:
102,296,140251,5,8,1:2:0:0:
205,175,140483,1,0,0:0:0:0:
309,55,140714,1,0,0:0:0:0:
102,296,140946,5,8,1:2:0:0:
274,234,141177,5,2,0:0:0:0:
137,115,141409,1,2,0:0:0:0:
195,286,141640,1,8,0:0:0:0:
58,167,141872,1,0,0:0:0:0:
274,234,142103,1,0,0:0:0:0:
225,14,142335,1,2,0:0:0:0:
195,286,142566,1,8,1:2:0:0:
293,78,142798,1,0,0:0:0:0:
424,266,143029,6,0,L|415:388,1,121.000003692627,2|2,0:0|0:0,0:0:0:0:
195,286,143493,2,0,L|93:217,1,121.000003692627,8|0,0:0|0:0,0:0:0:0:
292,77,143956,2,0,L|402:23,1,121.000003692627,0|2,0:0|0:0,0:0:0:0:
307,273,144419,1,8,1:2:0:0:
137,66,144650,1,2,0:0:0:0:
137,66,144766,1,2,0:0:0:0:
137,66,144882,5,4,0:0:0:0:
204,207,145113,1,0,1:0:0:0:
293,78,145345,1,0,1:0:0:0:
202,251,145576,1,0,1:0:0:0:
93,76,145808,1,0,1:0:0:0:
200,295,146039,1,0,1:0:0:0:
333,92,146271,1,0,1:0:0:0:
198,339,146502,1,0,1:0:0:0:
49,86,146734,1,0,1:0:0:0:
284,259,146965,5,2,1:2:0:0:
135,6,147197,1,2,1:2:0:0:
88,294,147428,1,2,1:2:0:0:
245,49,147660,1,2,1:2:0:0:
199,338,147891,1,2,1:2:0:0:
356,93,148123,1,2,1:2:0:0:
310,382,148354,1,2,1:2:0:0:
40,184,148586,6,0,P|20:128|27:63,1,121.000003692627,4|0,1:0|0:0,0:0:0:0:
272,88,149049,2,0,L|152:72,1,121.000003692627,8|0,0:0|0:0,0:0:0:0:
196,244,149512,1,2,0:0:0:0:
292,96,149743,1,2,0:0:0:0:
25,67,149975,1,12,0:0:0:0:
196,244,150207,2,0,P|315:222|436:220,1,242.000007385254,2|0,0:0|0:0,0:0:0:0:
448,52,150901,5,8,0:0:0:0:
456,224,151133,1,0,0:0:0:0:
316,128,151364,2,0,P|323:75|304:8,1,121.000003692627,2|2,0:0|0:0,0:0:0:0:
160,100,151827,2,0,P|152:152|172:220,1,121.000003692627,4|0,1:2|0:0,0:0:0:0:
340,288,152290,5,2,0:0:0:0:
180,236,152522,1,0,0:0:0:0:
320,148,152753,2,0,L|440:140,1,121.000003692627,8|0,0:0|0:0,0:0:0:0:
305,11,153216,2,0,L|185:19,1,121.000003692627,2|2,0:0|0:0,0:0:0:0:
88,176,153679,2,0,P|68:108|80:56,1,121.000003692627,8|0,0:0|0:0,0:0:0:0:
224,108,154142,5,2,0:0:0:0:
208,280,154374,1,0,0:0:0:0:
364,200,154605,1,12,0:0:0:0:
88,176,154837,1,12,0:0:0:0:
204,300,155068,1,2,0:0:0:0:
228,92,155300,1,0,0:0:0:0:
72,176,155531,1,12,0:0:0:0:
380,204,155763,1,12,0:0:0:0:
200,324,155994,6,0,L|68:336,1,121.000003692627,4|0,1:0|0:0,0:0:0:0:
44,56,156457,2,0,P|40:116|56:188,1,121.000003692627,8|0,0:0|0:0,0:0:0:0:
216,240,156921,1,2,0:0:0:0:
212,68,157152,1,2,0:0:0:0:
52,196,157384,1,12,0:0:0:0:
216,260,157615,2,0,B|308:244|308:244|360:256|360:256|460:236,1,242.000007385254,2|0,0:0|0:0,0:0:0:0:
484,28,158310,5,8,0:0:0:0:
360,144,158541,1,0,0:0:0:0:
212,80,158773,2,0,L|80:96,1,121.000003692627,2|2,0:0|0:0,0:0:0:0:
94,207,159236,2,0,P|111:150|91:94,1,121.000003692627,8|0,0:0|0:0,0:0:0:0:
80,232,159699,5,4,1:0:0:0:
248,160,159930,1,12,0:0:0:0:
226,341,160162,1,2,0:0:0:0:
143,147,160393,5,4,1:0:0:0:
121,328,160625,1,12,0:0:0:0:
289,256,160856,1,2,0:0:0:0:
81,167,161088,5,4,1:0:0:0:
303,193,161319,1,12,0:0:0:0:
169,372,161551,1,2,0:0:0:0:
200,116,161782,5,4,1:0:0:0:
65,295,162014,1,12,0:0:0:0:
288,321,162245,1,2,0:0:0:0:
24,228,162477,5,4,1:0:0:0:
60,16,162708,1,12,0:0:0:0:
324,44,162940,1,2,0:0:0:0:
304,256,163171,1,2,0:0:0:0:
172,136,163403,6,0,L|296:144,1,121.000003692627,4|0,0:0|0:0,0:0:0:0:
424,224,163866,2,0,P|428:283|408:340,1,121.000003692627,8|0,0:0|0:0,0:0:0:0:
180,296,164329,2,0,P|176:237|196:180,1,121.000003692627,2|0,0:0|0:0,0:0:0:0:
348,72,164792,1,8,0:0:0:0:
328,260,165024,1,0,0:0:0:0:
232,92,165255,6,0,P|168:100|120:132,1,121.000003692627,2|0,0:0|0:0,0:0:0:0:
52,292,165718,2,0,P|32:240|36:176,1,121.000003692627,8|0,0:0|0:0,0:0:0:0:
216,232,166181,2,0,P|205:291|170:340,1,121.000003692627,2|0,0:0|0:0,0:0:0:0:
128,124,166644,1,8,0:0:0:0:
340,184,166876,1,0,0:0:0:0:
204,288,167107,6,0,P|183:231|188:171,1,121.000003692627,2|0,0:0|0:0,0:0:0:0:
385,75,167570,2,0,P|374:134|339:183,1,121.000003692627,8|0,0:0|0:0,0:0:0:0:
144,48,168033,2,0,L|264:60,1,121.000003692627,2|0,0:0|0:0,0:0:0:0:
360,196,168496,5,8,0:0:0:0:
156,256,168728,1,0,0:0:0:0:
256,80,168959,1,2,0:0:0:0:
304,284,169191,5,8,0:0:0:0:
160,112,169422,1,2,0:0:0:0:
368,184,169654,1,2,0:0:0:0:
216,336,169885,5,8,0:0:0:0:
344,104,170117,1,2,0:0:0:0:
324,296,170349,1,8,0:0:0:0:
100,184,170580,1,8,0:0:0:0:
344,104,170812,6,0,P|348:164|328:220,1,121.000003692627,4|0,0:0|0:0,0:0:0:0:
100,184,171275,2,0,P|96:124|116:68,1,121.000003692627,8|0,0:0|0:0,0:0:0:0:
248,308,171738,2,0,L|128:276,1,121.000003692627,2|0,0:0|0:0,0:0:0:0:
220,136,172201,1,8,0:0:0:0:
256,332,172432,1,0,0:0:0:0:
327,220,172664,6,0,L|448:212,1,121.000003692627,2|0,0:0|0:0,0:0:0:0:
448,76,173127,2,0,L|327:68,1,121.000003692627,8|0,0:0|0:0,0:0:0:0:
200,180,173590,2,0,P|196:240|216:300,1,121.000003692627,2|0,0:0|0:0,0:0:0:0:
360,344,174053,1,8,0:0:0:0:
368,104,174284,1,0,0:0:0:0:
200,72,174516,6,0,P|122:108|104:252,1,242.000007385254,4|8,0:0|0:0,0:0:0:0:
312,312,175210,2,0,P|389:275|408:132,1,242.000007385254,2|2,0:0|0:0,0:0:0:0:
200,180,175905,5,8,0:0:0:0:
312,204,176136,1,2,0:0:0:0:
132,240,176368,5,8,0:0:0:0:
380,144,176599,1,2,0:0:0:0:
256,320,176831,5,8,0:0:0:0:
176,96,177063,1,2,0:0:0:0:
372,264,177294,5,8,0:0:0:0:
96,156,177526,1,8,0:0:0:0:
332,48,177757,5,8,0:0:0:0:
256,344,177989,1,8,0:0:0:0:
331,48,178220,6,0,P|420:51|476:119,1,181.500005538941,4|0,0:0|0:0,0:0:0:0:
444,196,178683,1,8,0:0:0:0:
292,119,178915,1,0,0:0:0:0:
326,332,179146,2,0,B|386:352|386:352|442:332,1,121.000003692627,2|0,0:0|0:0,0:0:0:0:
477,119,179609,1,8,0:0:0:0:
384,260,179841,1,0,0:0:0:0:
272,80,180072,6,0,P|200:72|112:144,1,181.500005538941,2|0,0:0|0:0,0:0:0:0:
100,216,180535,1,8,0:0:0:0:
32,60,180767,1,0,0:0:0:0:
240,156,180998,2,0,B|296:176|296:176|372:160,1,121.000003692627,2|0,0:0|0:0,0:0:0:0:
496,8,181461,1,8,0:0:0:0:
328,36,181693,1,0,0:0:0:0:
480,236,181924,6,0,P|480:292|448:352,1,121.000003692627,2|0,0:0|0:0,0:0:0:0:
200,264,182387,1,8,0:0:0:0:
364,216,182619,1,0,0:0:0:0:
232,384,182850,1,2,0:0:0:0:
174,187,183082,1,0,0:0:0:0:
417,114,183313,1,8,0:0:0:0:
417,114,183545,6,0,P|336:136|224:36,1,242.000007385254
148,256,184240,1,8,0:0:0:0:
80,100,184471,1,0,0:0:0:0:
232,176,184703,1,2,0:0:0:0:
24,304,184934,1,8,0:0:0:0:
88,64,185166,2,0,L|124:180,1,121.000003692627,12|0,0:2|0:0,0:0:0:0:
192,372,185629,6,0,P|272:376|344:308,1,181.500005538941,2|0,0:0|0:0,0:0:0:0:
360,228,186092,1,8,0:0:0:0:
448,384,186323,1,0,0:0:0:0:
239,268,186555,2,0,P|219:204|235:140,1,121.000003692627,2|0,0:0|0:0,0:0:0:0:
424,84,187018,1,8,0:0:0:0:
268,20,187249,1,0,0:0:0:0:
348,216,187481,6,0,B|436:232|436:232|512:176,1,181.500005538941,2|0,0:0|0:0,0:0:0:0:
496,92,187944,1,8,0:0:0:0:
444,264,188175,1,0,0:0:0:0:
316,140,188407,2,0,L|197:116,1,121.000003692627,2|0,0:0|0:0,0:0:0:0:
96,332,188870,1,8,0:0:0:0:
20,180,189101,1,0,0:0:0:0:
256,244,189333,5,2,0:0:0:0:
168,12,189564,1,8,0:0:0:0:
228,172,189796,1,2,0:0:0:0:
388,112,190027,1,0,0:0:0:0:
152,200,190259,5,8,0:0:0:0:
312,260,190490,1,2,0:0:0:0:
372,100,190722,1,0,0:0:0:0:
284,332,190953,1,8,0:0:0:0:
228,172,191185,1,2,0:0:0:0:
392,212,191417,1,0,0:0:0:0:
144,304,191648,6,0,L|24:276,1,121.000003692627,8|0,0:0|0:0,0:0:0:0:
124,136,192111,1,2,0:0:0:0:
156,384,192343,1,8,0:0:0:0:
256,248,192574,1,2,0:0:0:0:
356,384,192806,1,2,0:0:0:0:
388,136,193037,6,0,B|373:76|373:76|323:128|362:224,1,220,4|8,0:0|0:0,0:0:0:0:
379,344,193732,1,0,0:3:0:0:
498,328,193963,1,2,0:0:0:0:
483,208,194195,1,0,0:3:0:0:
362,224,194426,2,0,L|246:242,1,110,8|0,0:0|0:0,0:0:0:0:
170,152,194889,6,0,P|226:246|181:340,1,220,2|8,0:0|0:0,0:0:0:0:
65,359,195584,1,0,0:0:0:0:
117,250,195815,1,2,0:0:0:0:
65,140,196047,1,0,0:0:0:0:
117,31,196278,1,8,0:0:0:0:
221,202,196510,1,0,0:0:0:0:
221,202,196741,6,0,B|298:205|298:205|355:169|355:169|432:171,1,220,2|8,0:0|0:0,0:0:0:0:
472,336,197436,2,0,B|395:333|395:333|338:369|338:369|261:367,1,220,2|2,0:0|0:0,0:0:0:0:
94,297,198131,1,8,0:0:0:0:
94,297,198594,5,2,0:0:0:0:
79,176,198825,1,0,0:0:0:0:
199,162,199057,1,8,0:0:0:0:
214,282,199288,1,0,0:0:0:0:
94,297,199520,5,2,0:0:0:0:
178,52,199751,1,8,0:0:0:0:
347,247,199983,1,8,0:0:0:0:
231,354,200214,1,0,0:0:0:0:
308,158,200446,6,0,P|365:152|414:176,1,110,2|0,0:0|0:0,0:0:0:0:
512,76,200909,2,0,P|455:70|406:94,1,110,8|0,0:0|0:0,0:0:0:0:
308,158,201372,1,2,0:0:0:0:
194,113,201603,1,0,0:0:0:0:
238,0,201835,1,8,0:0:0:0:
350,44,202066,1,0,0:0:0:0:
204,229,202298,5,2,0:0:0:0:
195,260,202761,1,8,0:0:0:0:
187,292,203224,1,2,0:0:0:0:
179,323,203687,1,8,0:0:0:0:
311,280,203919,1,2,0:0:0:0:
419,356,204150,5,2,0:0:0:0:
256,192,204382,12,4,207854,0:0:0:0:
