osu file format v14

[General]
AudioFilename: audio.mp3
AudioLeadIn: 0
PreviewTime: -1
Countdown: 0
SampleSet: Soft
StackLeniency: 0.7
Mode: 0
LetterboxInBreaks: 0
WidescreenStoryboard: 1

[Editor]
Bookmarks: 11580,98580,104035,169080
DistanceSpacing: 0.2
BeatDivisor: 4
GridSize: 4
TimelineZoom: 1

[Metadata]
Title:Me Nikes ft. Sef
TitleUnicode:Me Nikes ft. Sef
Artist:The Opposites
ArtistUnicode:The Opposites
Creator:Kyshiro
Version:Another
Source:
Tags:dutch rap gladiool ayu
BeatmapID:1522927
BeatmapSetID:712524

[Difficulty]
HPDrainRate:5.7
CircleSize:3.9
OverallDifficulty:8.2
ApproachRate:9.2
SliderMultiplier:2.3
SliderTickRate:1

[Events]
//Background and Video events
0,0,"5833104-nike-shoe-wallpaper.jpg",0,0
//Break Periods
//Storyboard Layer 0 (Background)
//Storyboard Layer 1 (Fail)
//Storyboard Layer 2 (Pass)
//Storyboard Layer 3 (Foreground)
//Storyboard Sound Samples

[TimingPoints]
8035,545.454545454546,4,2,0,60,1,0
47307,-83.3333333333333,4,2,0,60,0,1
64762,-100,4,2,0,60,0,0
99671,-83.3333333333333,4,2,0,60,0,1
116853,-100,4,2,0,60,0,0

[Colours]
Combo1 : 251,237,162
Combo2 : 179,238,164
Combo3 : 170,208,255
Combo4 : 251,183,193

[HitObjects]
38,151,11580,5,0,0:0:0:0:
35,173,11853,1,0,0:0:0:0:
33,195,12125,2,0,L|90:185,1,57.5
187,126,12398,6,0,P|237:154|315:166,1,115
419,151,12807,1,0,0:0:0:0:
357,17,12944,2,0,L|351:96,1,57.5
369,303,13216,2,0,L|364:245,1,57.5
271,161,13489,2,0,P|172:166|121:201,1,115
159,171,14035,2,0,P|141:121|141:102,1,57.5
87,246,14307,2,0,P|81:274|68:299,1,57.5
189,353,14580,6,0,L|333:338,1,115
438,295,14989,1,0,0:0:0:0:
342,169,15125,2,0,L|335:250,2,57.5
474,123,15535,2,0,P|489:82|492:52,1,57.5
313,42,15807,2,0,P|341:47|367:59,1,57.5
232,137,16080,1,0,0:0:0:0:
164,41,16216,1,0,0:0:0:0:
347,142,16353,1,0,0:0:0:0:
143,180,16489,2,0,L|70:178,1,57.5
263,279,16762,6,0,P|321:257|401:246,1,115
490,256,17171,1,0,0:0:0:0:
308,341,17307,2,0,P|250:319|170:308,1,115
81,318,17716,1,0,0:0:0:0:
216,195,17853,2,0,P|260:183|289:168,1,57.5
70,136,18125,2,0,P|26:124|-3:109,1,57.5
169,22,18398,2,0,L|173:101,1,57.5
297,186,18671,1,0,0:0:0:0:
296,70,18807,1,0,0:0:0:0:
177,191,18944,6,0,L|170:266,1,57.5
375,208,19216,2,0,P|332:191|298:184,1,57.5
287,342,19489,2,0,L|439:334,1,115
496,255,19898,1,0,0:0:0:0:
411,121,20035,2,0,L|402:189,1,57.5
279,81,20307,2,0,L|271:23,1,57.5
193,187,20580,1,0,0:0:0:0:
101,92,20716,1,0,0:0:0:0:
307,173,20853,2,0,P|319:227|317:246,1,57.5
107,314,21125,6,0,P|79:237|77:194,1,115
118,73,21535,1,0,0:0:0:0:
215,272,21671,2,0,L|212:341,1,57.5
302,156,21944,2,0,L|299:98,1,57.5
454,201,22216,2,0,P|459:286|449:344,1,115
444,340,22762,1,0,0:0:0:0:
270,223,22898,1,0,0:0:0:0:
377,232,23035,1,0,0:0:0:0:
191,316,23171,1,0,0:0:0:0:
116,208,23307,6,0,P|99:173|91:137,1,57.5
248,60,23580,2,0,P|239:87|225:112,1,57.5
70,32,23853,2,0,L|145:43,1,57.5
329,111,24125,1,0,0:0:0:0:
203,202,24262,1,0,0:0:0:0:
349,238,24398,2,0,L|494:225,1,115
