osu file format v14

[General]
AudioFilename: audio.mp3
AudioLeadIn: 0
PreviewTime: 79100
Countdown: 1
SampleSet: None
StackLeniency: 0.7
Mode: 0
LetterboxInBreaks: 0
WidescreenStoryboard: 1

[Editor]
DistanceSpacing: 1.2
BeatDivisor: 4
GridSize: 8
TimelineZoom: 1.6

[Metadata]
Title:You're Gonna Go Far, Kid (Speed Up Ver.)
TitleUnicode:You're Gonna Go Far, Kid (Speed Up Ver.)
Artist:The Offspring
ArtistUnicode:The Offspring
Creator:LordNegus
Version:Update
Source:
Tags:
BeatmapID:1899301
BeatmapSetID:838034

[Difficulty]
HPDrainRate:6
CircleSize:4
OverallDifficulty:7
ApproachRate:9
SliderMultiplier:1.4
SliderTickRate:1

[Events]
//Background and Video events
0,0,"Try 2.png",0,0
//Break Periods
//Storyboard Layer 0 (Background)
//Storyboard Layer 1 (Fail)
//Storyboard Layer 2 (Pass)
//Storyboard Layer 3 (Foreground)
//Storyboard Sound Samples

[TimingPoints]
13817,340.136054421769,4,3,0,50,1,0
24681,339.943342776204,4,3,0,50,1,0
30156,-133.333333333333,4,3,0,50,0,0
39638,-50,4,3,0,50,0,0
40488,-50,4,3,0,50,0,0
48307,-100,4,3,0,50,0,0
48647,-50,4,3,0,50,0,0
53066,-100,4,3,0,50,0,0
69407,-133.333333333333,4,3,0,50,0,0
78930,-50,4,3,0,50,0,0
79921,-50,4,3,0,50,0,0
91309,338.983050847458,4,3,0,50,1,0
92664,-66.6666666666667,4,3,0,50,0,0
103512,-100,4,3,0,50,0,0
113003,-50,4,3,0,50,0,0
114359,339.943342776204,4,3,0,50,1,0
114359,-50,4,3,0,50,0,0
125237,338.983050847458,4,3,0,50,1,0
125237,-50,4,3,0,50,0,0
128626,-100,4,3,0,50,0,0
129135,-50,4,3,0,50,0,0
132525,-100,4,3,0,50,0,0
132864,-50,4,3,0,50,0,0
136084,342.857142857143,4,3,0,50,1,0
137112,-50,4,3,0,50,0,0

[Colours]
Combo1 : 128,0,0
Combo2 : 255,0,0
Combo3 : 255,128,0
Combo4 : 192,192,192

[HitObjects]
256,192,12116,8,0,13476,0:0:0:0:
350,152,13817,5,0,0:0:0:0:
257,232,13987,1,0,0:0:0:0:
249,97,14157,2,0,P|277:58|296:55,1,70
479,107,14497,2,0,P|489:152|474:175,1,70
296,196,14837,37,0,0:0:0:0:
175,217,15007,1,0,0:0:0:0:
230,324,15177,2,0,P|262:303|277:270,1,70
93,254,15517,1,0,0:0:0:0:
134,138,15687,1,0,0:0:0:0:
236,71,15857,2,0,P|257:107|254:146,1,70
185,308,16197,5,0,0:0:0:0:
60,328,16368,1,0,0:0:0:0:
42,203,16538,2,0,P|50:158|79:133,1,70
113,194,16878,2,0,P|157:201|182:230,1,70
122,267,17218,2,0,P|129:311|156:336,1,70
328,317,17558,37,0,0:0:0:0:
250,219,17728,1,0,0:0:0:0:
208,38,17898,2,0,P|173:40|145:63,1,70
147,249,18238,1,0,0:0:0:0:
208,139,18408,1,0,0:0:0:0:
263,251,18578,2,0,P|320:210|360:153,1,140
208,38,19089,6,0,P|166:44|142:65,2,70
395,82,19599,1,0,0:0:0:0:
435,200,19769,1,0,0:0:0:0:
331,274,19939,2,0,P|304:250|287:213,1,70
317,35,20279,37,0,0:0:0:0:
349,154,20449,1,0,0:0:0:0:
243,88,20619,2,0,P|208:90|175:114,1,70
104,279,20959,1,0,0:0:0:0:
211,220,21129,1,0,0:0:0:0:
84,197,21299,2,0,P|50:210|26:263,1,70
184,353,21640,5,0,0:0:0:0:
150,230,21810,1,0,0:0:0:0:
196,116,21980,38,0,P|236:133|256:165,1,70
303,201,22320,2,0,P|324:163|317:125,1,70
284,78,22660,2,0,P|325:64|360:78,1,70
387,260,23000,5,0,0:0:0:0:
417,139,23170,2,0,P|458:147|480:181,2,70
272,256,23680,1,0,0:0:0:0:
228,141,23851,1,0,0:0:0:0:
113,77,24021,2,0,P|120:124|162:211,1,140
281,353,24531,6,0,P|308:332|324:301,1,70
249,96,24850,1,0,0:0:0:0:
191,254,25020,1,0,0:0:0:0:
107,124,25190,2,0,P|74:159|62:200,1,70
171,332,25530,1,0,0:0:0:0:
161,180,25700,6,0,L|240:154,1,70
444,177,26040,2,0,L|365:151,1,70
174,245,26380,2,0,L|200:324,1,70
409,250,26720,2,0,L|478:122,1,140
303,60,27230,38,0,P|286:90|292:124,2,70
414,113,27740,1,0,0:0:0:0:
326,200,27910,1,0,0:0:0:0:
204,200,28080,2,0,P|173:184|155:154,1,70
337,132,28420,5,0,0:0:0:0:
272,237,28590,1,0,0:0:0:0:
154,269,28760,2,0,P|119:267|91:247,1,70
171,71,29100,37,0,0:0:0:0:
191,56,29185,1,0,0:0:0:0:
216,49,29270,1,0,0:0:0:0:
243,50,29355,1,0,0:0:0:0:
263,53,29440,2,0,P|294:69|324:105,1,70
401,299,29780,5,0,0:0:0:0:
389,321,29865,1,0,0:0:0:0:
370,339,29950,1,0,0:0:0:0:
346,350,30035,1,0,0:0:0:0:
327,356,30120,2,0,P|291:355|248:336,1,70
66,238,30630,5,0,0:0:0:0:
126,305,30799,2,0,B|190:256|97:222|243:66,1,262.500010013581
309,18,32159,6,0,P|334:64|349:114,1,105.000004005432
298,281,32669,1,0,0:0:0:0:
320,211,32839,2,0,P|285:192|252:137,1,105.000004005432
136,22,33349,1,0,0:0:0:0:
224,26,33519,2,0,B|193:155|19:96|67:216,1,262.500010013581
133,342,34879,38,0,P|207:358|278:315,1,157.500006008148,0|0,0:0|2:0,0:0:0:0:
210,271,35559,2,0,P|241:250|322:252,1,105.000004005432
463,258,36069,1,0,0:0:0:0:
386,254,36239,2,0,B|393:130|253:100,1,210.000008010865
186,70,37428,6,0,P|152:85|139:113,2,52.5000020027161
216,156,37938,2,0,P|236:172|264:181,1,52.5000020027161
386,190,38278,2,0,P|357:132|281:61,1,157.500006008148
143,96,38958,2,0,P|171:152|245:221,1,157.500006008148
460,305,39638,6,0,L|493:239,1,70,0|0,0:0|2:0,0:0:0:0:
209,24,39978,2,0,L|197:94,1,70
420,360,40318,2,0,L|345:349,1,70
159,123,40658,5,0,0:0:0:0:
187,101,40742,1,0,0:0:0:0:
217,85,40827,1,0,0:0:0:0:
251,72,40912,1,0,0:0:0:0:
284,65,40999,2,0,P|352:68|418:98,1,140
237,153,41338,38,0,P|184:198|158:262,1,140,0|0,0:3|0:3,0:3:0:0:
92,90,41678,2,0,P|144:43|206:12,1,140,0|0,0:3|0:3,0:3:0:0:
93,161,42018,2,0,P|81:229|97:297,2,140
227,338,42528,1,0,0:0:0:0:
338,139,42697,5,0,0:0:0:0:
319,121,42782,1,0,0:0:0:0:
298,108,42867,2,0,P|265:95|157:121,1,140
138,289,43207,37,0,0:0:0:0:
123,264,43292,1,0,0:0:0:0:
117,239,43377,2,0,P|115:204|173:109,1,140
352,222,43717,5,0,0:0:0:0:
210,153,43887,1,0,0:0:0:0:
284,294,44057,1,0,0:0:0:0:
292,135,44227,2,0,P|269:108|160:68,1,140
53,255,44567,37,0,0:0:0:0:
56,281,44652,1,0,0:0:0:0:
67,303,44737,2,0,P|103:327|209:328,1,140
359,180,45077,5,0,0:0:0:0:
168,81,45247,1,0,0:0:0:0:
320,234,45417,1,0,0:0:0:0:
226,37,45587,2,0,P|183:9|103:52,1,140
120,295,45927,37,0,0:0:0:0:
151,309,46011,1,0,0:0:0:0:
185,318,46096,1,0,0:0:0:0:
220,322,46181,1,0,0:0:0:0:
255,321,46267,2,0,P|328:300|394:252,1,140
245,251,46607,6,0,P|297:201|323:113,1,140
207,188,46947,2,0,P|218:154|190:51,1,140
315,27,47287,2,0,P|366:73|398:135,2,140
108,101,47797,2,0,P|97:134|135:231,1,140
299,144,48137,1,0,0:0:0:0:
259,282,48307,2,0,P|221:275|115:212,1,140
254,47,48816,37,0,0:0:0:0:
288,43,48900,1,0,0:0:0:0:
323,47,48986,2,0,P|360:53|466:116,1,140
264,207,49326,5,0,0:0:0:0:
183,300,49496,1,0,0:0:0:0:
263,133,49666,1,0,0:0:0:0:
263,318,49836,2,0,P|326:330|407:315,1,140
481,149,50176,1,0,0:0:0:0:
348,232,50346,1,0,0:0:0:0:
439,65,50516,37,0,0:0:0:0:
404,73,50600,1,0,0:0:0:0:
374,90,50686,2,0,P|341:109|267:208,1,140
156,238,51196,6,0,P|190:240|280:178,1,140
181,90,51536,2,0,P|211:105|279:197,1,140
223,336,51876,5,0,0:0:0:0:
266,254,52046,1,0,0:0:0:0:
150,286,52216,1,0,0:0:0:0:
225,193,52386,1,0,0:0:0:0:
81,246,52556,1,0,0:0:0:0:
183,132,52726,1,0,0:0:0:0:
13,204,52896,1,0,0:0:0:0:
147,70,53066,2,0,P|202:64|221:73,1,70
288,163,53406,5,0,0:0:0:0:
218,261,53576,1,0,0:0:0:0:
208,139,53746,1,0,0:0:0:0:
329,100,53916,2,0,P|358:134|364:160,1,70
289,254,54256,37,0,0:0:0:0:
167,258,54426,1,0,0:0:0:0:
120,143,54596,2,0,P|131:110|160:85,2,70
167,258,55105,1,0,0:0:0:0:
277,321,55275,2,0,P|311:310|336:287,1,70
354,134,55615,1,0,0:0:0:0:
261,218,55785,1,0,0:0:0:0:
167,133,55955,6,0,P|176:87|204:63,1,70
132,192,56295,2,0,P|101:158|99:119,1,70
184,243,56635,2,0,P|146:263|109:255,1,70
271,310,56975,37,0,0:0:0:0:
151,335,57145,1,0,0:0:0:0:
46,272,57315,2,0,P|50:234|72:201,1,70
125,65,57655,2,0,P|90:67|64:89,1,70
132,229,57995,2,0,P|188:270|255:291,1,140
400,224,58505,6,0,P|383:195|347:172,1,70
203,192,58845,1,0,0:0:0:0:
316,244,59015,1,0,0:0:0:0:
277,121,59185,2,0,P|256:89|222:66,1,70
78,60,59525,1,0,0:0:0:0:
153,163,59695,1,0,0:0:0:0:
277,121,59865,2,0,P|315:113|356:127,1,70
454,230,60205,37,0,0:0:0:0:
368,323,60375,1,0,0:0:0:0:
246,306,60545,2,0,P|229:238|233:218,1,70
355,145,60884,1,0,0:0:0:0:
333,26,61054,1,0,0:0:0:0:
213,8,61224,1,0,0:0:0:0:
109,67,61394,6,0,P|81:91|62:120,1,70
159,198,61734,2,0,P|162:163|159:127,1,70
48,177,62074,2,0,P|52:211|62:244,1,70
150,281,62414,1,0,0:0:0:0:
255,217,62754,38,0,P|268:249|261:283,2,70
160,94,63264,1,0,0:0:0:0:
285,115,63434,2,0,P|329:169|348:238,1,140
404,170,63944,6,0,P|424:142|431:108,1,70
259,35,64284,1,0,0:0:0:0:
284,187,64454,1,0,0:0:0:0:
184,71,64624,2,0,P|151:106|139:147,1,70
201,304,64964,38,0,L|274:266,1,70
142,125,65304,2,0,L|63:99,1,70
303,211,65644,2,0,L|331:130,1,70
142,125,65984,2,0,L|73:253,1,140
199,289,66664,6,0,P|174:311|140:312,2,70
313,103,67173,1,0,0:0:0:0:
269,253,67343,1,0,0:0:0:0:
409,190,67513,2,0,P|401:154|371:127,1,70
190,143,67853,37,0,0:0:0:0:
338,190,68023,1,0,0:0:0:0:
276,48,68193,2,0,P|241:49|214:71,2,70
406,184,68703,2,0,P|405:218|383:244,1,70
188,149,69043,5,0,0:0:0:0:
218,130,69128,1,0,0:0:0:0:
251,118,69213,1,0,0:0:0:0:
285,116,69298,1,0,0:0:0:0:
320,122,69383,2,0,P|371:122|411:99,1,70
434,182,70063,37,0,0:0:0:0:
434,182,70233,2,0,B|307:222|407:358|155:256,1,315.000012016297
72,111,71593,6,0,P|147:92|190:91,1,105.000004005432
266,121,72103,1,0,0:0:0:0:
266,121,72273,2,0,P|292:93|354:74,1,105.000004005432
439,122,72782,1,0,0:0:0:0:
439,122,72952,2,0,B|396:233|322:280|303:119|182:252,1,315.000012016297
86,177,74312,38,0,P|143:127|225:140,1,157.500006008148,0|0,0:0|2:0,0:0:0:0:
242,153,74992,1,0,0:0:0:0:
199,267,75502,1,0,0:0:0:0:
199,267,75672,2,0,B|294:188|401:284,1,210.000008010865
414,153,76862,6,0,P|396:133|363:124,2,52.5000020027161
467,230,77372,2,0,P|479:269|477:289,1,52.5000020027161
281,125,77712,2,0,P|265:177|330:257,1,157.500006008148
360,174,78392,2,0,P|392:194|403:315,1,157.500006008148
210,150,79071,6,0,L|271:116,1,70
152,360,79411,2,0,L|85:382,1,70
307,200,79751,2,0,L|392:181,1,70,0|0,0:0|2:0,0:0:0:0:
207,43,79921,5,0,0:0:0:0:
177,64,80005,1,0,0:0:0:0:
154,89,80090,1,0,0:0:0:0:
133,118,80175,1,0,0:0:0:0:
117,148,80262,2,0,P|102:216|113:284,1,140
322,347,80601,38,0,P|345:281|336:213,1,140,0|0,0:3|0:3,0:3:0:0:
141,114,80941,2,0,P|189:63|249:28,1,140,0|0,0:3|0:3,0:3:0:0:
427,168,81281,2,0,P|439:236|423:304,2,140
253,302,81791,1,0,0:0:0:0:
196,123,81960,5,0,0:0:0:0:
169,121,82045,1,0,0:0:0:0:
145,124,82130,2,0,P|111:135|45:224,1,140
265,234,82470,37,0,0:0:0:0:
266,261,82555,1,0,0:0:0:0:
260,286,82640,2,0,P|245:318|151:376,1,140
215,166,82980,5,0,0:0:0:0:
112,283,83150,1,0,0:0:0:0:
126,126,83320,1,0,0:0:0:0:
13,232,83490,2,0,P|23:163|62:106,1,140
275,49,83830,37,0,0:0:0:0:
300,53,83915,1,0,0:0:0:0:
321,65,84000,2,0,P|349:128|341:196,1,140
249,188,84340,5,0,0:0:0:0:
109,247,84510,1,0,0:0:0:0:
209,130,84680,1,0,0:0:0:0:
67,183,84850,2,0,P|34:239|67:310,1,140
119,90,85190,37,0,0:0:0:0:
150,76,85274,1,0,0:0:0:0:
184,67,85359,1,0,0:0:0:0:
219,63,85444,1,0,0:0:0:0:
254,64,85530,2,0,P|327:85|393:133,1,140
267,307,85870,6,0,P|202:339|111:335,1,140
219,249,86210,2,0,P|183:248|94:188,1,140
197,178,86550,2,0,P|265:190|291:261,1,140
80,296,86890,2,0,P|37:239|33:161,2,140
291,357,87400,2,0,P|269:291|212:254,1,140
198,183,87740,2,0,P|257:196|332:259,1,140
107,127,88079,37,0,0:0:0:0:
141,116,88163,1,0,0:0:0:0:
176,114,88249,2,0,P|213:113|328:157,1,140
428,292,88589,5,0,0:0:0:0:
430,169,88759,1,0,0:0:0:0:
341,255,88929,1,0,0:0:0:0:
338,130,89099,2,0,P|297:80|225:39,1,140
416,20,89439,1,0,0:0:0:0:
414,143,89609,1,0,0:0:0:0:
510,67,89779,37,0,0:0:0:0:
510,102,89863,1,0,0:0:0:0:
501,135,89949,2,0,P|491:171|414:268,1,140
168,267,90460,6,0,P|99:271|40:234,1,140
150,132,90800,2,0,P|143:164|173:275,1,140
236,96,91139,37,0,0:0:0:0:
268,88,91224,1,0,0:0:0:0:
300,92,91309,1,0,0:0:0:0:
324,108,91393,1,0,0:0:0:0:
340,132,91478,1,0,0:0:0:0:
352,152,91563,1,0,0:0:0:0:
360,176,91647,1,0,0:0:0:0:
360,204,91732,1,0,0:0:0:0:
356,228,91817,1,0,0:0:0:0:
332,247,91902,1,0,0:0:0:0:
304,236,91986,5,0,0:0:0:0:
280,188,92071,1,0,0:0:0:0:
240,160,92156,1,0,0:0:0:0:
192,164,92241,1,0,0:0:0:0:
156,200,92325,1,0,0:0:0:0:
160,252,92410,1,0,0:0:0:0:
184,296,92495,1,0,0:0:0:0:
224,324,92580,1,0,0:0:0:0:
276,324,92664,1,0,0:0:0:0:
310,68,92834,38,0,P|262:58|206:76,1,105.000004005432
360,278,93173,2,0,P|383:234|381:175,1,105.000004005432
145,270,93512,2,0,P|181:303|239:317,1,105.000004005432
177,76,93851,2,0,P|144:112|130:170,1,105.000004005432
379,123,94190,2,0,P|343:90|285:76,2,105.000004005432
428,303,94698,5,0,0:0:0:0:
425,327,94783,1,0,0:0:0:0:
410,348,94868,1,0,0:0:0:0:
387,361,94953,1,0,0:0:0:0:
357,368,95037,2,0,P|306:354|275:314,1,105.000004005432
384,123,95376,37,0,0:0:0:0:
341,114,95461,1,0,0:0:0:0:
297,114,95546,1,0,0:0:0:0:
255,124,95631,1,0,0:0:0:0:
215,143,95715,1,0,0:0:0:0:
21,241,95885,5,0,0:0:0:0:
79,273,95970,1,0,0:0:0:0:
143,285,96054,1,0,0:0:0:0:
207,276,96139,1,0,0:0:0:0:
266,247,96224,1,0,0:0:0:0:
447,124,96393,37,0,0:0:0:0:
455,166,96478,1,0,0:0:0:0:
453,209,96563,1,0,0:0:0:0:
442,252,96647,1,0,0:0:0:0:
422,291,96732,1,0,0:0:0:0:
395,324,96817,1,0,0:0:0:0:
360,351,96902,2,0,P|300:367|222:353,1,105.000004005432
400,205,97241,6,0,L|462:208,2,52.5000020027161
397,155,97495,37,0,0:0:0:0:
383,109,97580,1,0,0:0:0:0:
351,74,97664,1,0,0:0:0:0:
312,51,97749,1,0,0:0:0:0:
267,39,97834,1,0,0:0:0:0:
221,43,97919,6,0,L|182:-10,2,52.5000020027161
225,79,98173,37,0,0:0:0:0:
214,124,98258,1,0,0:0:0:0:
193,166,98342,1,0,0:0:0:0:
151,188,98427,1,0,0:0:0:0:
302,348,98597,5,0,0:0:0:0:
340,336,98681,1,0,0:0:0:0:
371,313,98766,1,0,0:0:0:0:
393,280,98851,1,0,0:0:0:0:
402,242,98936,1,0,0:0:0:0:
216,129,99105,37,0,0:0:0:0:
261,120,99190,1,0,0:0:0:0:
313,130,99275,1,0,0:0:0:0:
346,99,99359,1,0,0:0:0:0:
333,51,99444,1,0,0:0:0:0:
295,16,99529,1,0,0:0:0:0:
244,3,99614,1,0,0:0:0:0:
47,114,99783,5,0,0:0:0:0:
43,158,99868,1,0,0:0:0:0:
51,200,99953,1,0,0:0:0:0:
70,240,100037,1,0,0:0:0:0:
99,272,100122,1,0,0:0:0:0:
135,298,100207,1,0,0:0:0:0:
175,313,100292,1,0,0:0:0:0:
220,165,100461,38,0,P|259:117|312:97,1,105.000004005432
419,200,100800,5,0,0:0:0:0:
412,207,100885,1,0,0:0:0:0:
404,213,100970,1,0,0:0:0:0:
398,220,101054,1,0,0:0:0:0:
390,227,101139,1,0,0:0:0:0:
383,233,101224,1,0,0:0:0:0:
376,240,101309,1,0,0:0:0:0:
369,247,101393,1,0,0:0:0:0:
361,255,101478,1,0,0:0:0:0:
356,261,101563,1,0,0:0:0:0:
348,268,101647,1,0,0:0:0:0:
341,275,101732,1,0,0:0:0:0:
334,281,101817,1,0,0:0:0:0:
326,288,101902,1,0,0:0:0:0:
319,295,101986,1,0,0:0:0:0:
226,293,102156,37,0,0:0:0:0:
238,270,102241,1,0,0:0:0:0:
250,246,102325,1,0,0:0:0:0:
263,223,102410,1,0,0:0:0:0:
276,201,102495,1,0,0:0:0:0:
288,177,102580,1,0,0:0:0:0:
302,154,102664,1,0,0:0:0:0:
272,68,102834,5,0,0:0:0:0:
212,119,102919,1,0,0:0:0:0:
150,168,103003,1,0,0:0:0:0:
160,245,103173,6,0,L|304:195,1,105.000004005432
160,45,103512,6,0,P|121:81|110:110,1,70
133,345,103851,2,0,P|173:310|184:281,1,70
229,42,104190,2,0,P|177:40|148:52,1,70
239,186,104698,38,0,P|291:174|308:148,2,70
62,56,105207,1,0,0:0:0:0:
124,135,105376,1,0,0:0:0:0:
279,28,105546,2,0,P|306:48|322:79,1,70
250,217,106054,5,0,0:0:0:0:
84,303,106224,1,0,0:0:0:0:
113,119,106393,1,0,0:0:0:0:
167,300,106563,2,0,P|198:317|244:303,1,70
420,193,106902,2,0,P|420:158|404:127,1,70
210,28,107241,37,0,0:0:0:0:
196,151,107410,1,0,0:0:0:0:
283,23,107580,1,0,0:0:0:0:
266,174,107749,1,0,0:0:0:0:
354,42,107919,1,0,0:0:0:0:
320,225,108089,1,0,0:0:0:0:
423,70,108258,2,0,P|448:94|459:127,1,70
300,101,108597,2,0,P|261:106|219:133,1,70
144,320,108936,2,0,P|93:306|66:278,1,70
180,67,109275,1,0,0:0:0:0:
243,277,109445,1,0,0:0:0:0:
336,80,109614,2,0,P|353:127|342:164,1,70
197,165,110123,5,0,0:0:0:0:
378,212,110292,1,0,0:0:0:0:
224,233,110462,1,0,0:0:0:0:
343,281,110631,2,0,P|372:305|382:340,1,70
264,297,110970,2,0,P|235:321|225:356,1,70
52,288,111309,37,0,0:0:0:0:
223,213,111479,1,0,0:0:0:0:
68,216,111648,1,0,0:0:0:0:
174,153,111818,1,0,0:0:0:0:
84,148,111987,2,0,P|60:118|58:82,1,70
133,90,112326,2,0,P|170:78|223:89,1,70
348,329,113004,22,0,L|406:273,1,70
184,87,113343,2,0,L|183:166,1,70
459,243,113682,2,0,L|459:147,1,70
146,143,114021,5,0,0:0:0:0:
145,182,114106,1,0,0:0:0:0:
160,218,114191,1,0,0:0:0:0:
188,245,114275,1,0,0:0:0:0:
213,264,114359,2,0,P|290:264|350:239,1,140
343,22,114698,6,0,P|293:46|242:125,1,140
350,299,115038,2,0,P|395:272|439:190,1,140
224,173,115378,21,0,0:0:0:0:
280,349,115548,1,0,0:0:0:0:
147,215,115718,2,0,P|151:145|184:84,2,140
346,304,116228,2,0,P|413:288|471:249,1,140
440,160,116738,5,0,0:0:0:0:
255,192,116908,2,0,P|311:147|395:125,2,140
122,367,117418,1,0,0:0:0:0:
177,184,117588,1,0,0:0:0:0:
233,365,117758,2,0,P|276:341|309:259,1,140
88,271,118098,37,0,0:0:0:0:
256,193,118268,2,0,P|308:130|313:74,2,140
37,218,118778,1,0,0:0:0:0:
172,82,118948,1,0,0:0:0:0:
354,19,119118,2,0,P|376:44|381:149,1,140
267,337,119458,5,0,0:0:0:0:
233,358,119543,1,0,0:0:0:0:
193,363,119628,1,0,0:0:0:0:
156,351,119713,1,0,0:0:0:0:
130,325,119798,2,0,P|121:271|164:192,1,140
53,260,120138,38,0,P|76:188|123:134,1,140
15,153,120477,2,0,P|60:94|125:60,1,140
279,212,120817,5,0,0:0:0:0:
279,27,120987,1,0,0:0:0:0:
428,137,121157,38,0,P|455:166|464:263,1,140
261,345,121497,1,0,0:0:0:0:
93,261,121667,2,0,P|90:192|130:136,1,140
391,29,122177,5,0,0:0:0:0:
401,75,122262,1,0,0:0:0:0:
395,122,122347,2,0,P|359:176|294:216,1,140
78,223,122687,37,0,0:0:0:0:
248,145,122857,1,0,0:0:0:0:
64,148,123027,1,0,0:0:0:0:
211,262,123197,2,0,P|241:286|346:286,1,140,0|0,3:0|0:0,0:0:0:0:
402,76,123537,1,0,0:0:0:0:
289,226,123707,1,0,0:0:0:0:
129,127,123877,5,0,0:0:0:0:
131,81,123962,1,0,0:0:0:0:
163,53,124047,2,0,P|198:34|301:15,1,140
373,269,124387,38,0,P|348:293|240:298,1,140
253,110,124727,2,0,P|278:133|298:240,1,140
315,304,125067,5,0,0:0:0:0:
253,308,125152,1,0,0:0:0:0:
204,293,125237,2,0,P|149:236|129:157,1,140
222,199,125575,38,0,P|237:125|289:62,1,140
305,168,125914,2,0,P|369:129|451:126,1,140
286,361,126253,2,0,P|206:352|140:316,1,140
368,275,126592,6,0,L|330:197,1,70
246,231,126762,2,0,L|297:95,1,140
100,201,127101,2,0,P|129:139|219:65,1,140
361,141,127609,37,0,0:0:0:0:
167,244,127779,2,0,L|104:274,1,70
289,99,127948,5,0,0:0:0:0:
234,278,128033,2,0,L|205:341,1,70
208,91,128287,37,0,0:0:0:0:
305,258,128457,1,0,0:0:0:0:
154,139,128626,2,0,P|136:92|146:61,1,70
356,39,128965,5,0,0:0:0:0:
220,169,129135,1,0,0:0:0:0:
399,95,129304,2,0,L|416:162,1,70
241,237,129474,2,0,L|251:307,1,70
424,232,129643,1,0,0:0:0:0:
269,124,129813,1,0,0:0:0:0:
445,53,129982,2,0,P|462:82|465:195,1,140
302,336,130321,37,0,0:0:0:0:
250,315,130406,1,0,0:0:0:0:
208,276,130491,1,0,0:0:0:0:
191,226,130575,1,0,0:0:0:0:
187,173,130660,2,0,P|198:137|262:55,1,140
346,34,130999,6,0,P|348:77|300:170,1,140
308,257,131338,2,0,P|353:231|413:150,1,140
232,32,131677,2,0,L|169:159,1,140
162,376,132016,2,0,P|210:382|281:304,1,140
320,110,132355,1,0,0:0:0:0:
205,259,132525,2,0,P|143:270|57:228,1,140
173,48,133033,37,0,0:0:0:0:
211,11,133118,1,0,0:0:0:0:
264,9,133203,2,0,P|299:13|376:84,1,140
234,248,133542,5,0,0:0:0:0:
125,96,133711,1,0,0:0:0:0:
303,156,133881,1,0,0:0:0:0:
433,290,134050,2,0,P|421:321|320:351,1,140
136,233,134389,1,0,0:0:0:0:
333,190,134559,1,0,0:0:0:0:
181,294,134728,37,0,0:0:0:0:
139,307,134813,1,0,0:0:0:0:
95,296,134898,2,0,P|67:266|96:171,1,140
282,73,135237,6,0,P|253:51|147:50,1,140
78,90,135575,2,0,P|107:112|213:113,1,140
355,39,135914,38,0,L|351:326,1,280
133,334,136426,5,0,0:0:0:0:
285,222,136598,1,0,0:0:0:0:
102,179,136769,1,0,0:0:0:0:
284,58,136941,1,0,0:0:0:0:
72,119,137112,2,0,L|98:184,1,70
312,317,137284,2,0,L|354:248,1,70
218,80,137455,1,0,0:0:0:0:
130,279,137626,2,0,L|97:349,1,70
