osu file format v14

[General]
AudioFilename: audio.mp3
AudioLeadIn: 0
PreviewTime: 124102
Countdown: 0
SampleSet: Soft
StackLeniency: 0.7
Mode: 0
LetterboxInBreaks: 0
WidescreenStoryboard: 0

[Editor]
Bookmarks: 63751,119216,128269
DistanceSpacing: 1
BeatDivisor: 4
GridSize: 8
TimelineZoom: 1.4

[Metadata]
Title:Mo Money Mo Problems (feat. Mase & Puff Daddy)
TitleUnicode:Mo Money Mo Problems (feat. Mase & Puff Daddy)
Artist:The Notorious B.I.G.
ArtistUnicode:The Notorious B.I.G.
Creator:RealMetMuster
Version:Notorious
Source:
Tags:hip hop, rap, funk, funky, biggie, the notorious b.i.g., 1997, smalls, mase, life after death, puffy, puff daddy, diddy, old school, hip hop, flow, east coast, new york, brooklyn, junior mafia, bad boy, records, kelly price, Kloyd, 5840097
BeatmapID:1571584
BeatmapSetID:745468

[Difficulty]
HPDrainRate:5
CircleSize:4
OverallDifficulty:8
ApproachRate:9
SliderMultiplier:2
SliderTickRate:1

[Events]
//Background and Video events
0,0,"notorious-big-puff-daddy.jpg",0,0
//Break Periods
//Storyboard Layer 0 (Background)
//Storyboard Layer 1 (Fail)
//Storyboard Layer 2 (Pass)
//Storyboard Layer 3 (Foreground)
//Storyboard Layer 4 (Overlay)
//Storyboard Sound Samples

[TimingPoints]
18776,574.767698055369,4,2,1,77,1,0
18776,-100,4,2,1,77,0,0
55561,-74.6268656716418,4,2,1,77,0,1
58291,-74.6268656716418,4,2,1,5,0,1
58434,-74.6268656716418,4,2,1,77,0,1
64757,-74.6268656716418,4,2,1,77,0,1
67487,-74.6268656716418,4,2,1,5,0,1
67631,-74.6268656716418,4,2,1,77,0,1
73810,-100,4,2,1,77,0,0
110738,-74.6268656716418,4,2,1,77,0,1
113468,-74.6268656716418,4,2,1,5,0,1
113612,-74.6268656716418,4,2,1,77,0,1
119935,-74.6268656716418,4,2,1,77,0,1
122665,-74.6268656716418,4,2,1,5,0,1
122808,-74.6268656716418,4,2,1,77,0,1
128987,-100,4,2,1,77,0,0
165916,-238.095238095238,4,2,1,77,0,0
166491,-100,4,2,1,77,0,0
174250,-100,4,2,1,77,0,1
174969,-100,4,2,1,77,0,0
182728,-238.095238095238,4,2,1,77,0,0
184309,-74.6268656716418,4,2,1,62,0,1
211754,-74.6268656716418,4,2,1,52,0,0

[Colours]
Combo1 : 0,108,63
Combo2 : 0,170,0
Combo3 : 0,70,121
Combo4 : 128,0,128
Combo5 : 255,192,0

[HitObjects]
419,342,18775,6,0,P|392:296|348:267,1,100,4|2,0:0|0:0,0:0:0:0:
206,205,19350,1,8,0:0:0:0:
215,349,19638,2,0,L|222:293,1,50,2|0,0:0|0:0,0:0:0:0:
278,159,19925,2,0,P|286:182|290:206,2,50,10|0|0,3:0|0:0|1:0,0:0:0:0:
137,241,20356,2,0,P|123:261|116:285,1,50,10|2,3:0|0:0,0:0:0:0:
110,322,20643,1,0,0:0:0:0:
49,227,20787,2,0,L|44:168,1,50,10|0,3:0|0:0,0:0:0:0:
69,81,21074,2,0,P|93:81|118:72,1,50,2|0,0:0|1:0,0:0:0:0:
150,50,21362,1,0,1:0:0:0:
349,46,21649,6,0,P|301:86|285:142,1,100,8|2,0:0|0:0,0:0:0:0:
320,240,22224,2,0,P|285:235|260:222,2,50,10|0|0,3:0|1:0|0:0,0:0:0:0:
426,210,22655,2,0,P|450:208|474:199,1,50,10|2,3:0|0:0,0:0:0:0:
508,174,22943,1,0,0:0:0:0:
420,112,23086,2,0,P|395:112|369:120,1,50,10|2,3:0|0:0,0:0:0:0:
327,215,23374,2,0,L|320:293,1,50,0|0,1:0|1:0,0:0:0:0:
369,330,23661,1,2,3:0:0:0:
262,165,23948,6,0,P|221:131|157:132,1,100,8|2,0:0|0:0,0:0:0:0:
153,297,24523,2,0,P|187:256|186:192,1,100,10|2,3:0|0:0,0:0:0:0:
105,156,24954,2,0,P|95:178|92:203,2,50,10|0|0,3:0|0:0|1:0,0:0:0:0:
212,51,25385,2,0,P|212:75|201:105,1,50,10|2,3:0|0:0,0:0:0:0:
187,134,25673,1,0,1:0:0:0:
353,77,25959,6,8,L|377:182,1,100,8|8,0:0|0:0,0:0:0:0:
367,263,26390,1,8,0:0:0:0:
452,302,26535,2,8,L|464:353,1,50,2|0,0:0|0:0,0:0:0:0:
448,208,26822,2,0,P|483:212|522:207,1,50,12|0,3:0|0:0,0:0:0:0:
367,263,27110,2,0,P|332:267|295:263,1,50,12|2,3:0|0:0,0:0:0:0:
200,229,27397,2,0,P|193:278|212:325,1,100,2|2,0:0|0:0,0:0:0:0:
175,48,27972,6,0,P|129:68|99:108,1,100,4|2,0:0|0:0,0:0:0:0:
103,242,28547,1,8,0:0:0:0:
186,136,28834,1,0,0:0:0:0:
343,58,29121,2,0,P|294:57|246:78,1,100,10|2,3:0|0:0,0:0:0:0:
308,259,29552,2,0,P|317:234|319:209,1,50,10|0,3:0|1:0,0:0:0:0:
315,172,29840,1,0,0:0:0:0:
218,229,29983,2,0,P|217:254|208:280,2,50,10|0|2,3:0|0:0|0:0,0:0:0:0:
171,123,30558,1,0,0:0:0:0:
328,48,30846,6,0,P|408:88|416:120,1,100,8|0,0:0|1:0,0:0:0:0:
434,277,31420,2,0,L|442:152,1,100,10|2,3:0|0:0,0:0:0:0:
337,130,31851,2,0,L|346:202,1,50,10|0,3:0|1:0,0:0:0:0:
332,253,32139,1,0,0:0:0:0:
255,222,32283,2,0,L|265:150,1,50,10|0,3:0|0:0,0:0:0:0:
173,90,32570,6,0,P|193:118|191:158,1,50,2|0,0:0|0:0,0:0:0:0:
190,306,32857,2,0,P|162:255|174:185,1,100,2|8,3:0|0:0,0:0:0:0:
317,107,33432,2,0,L|325:58,1,50,2|0,0:0|0:0,0:0:0:0:
447,103,33719,2,0,P|455:127|456:152,1,50,10|0,3:0|0:0,0:0:0:0:
443,191,34007,1,2,0:0:0:0:
359,245,34151,2,0,P|351:221|350:196,2,50,10|0|0,3:0|1:0|0:0,0:0:0:0:
420,357,34582,2,0,L|428:293,1,50,10|0,3:0|0:0,0:0:0:0:
447,270,34869,1,2,0:0:0:0:
232,352,35156,6,8,P|256:304|241:232,1,100,8|8,0:0|0:0,0:0:0:0:
217,191,35587,1,8,0:0:0:0:
124,153,35731,2,0,P|95:151|67:162,1,50,2|0,0:0|0:0,0:0:0:0:
92,345,36019,2,0,L|44:333,1,50,12|0,3:0|0:0,0:0:0:0:
105,257,36306,2,0,L|153:247,1,50,12|0,3:0|0:0,0:0:0:0:
5,224,36593,2,0,P|32:182|75:157,1,100,12|0,3:0|0:0,0:0:0:0:
165,167,37024,1,2,0:0:0:0:
147,25,37168,6,0,P|203:70|251:83,1,100,4|0,0:0|1:0,0:0:0:0:
301,49,37599,1,0,1:0:0:0:
353,136,37743,2,0,P|366:82|365:58,1,50,8|0,0:0|1:0,0:0:0:0:
264,191,38030,2,0,P|251:245|252:269,1,50,2|0,0:0|0:0,0:0:0:0:
286,343,38318,2,0,L|222:351,1,50,10|0,3:0|1:0,0:0:0:0:
193,333,38605,1,2,0:0:0:0:
134,253,38749,2,0,L|84:246,1,50,10|2,3:0|0:0,0:0:0:0:
167,216,39036,1,0,0:0:0:0:
268,206,39180,2,0,L|317:212,1,50,10|0,3:0|0:0,0:0:0:0:
427,257,39467,6,0,P|437:198|413:139,1,100,2|2,0:0|0:0,0:0:0:0:
229,263,40042,2,0,P|273:308|336:313,1,100,8|2,0:0|0:0,0:0:0:0:
351,302,40473,1,0,1:0:0:0:
317,214,40617,2,0,P|326:191|331:166,2,50,10|0|2,3:0|0:0|0:0,0:0:0:0:
210,151,41048,2,0,P|209:125|215:101,1,50,10|2,3:0|0:0,0:0:0:0:
235,57,41335,1,0,0:0:0:0:
331,21,41479,2,0,P|343:44|345:69,1,50,10|0,3:0|1:0,0:0:0:0:
327,172,41766,2,0,P|325:196|329:221,1,50,2|0,0:0|1:0,0:0:0:0:
369,315,42054,1,2,3:0:0:0:
369,315,42197,1,0,1:0:0:0:
261,301,42341,6,0,P|260:325|254:350,2,50,8|0|2,0:0|1:0|0:0,0:0:0:0:
83,339,42916,2,0,L|132:344,1,50,10|0,3:0|1:0,0:0:0:0:
170,320,43203,1,2,0:0:0:0:
17,232,43347,2,0,L|14:282,2,50,10|2|0,3:0|0:0|0:0,0:0:0:0:
89,101,43778,2,0,L|101:149,1,50,10|0,3:0|1:0,0:0:0:0:
108,238,44065,1,2,0:0:0:0:
273,28,44353,6,8,P|225:40|196:80,1,100
227,170,44784,1,8,0:0:0:0:
246,313,44927,2,0,L|252:263,1,50,2|0,0:0|1:0,0:0:0:0:
359,161,45215,2,0,L|309:154,1,50,12|0,3:0|0:0,0:0:0:0:
328,260,45502,2,0,L|377:253,1,50,12|0,3:0|0:0,0:0:0:0:
443,187,45790,2,0,P|472:226|478:275,1,100,12|0,3:0|1:0,0:0:0:0:
347,60,46364,6,0,P|389:35|439:38,2,100,4|2|8,0:0|0:0|0:0,0:0:0:0:
208,228,47227,2,0,P|233:227|256:218,1,50,2|0,0:0|1:0,0:0:0:0:
272,123,47514,2,0,P|272:76|240:31,1,100,10|2,3:0|0:0,0:0:0:0:
111,148,47945,2,0,P|138:147|194:94,1,100,10|0,3:0|0:0,0:0:0:0:
112,15,48376,2,0,P|120:38|123:63,1,50,10|0,3:0|1:0,0:0:0:0:
38,257,48951,6,0,L|42:207,1,50,2|0,0:0|1:0,0:0:0:0:
132,275,49238,2,0,L|136:325,1,50,8|0,0:0|1:0,0:0:0:0:
124,366,49526,1,2,0:0:0:0:
280,188,49813,2,0,P|288:211|292:235,1,50,10|0,3:0|1:0,0:0:0:0:
292,278,50100,1,0,1:0:0:0:
199,138,50244,2,0,P|189:113|186:89,2,50,10|2|0,3:0|0:0|0:0,0:0:0:0:
295,88,50675,2,0,P|301:63|310:40,1,50,10|0,3:0|0:0,0:0:0:0:
457,138,50962,6,0,L|465:210,1,50,2|0,0:0|1:0,0:0:0:0:
409,272,51250,1,2,3:0:0:0:
343,331,51394,1,2,0:0:0:0:
205,268,51537,2,0,P|256:273|310:253,1,100,8|2,0:0|0:0,0:0:0:0:
112,258,52112,6,0,P|91:276|80:296,1,50,10|0,3:0|0:0,0:0:0:0:
70,339,52399,1,2,0:0:0:0:
54,190,52543,2,0,P|43:161|46:126,1,50,10|0,3:0|1:0,0:0:0:0:
50,100,52830,1,0,1:0:0:0:
141,44,52974,2,0,L|149:108,1,50,10|0,3:0|0:0,0:0:0:0:
173,200,53262,1,2,0:0:0:0:
262,35,53549,6,8,P|235:77|233:127,1,100,8|8,0:0|0:0,0:0:0:0:
260,217,53980,1,8,0:0:0:0:
391,128,54124,2,0,L|345:111,1,50,2|0,0:0|1:0,0:0:0:0:
260,217,54411,6,0,P|284:206|299:187,1,50,12|0,3:0|0:0,0:0:0:0:
391,219,54698,2,0,P|401:243|401:268,1,50,12|0,3:0|0:0,0:0:0:0:
318,360,54986,2,0,L|328:312,1,50,12|0,3:0|1:0,0:0:0:0:
349,193,55273,1,0,0:0:0:0:
404,360,55417,1,0,0:0:0:0:
475,295,55561,6,0,B|429:258|371:271|371:271|313:282|275:231,1,200.999990492249,4|0,0:0|0:0,0:0:0:0:
349,193,56135,2,0,P|421:188|498:217,1,133.999993661499,8|2,0:0|0:0,0:0:0:0:
500,220,56566,1,0,0:0:0:0:
507,102,56710,2,0,P|440:111|376:94,1,133.999993661499,8|0,3:0|0:0,0:0:0:0:
299,23,57285,6,0,P|275:67|286:147,1,133.999993661499,2|8,0:0|3:0,0:0:0:0:
407,274,57860,2,0,B|361:237|303:250|303:250|247:261|203:211,1,200.999990492249,2|0,0:0|0:0,0:0:0:0:
146,249,58434,2,0,B|161:284|190:313|260:325,1,133.999993661499,8|2,0:0|0:0,0:0:0:0:
340,333,59009,5,8,3:0:0:0:
132,352,59297,1,2,0:0:0:0:
132,352,59440,1,8,3:0:0:0:
132,352,59584,1,0,1:0:0:0:
132,352,59871,2,0,B|145:300|91:266|116:208,1,133.999993661499,8|2,3:0|0:0,0:0:0:0:
118,196,60302,1,0,0:0:0:0:
153,109,60446,2,0,P|96:78|35:101,1,133.999993661499,2|8,3:0|0:0,0:0:0:0:
198,196,61021,1,0,0:0:0:0:
198,196,61308,6,0,B|236:181|269:198|269:198|309:219|347:204,1,133.999993661499,8|2,3:0|0:0,0:0:0:0:
363,200,61739,1,8,3:0:0:0:
363,200,61883,1,2,0:0:0:0:
278,283,62170,5,8,3:0:0:0:
278,283,62458,1,2,0:0:0:0:
162,278,62745,2,8,P|220:308|279:282,1,133.999993661499,8|8,0:0|0:0,0:0:0:0:
207,204,63176,2,0,B|150:170|123:218|69:183,1,133.999993661499,8|0,0:0|0:0,0:0:0:0:
6,132,63607,2,0,B|39:101|82:107|82:107|128:115|158:90,1,133.999993661499,12|0,3:0|0:0,0:0:0:0:
214,113,64038,1,0,0:0:0:0:
243,39,64182,2,0,B|282:16|323:30|323:30|366:46|402:23,1,133.999993661499,12|0,3:0|0:0,0:0:0:0:
472,8,64613,1,0,0:0:0:0:
475,89,64758,6,0,B|429:126|371:113|371:113|313:102|275:153,1,200.999990492249,4|0,0:0|0:0,0:0:0:0:
201,223,65332,2,0,P|271:238|346:196,1,133.999993661499,8|2,0:0|0:0,0:0:0:0:
352,196,65763,1,0,0:0:0:0:
493,252,65906,2,0,P|424:252|362:297,1,133.999993661499,8|0,3:0|0:0,0:0:0:0:
285,356,66481,6,0,P|261:312|272:232,1,133.999993661499,2|8,0:0|3:0,0:0:0:0:
440,196,67056,2,0,B|381:201|339:159|339:159|298:119|234:137,1,200.999990492249,2|0,0:0|0:0,0:0:0:0:
153,107,67631,2,0,B|168:72|197:43|267:31,1,133.999993661499,8|2,0:0|0:0,0:0:0:0:
365,52,68206,5,8,3:0:0:0:
112,38,68492,1,2,0:0:0:0:
112,38,68637,1,8,3:0:0:0:
112,38,68780,1,0,1:0:0:0:
112,38,69068,2,0,B|125:89|71:123|96:181,1,133.999993661499,8|2,3:0|0:0,0:0:0:0:
103,195,69498,1,0,0:0:0:0:
138,275,69642,2,0,P|83:310|21:294,1,133.999993661499,2|8,3:0|0:0,0:0:0:0:
198,180,70217,1,0,0:0:0:0:
198,180,70505,6,0,B|231:205|274:194|274:194|312:183|346:204,1,133.999993661499,8|2,3:0|0:0,0:0:0:0:
353,211,70936,1,8,3:0:0:0:
353,211,71079,1,2,0:0:0:0:
278,101,71367,5,8,3:0:0:0:
278,101,71654,1,2,0:0:0:0:
164,74,71942,2,8,P|227:59|277:100,1,133.999993661499,8|8,0:0|0:0,0:0:0:0:
195,185,72373,2,0,B|132:209|118:145|58:163,1,133.999993661499,8|0,0:0|0:0,0:0:0:0:
1,220,72804,1,12,3:0:0:0:
46,302,72947,2,0,B|76:331|115:319|115:319|166:305|201:330,1,133.999993661499,12|0,3:0|1:0,0:0:0:0:
246,251,73378,2,0,B|330:267|288:299|382:324,1,133.999993661499
456,344,73810,1,0,1:0:0:0:
482,241,73953,22,0,L|432:236,1,50,4|0,0:0|0:0,0:0:0:0:
347,183,74240,2,0,L|296:188,1,50,0|2,1:0|0:0,0:0:0:0:
156,244,74527,2,0,P|112:222|90:179,1,100,8|2,0:0|0:0,0:0:0:0:
128,90,74959,1,0,1:0:0:0:
212,144,75103,2,0,P|185:155|168:167,1,50,10|0,3:0|0:0,0:0:0:0:
298,188,75390,1,0,1:0:0:0:
297,95,75534,2,0,P|329:47|385:27,1,100,10|0,3:0|0:0,0:0:0:0:
386,126,75965,2,0,P|395:148|399:172,1,50,10|0,3:0|1:0,0:0:0:0:
457,241,76252,2,0,P|483:201|484:148,1,100,0|0,1:0|0:0,0:0:0:0:
257,182,76827,2,0,P|232:224|235:274,1,100,8|2,0:0|0:0,0:0:0:0:
272,336,77258,1,0,1:0:0:0:
329,250,77402,6,0,P|336:273|349:294,1,50,10|0,3:0|0:0,0:0:0:0:
349,207,77689,1,2,0:0:0:0:
341,125,77833,2,0,P|337:100|326:77,1,50,10|2,3:0|0:0,0:0:0:0:
296,42,78120,1,0,0:0:0:0:
195,59,78264,2,0,P|179:79|173:103,1,50,10|0,3:0|0:0,0:0:0:0:
197,203,78551,6,0,P|207:227|210:252,1,50,2|0,0:0|1:0,0:0:0:0:
189,326,78838,1,2,3:0:0:0:
54,133,79127,2,0,P|18:166|9:214,1,100,8|0,0:0|0:0,0:0:0:0:
198,157,79701,2,0,P|208:134|210:110,1,50,10|2,3:0|0:0,0:0:0:0:
204,72,79989,1,0,0:0:0:0:
204,72,80132,1,10,3:0:0:0:
126,230,80276,2,0,P|113:252|110:277,1,50,2|0,0:0|0:0,0:0:0:0:
235,256,80563,2,0,P|266:245|287:226,1,50,10|2,3:0|0:0,0:0:0:0:
278,98,80850,2,0,P|307:104|331:122,1,50,0|2,0:0|0:0,0:0:0:0:
430,246,81137,6,8,P|398:203|352:189,1,100,8|8,0:0|0:0,0:0:0:0:
276,215,81568,1,8,0:0:0:0:
276,215,81712,1,0,0:0:0:0:
163,107,82000,2,8,L|170:156,1,50,12|0,3:0|0:0,0:0:0:0:
276,215,82287,2,8,L|283:166,1,50,12|0,3:0|0:0,0:0:0:0:
292,81,82575,1,12,3:0:0:0:
262,290,82862,5,2,0:0:0:0:
283,165,83006,1,0,1:0:0:0:
208,240,83149,6,0,P|152:256|137:253,1,50,4|0,0:0|1:0,0:0:0:0:
145,139,83437,2,0,P|201:123|216:126,1,50,2|0,0:0|0:0,0:0:0:0:
364,192,83724,2,0,P|325:247|267:265,1,100,8|0,0:0|0:0,0:0:0:0:
91,186,84299,2,0,L|40:176,1,50,10|0,3:0|1:0,0:0:0:0:
6,188,84586,1,0,1:0:0:0:
38,290,84730,2,0,L|99:282,1,50,10|2,3:0|0:0,0:0:0:0:
127,302,85017,1,0,0:0:0:0:
159,224,85161,2,0,P|165:199|166:174,1,50,10|0,3:0|1:0,0:0:0:0:
87,38,85448,2,0,L|83:87,1,50,2|0,0:0|1:0,0:0:0:0:
86,169,85735,1,2,0:0:0:0:
189,86,86023,6,0,P|231:111|248:157,1,100,8|0,0:0|0:0,0:0:0:0:
449,144,86598,2,0,L|457:224,1,50,10|2,3:0|0:0,0:0:0:0:
463,275,86885,1,0,0:0:0:0:
299,300,87029,2,0,L|310:201,1,100,10|0,3:0|0:0,0:0:0:0:
383,275,87460,2,0,L|390:325,1,50,10|0,3:0|0:0,0:0:0:0:
247,357,87747,2,0,P|231:339|222:312,1,50,2|0,0:0|0:0,0:0:0:0:
232,236,88035,1,2,3:0:0:0:
72,153,88322,6,0,P|103:192|150:208,1,100,8|0,0:0|0:0,0:0:0:0:
232,236,88753,1,2,0:0:0:0:
101,357,88897,2,0,L|149:348,1,50,10|2,3:0|0:0,0:0:0:0:
186,320,89184,1,0,1:0:0:0:
277,306,89328,2,0,P|286:329|301:348,2,50,10|2|0,3:0|0:0|0:0,0:0:0:0:
302,173,89760,6,0,P|270:220|230:236,1,100,10|0,3:0|0:0,0:0:0:0:
143,21,90334,2,8,P|193:17|237:39,1,100,8|8,0:0|0:0,0:0:0:0:
302,96,90765,1,8,0:0:0:0:
302,173,90909,1,2,0:0:0:0:
372,54,91196,6,0,P|383:106|378:126,1,50,12|0,3:0|0:0,0:0:0:0:
313,220,91484,2,0,P|302:168|307:148,1,50,12|0,3:0|0:0,0:0:0:0:
224,224,91771,2,0,L|191:177,1,50,12|0,3:0|0:0,0:0:0:0:
89,251,92058,2,0,L|139:260,1,50,2|0,0:0|1:0,0:0:0:0:
111,155,92346,6,0,P|154:104|206:94,1,100,4|2,0:0|0:0,0:0:0:0:
240,32,92777,1,0,1:0:0:0:
195,183,92921,2,0,L|276:169,1,50,8|0,0:0|1:0,0:0:0:0:
272,272,93208,2,0,L|208:264,1,50,2|0,0:0|0:0,0:0:0:0:
95,321,93495,2,0,P|101:345|112:368,2,50,10|0|0,3:0|1:0|1:0,0:0:0:0:
48,238,93927,2,0,P|112:227|160:254,1,100,10|0,3:0|0:0,0:0:0:0:
234,300,94358,2,0,L|283:293,1,50,10|0,3:0|1:0,0:0:0:0:
367,219,94645,6,0,P|395:259|397:308,1,100,2|2,0:0|0:0,0:0:0:0:
233,290,95219,2,0,L|283:292,1,50,8|0,0:0|1:0,0:0:0:0:
171,214,95507,2,0,L|121:222,1,50,2|0,0:0|1:0,0:0:0:0:
337,103,95794,6,0,P|345:75|356:56,1,50,10|2,3:0|0:0,0:0:0:0:
393,33,96081,1,0,1:0:0:0:
244,61,96225,2,0,P|194:37|133:37,1,100,10|0,3:0|0:0,0:0:0:0:
40,115,96657,2,0,P|66:122|89:123,1,50,10|0,3:0|1:0,0:0:0:0:
150,34,96944,2,0,L|199:32,1,50,2|0,0:0|1:0,0:0:0:0:
245,118,97231,2,0,P|290:136|323:173,1,100,2|8,3:0|0:0,0:0:0:0:
352,34,97806,6,0,L|277:44,1,50,2|0,0:0|1:0,0:0:0:0:
186,34,98094,2,0,L|82:27,1,100,10|0,3:0|0:0,0:0:0:0:
28,166,98525,2,0,P|56:157|79:138,1,50,10|2,3:0|0:0,0:0:0:0:
105,114,98813,1,0,1:0:0:0:
105,114,98956,1,10,3:0:0:0:
238,196,99243,6,0,P|258:209|283:213,1,50,2|0,0:0|0:0,0:0:0:0:
351,67,99530,2,8,P|288:89|264:125,1,100,8|8,0:0|0:0,0:0:0:0:
238,196,99961,1,8,0:0:0:0:
238,196,100105,1,0,0:0:0:0:
219,300,100392,2,0,P|243:303|268:303,1,50,12|0,3:0|0:0,0:0:0:0:
193,179,100680,2,8,P|166:180|144:184,1,50,12|0,3:0|0:0,0:0:0:0:
40,293,100967,6,0,L|46:343,2,50,12|0|0,3:0|1:0|1:0,0:0:0:0:
143,184,101542,2,0,L|138:284,1,100,4|2,0:0|0:0,0:0:0:0:
357,307,102117,2,0,B|369:265|346:236|353:203,1,100,8|0,0:0|0:0,0:0:0:0:
441,231,102692,5,10,3:0:0:0:
238,259,102835,1,0,1:0:0:0:
238,259,102979,1,0,1:0:0:0:
233,156,103123,2,0,P|265:119|312:104,1,100,10|0,3:0|1:0,0:0:0:0:
402,191,103554,2,0,P|378:199|353:198,1,50,10|0,3:0|1:0,0:0:0:0:
445,50,103841,2,0,P|473:53|497:64,1,50,2|0,0:0|1:0,0:0:0:0:
361,109,104128,2,0,L|312:103,1,50,2|0,0:0|0:0,0:0:0:0:
213,40,104416,2,0,L|222:148,1,100,8|0,0:0|0:0,0:0:0:0:
33,223,104991,6,0,L|83:228,1,50,10|0,3:0|1:0,0:0:0:0:
116,247,105279,1,2,0:0:0:0:
199,337,105422,2,0,P|167:342|150:342,2,50,10|2|0,3:0|0:0|1:0,0:0:0:0:
302,264,105853,2,0,P|314:311|304:360,1,100,10|2,3:0|0:0,0:0:0:0:
400,204,106428,2,0,P|366:167|320:149,1,100,2|8,3:0|0:0,0:0:0:0:
136,192,107002,6,0,L|86:196,1,50,2|0,0:0|1:0,0:0:0:0:
0,103,107290,2,0,P|24:100|49:95,1,50,8|0,3:0|1:0,0:0:0:0:
84,74,107577,1,0,1:0:0:0:
189,113,107721,2,0,P|213:111|238:106,1,50,8|2,3:0|0:0,0:0:0:0:
326,75,108008,1,0,1:0:0:0:
479,39,108152,2,0,P|455:37|430:32,1,50,8|0,3:0|0:0,0:0:0:0:
332,83,108440,5,2,0:0:0:0:
332,83,108584,1,0,1:0:0:0:
332,83,108727,1,8,0:0:0:0:
193,28,109014,5,8,0:0:0:0:
160,48,109157,2,0,P|128:104|136:152,1,100,8|0,0:0|0:0,0:0:0:0:
408,184,109588,2,8,P|383:180|358:175,1,50,12|0,3:0|0:0,0:0:0:0:
216,111,109876,2,8,P|240:109|265:104,1,50,12|0,3:0|0:0,0:0:0:0:
409,108,110164,5,12,3:0:0:0:
288,137,110308,1,0,0:0:0:0:
408,184,110451,5,0,0:0:0:0:
265,103,110595,1,0,0:0:0:0:
475,76,110738,6,0,B|413:74|372:112|372:112|334:144|288:137,1,200.999990492249,4|0,0:0|0:0,0:0:0:0:
218,219,111313,2,0,P|151:224|88:203,1,133.999993661499,8|2,0:0|0:0,0:0:0:0:
63,181,111745,1,0,0:0:0:0:
201,332,111888,2,0,P|264:303|330:308,1,133.999993661499,8|0,3:0|0:0,0:0:0:0:
492,315,112463,6,0,P|430:292|394:237,1,133.999993661499,2|8,0:0|3:0,0:0:0:0:
145,243,113037,2,0,B|208:242|255:231|229:194|284:167|349:180,1,200.999990492249,2|0,0:0|0:0,0:0:0:0:
490,188,113612,2,0,B|429:177|400:148|385:113,1,133.999993661499,8|2,0:0|0:0,0:0:0:0:
402,34,114187,5,8,3:0:0:0:
191,45,114474,1,2,0:0:0:0:
191,45,114618,1,8,3:0:0:0:
191,45,114762,1,0,1:0:0:0:
191,45,115049,2,0,P|137:83|123:147,1,133.999993661499,8|2,3:0|0:0,0:0:0:0:
136,178,115481,1,0,0:0:0:0:
22,331,115624,2,0,B|90:336|75:264|160:258,1,133.999993661499,2|8,3:0|0:0,0:0:0:0:
216,239,116199,1,0,0:0:0:0:
216,239,116486,6,0,B|255:228|292:254|292:254|322:279|361:274,1,133.999993661499,8|2,3:0|0:0,0:0:0:0:
384,275,116917,1,8,3:0:0:0:
384,275,117062,1,2,0:0:0:0:
414,138,117349,5,8,3:0:0:0:
414,138,117636,1,2,0:0:0:0:
308,86,117923,2,0,P|373:88|414:138,1,133.999993661499,8|8,0:0|0:0,0:0:0:0:
328,192,118354,2,0,B|273:198|271:143|205:146,1,133.999993661499,8|0,0:0|0:0,0:0:0:0:
40,214,118785,2,0,B|82:197|119:219|119:219|159:243|199:225,1,133.999993661499,12|0,3:0|0:0,0:0:0:0:
219,310,119216,1,0,0:0:0:0:
219,310,119360,2,0,B|252:340|295:334|295:334|341:326|372:356,1,133.999993661499,12|0,3:0|0:0,0:0:0:0:
443,364,119791,1,0,0:0:0:0:
458,278,119935,6,0,B|412:241|354:254|354:254|296:265|258:214,1,200.999990492249,4|0,0:0|0:0,0:0:0:0:
159,142,120509,2,0,P|223:118|288:128,1,133.999993661499,8|2,0:0|0:0,0:0:0:0:
320,144,120941,1,0,0:0:0:0:
378,38,121084,2,0,P|431:77|496:93,1,133.999993661499,8|0,3:0|0:0,0:0:0:0:
262,81,121659,2,0,P|198:94|156:146,1,133.999993661499,2|8,0:0|3:0,0:0:0:0:
86,240,122234,6,0,B|132:277|190:264|190:264|246:253|290:303,1,200.999990492249,2|0,0:0|0:0,0:0:0:0:
353,353,122808,2,0,B|409:331|431:297|438:258,1,133.999993661499,8|2,0:0|0:0,0:0:0:0:
438,258,123383,5,8,3:0:0:0:
175,339,123670,1,2,0:0:0:0:
175,339,123814,1,8,3:0:0:0:
175,339,123957,1,0,1:0:0:0:
175,339,124245,2,0,P|121:301|107:237,1,133.999993661499,8|2,3:0|0:0,0:0:0:0:
120,203,124677,1,0,0:0:0:0:
34,55,124820,2,0,B|102:50|87:122|172:128,1,133.999993661499,2|8,3:0|0:0,0:0:0:0:
195,38,125395,1,0,0:0:0:0:
195,38,125682,2,0,B|225:63|264:51|264:51|295:44|342:63,1,133.999993661499,8|2,3:0|0:0,0:0:0:0:
358,80,126113,1,8,3:0:0:0:
358,80,126257,1,2,0:0:0:0:
414,246,126545,5,8,3:0:0:0:
414,246,126832,1,2,0:0:0:0:
308,298,127119,2,0,P|373:296|414:246,1,133.999993661499,8|8,0:0|0:0,0:0:0:0:
327,190,127550,2,0,B|272:184|270:239|204:236,1,133.999993661499,8|0,0:0|0:0,0:0:0:0:
75,199,127981,2,0,B|101:163|145:160|145:160|191:160|216:129,1,133.999993661499,12|0,3:0|0:0,0:0:0:0:
290,85,128412,1,0,0:0:0:0:
169,39,128556,2,0,B|213:32|246:60|246:60|280:91|319:87,1,133.999993661499,12|0,3:0|0:0,0:0:0:0:
391,35,128987,1,0,0:0:0:0:
293,105,129132,5,4,0:0:0:0:
371,198,129275,1,0,1:0:0:0:
334,103,129563,5,2,0:0:0:0:
409,123,129706,2,0,P|443:158|454:206,1,100,8|2,0:0|0:0,0:0:0:0:
444,248,130137,1,0,1:0:0:0:
317,230,130281,2,0,L|218:221,1,100,10|2,3:0|0:0,0:0:0:0:
174,296,130712,2,0,P|173:320|178:345,2,50,10|0|2,3:0|1:0|0:0,0:0:0:0:
217,220,131143,1,10,3:0:0:0:
262,64,131430,6,0,P|235:19|233:-3,1,50,2|0,0:0|1:0,0:0:0:0:
343,136,131718,2,0,P|354:184|350:206,1,50,0|2,0:0|0:0,0:0:0:0:
424,27,132005,2,0,P|412:75|424:124,1,100,8|0,0:0|1:0,0:0:0:0:
426,161,132436,1,2,0:0:0:0:
299,233,132580,2,0,P|275:240|249:239,1,50,10|0,3:0|0:0,0:0:0:0:
226,216,132867,1,2,0:0:0:0:
225,89,133011,2,0,P|245:76|271:71,1,50,10|0,3:0|1:0,0:0:0:0:
317,75,133298,1,0,1:0:0:0:
317,75,133442,1,10,3:0:0:0:
314,270,133729,6,0,L|311:320,1,50,2|0,0:0|1:0,0:0:0:0:
296,366,134016,1,2,3:0:0:0:
231,275,134160,1,0,1:0:0:0:
157,320,134304,2,0,P|109:307|75:271,1,100,8|0,0:0|0:0,0:0:0:0:
160,96,134879,2,0,L|168:200,1,100,10|0,3:0|1:0,0:0:0:0:
184,238,135310,1,10,3:0:0:0:
238,139,135453,2,0,L|234:89,1,50,2|0,0:0|0:0,0:0:0:0:
90,165,135741,2,0,L|86:214,1,50,10|0,3:0|0:0,0:0:0:0:
35,339,136028,2,0,L|27:267,1,50,2|0,0:0|0:0,0:0:0:0:
12,122,136316,6,8,P|52:82|108:74,1,100,8|8,0:0|0:0,0:0:0:0:
176,32,136747,1,8,0:0:0:0:
254,103,136891,2,0,P|233:115|209:119,1,50,2|0,0:0|1:0,0:0:0:0:
186,256,137178,2,0,P|163:246|139:244,1,50,12|0,3:0|0:0,0:0:0:0:
13,209,137465,2,0,P|31:224|54:231,1,50,12|0,3:0|0:0,0:0:0:0:
208,120,137753,5,12,3:0:0:0:
139,245,137896,1,0,0:0:0:0:
87,152,138040,5,0,1:0:0:0:
179,277,138184,1,0,0:0:0:0:
209,121,138327,6,0,P|250:95|299:95,1,100,4|2,0:0|0:0,0:0:0:0:
216,226,138902,2,0,P|175:257|160:303,1,100,8|2,0:0|0:0,0:0:0:0:
170,350,139333,1,0,1:0:0:0:
297,208,139477,2,0,P|287:185|271:167,2,50,10|0|0,3:0|0:0|1:0,0:0:0:0:
248,304,139908,2,0,P|288:332|337:331,1,100,10|0,3:0|0:0,0:0:0:0:
396,265,140339,1,10,3:0:0:0:
300,70,140627,6,0,P|324:70|350:75,1,50,2|0,0:0|1:0,0:0:0:0:
386,102,140914,1,2,0:0:0:0:
111,51,141202,2,0,P|135:55|160:56,1,50,8|0,0:0|1:0,0:0:0:0:
247,135,141489,2,0,P|224:127|200:123,1,50,2|0,0:0|1:0,0:0:0:0:
107,166,141776,2,0,P|138:204|185:223,1,100,10|2,3:0|0:0,0:0:0:0:
249,128,142207,2,0,L|200:123,1,50,10|2,3:0|0:0,0:0:0:0:
126,80,142495,1,0,1:0:0:0:
28,124,142638,2,0,P|19:152|17:176,1,50,10|0,3:0|0:0,0:0:0:0:
73,330,142926,6,0,P|109:279|107:210,1,100,2|2,0:0|3:0,0:0:0:0:
226,97,143500,2,0,P|188:128|169:173,1,100,8|0,0:0|0:0,0:0:0:0:
198,255,143931,1,2,0:0:0:0:
357,307,144075,2,0,L|257:316,1,100,10|2,3:0|0:0,0:0:0:0:
275,190,144506,2,0,L|324:194,1,50,10|2,3:0|0:0,0:0:0:0:
370,188,144793,1,0,0:0:0:0:
370,188,144937,1,10,3:0:0:0:
284,40,145224,6,0,P|252:46|236:54,1,50,2|0,0:0|0:0,0:0:0:0:
184,224,145512,2,8,P|175:175|192:128,1,100,8|8,0:0|0:0,0:0:0:0:
236,53,145943,1,8,0:0:0:0:
349,296,146375,2,0,P|329:282|313:263,1,50,12|0,3:0|0:0,0:0:0:0:
299,137,146662,2,0,P|319:151|335:170,1,50,12|0,3:0|0:0,0:0:0:0:
222,298,146949,5,12,3:0:0:0:
271,207,147093,1,0,0:0:0:0:
317,112,147237,5,2,0:0:0:0:
241,198,147380,1,0,1:0:0:0:
182,277,147524,6,0,P|151:315|105:335,1,100,4|0,0:0|0:0,0:0:0:0:
67,332,147955,1,0,1:0:0:0:
17,262,148099,2,0,L|21:188,1,50,8|0,0:0|0:0,0:0:0:0:
78,132,148386,2,0,L|76:83,1,50,2|0,0:0|0:0,0:0:0:0:
173,45,148673,2,0,B|187:87|157:113|171:149,1,100,10|2,3:0|0:0,0:0:0:0:
209,246,149105,2,0,P|233:242|255:231,2,50,10|2|0,3:0|0:0|0:0,0:0:0:0:
73,221,149536,2,0,P|95:209|119:206,1,50,10|0,3:0|0:0,0:0:0:0:
255,231,149823,6,0,P|304:226|347:202,1,100,2|2,0:0|0:0,0:0:0:0:
343,55,150397,1,8,0:0:0:0:
190,73,150684,2,0,P|213:81|238:81,1,50,2|0,0:0|1:0,0:0:0:0:
343,55,150972,2,0,L|442:44,1,100,10|0,3:0|1:0,0:0:0:0:
445,163,151403,2,0,L|395:157,1,50,10|2,3:0|0:0,0:0:0:0:
309,137,151690,1,0,0:0:0:0:
309,137,151834,1,10,3:0:0:0:
390,264,152122,6,0,P|361:279|334:283,1,50,2|0,0:0|1:0,0:0:0:0:
257,348,152409,2,0,P|225:311|220:257,1,100,2|8,3:0|0:0,0:0:0:0:
264,134,152840,2,0,P|272:161|272:198,1,50,2|0,0:0|1:0,0:0:0:0:
94,294,153271,2,0,L|193:308,1,100,10|2,3:0|0:0,0:0:0:0:
348,257,153702,2,0,L|298:264,1,50,10|2,3:0|0:0,0:0:0:0:
257,256,153990,1,0,0:0:0:0:
144,301,154133,2,0,L|193:308,1,50,10|2,3:0|0:0,0:0:0:0:
202,187,154421,6,0,P|197:163|186:141,1,50,0|0,1:0|1:0,0:0:0:0:
37,71,154708,2,8,P|101:87|157:71,1,100,8|8,0:0|0:0,0:0:0:0:
212,68,155139,1,8,0:0:0:0:
286,23,155283,2,0,L|353:17,1,50,2|0,0:0|1:0,0:0:0:0:
374,99,155570,2,0,L|370:148,1,50,12|0,3:0|0:0,0:0:0:0:
281,233,155857,2,0,L|277:183,1,50,12|0,3:0|0:0,0:0:0:0:
212,68,156145,5,12,3:0:0:0:
374,99,156288,1,0,0:0:0:0:
176,144,156432,5,2,0:0:0:0:
320,96,156576,1,0,0:0:0:0:
238,227,156720,6,0,L|252:128,1,100,4|2,0:0|0:0,0:0:0:0:
369,229,157294,2,0,L|384:328,1,100,8|0,0:0|0:0,0:0:0:0:
317,165,157869,2,0,P|337:150|362:145,2,50,10|0|2,3:0|1:0|0:0,0:0:0:0:
267,270,158300,2,0,P|218:268|177:241,1,100,10|0,3:0|0:0,0:0:0:0:
143,151,158731,2,0,P|168:144|192:147,1,50,10|0,3:0|1:0,0:0:0:0:
30,239,159019,6,0,P|5:185|9:138,1,100,2|2,0:0|0:0,0:0:0:0:
32,102,159450,1,0,1:0:0:0:
106,214,159594,2,0,B|118:256|92:286|102:318,1,100,8|0,0:0|0:0,0:0:0:0:
179,302,160025,1,0,1:0:0:0:
320,336,160168,6,0,P|295:338|270:343,2,50,10|0|2,3:0|1:0|0:0,0:0:0:0:
280,240,160599,2,0,P|255:234|230:232,1,50,10|2,3:0|0:0,0:0:0:0:
193,244,160887,1,0,1:0:0:0:
296,144,161030,2,0,L|345:150,1,50,10|0,3:0|0:0,0:0:0:0:
473,224,161318,2,0,P|448:226|424:232,1,50,2|0,0:0|1:0,0:0:0:0:
355,262,161605,1,2,3:0:0:0:
427,142,161893,6,0,P|405:98|365:69,1,100,8|2,0:0|0:0,0:0:0:0:
297,28,162324,1,0,1:0:0:0:
345,150,162468,2,0,P|313:187|265:198,1,100,10|0,3:0|0:0,0:0:0:0:
297,28,162899,2,0,L|348:24,2,50,10|2|0,3:0|0:0|0:0,0:0:0:0:
223,79,163329,1,10,3:0:0:0:
49,224,163617,6,0,P|72:214|93:201,1,50,2|0,0:0|1:0,0:0:0:0:
141,30,163904,2,8,P|119:84|134:139,1,100
183,191,164335,1,8,0:0:0:0:
183,191,164623,5,0,1:0:0:0:
306,180,164767,2,0,P|282:187|261:200,1,50,12|0,3:0|0:0,0:0:0:0:
176,296,165054,2,0,P|200:289|221:276,1,50,12|0,3:0|0:0,0:0:0:0:
314,93,165341,5,12,3:0:0:0:
261,201,165485,1,0,0:0:0:0:
232,96,165629,5,2,0:0:0:0:
313,251,165772,1,0,1:0:0:0:
257,129,165916,6,0,L|224:85,1,41.9999987182618,4|2,0:0|0:0,0:0:0:0:
207,66,166347,1,0,1:0:0:0:
124,45,166491,2,0,B|110:87|140:113|126:149,1,100,8|0,3:0|0:0,0:0:0:0:
42,129,166922,1,0,0:0:0:0:
128,144,167065,2,0,P|188:104|260:100,1,100,10|0,3:0|1:0,0:0:0:0:
210,12,167496,2,0,P|257:30|294:64,1,100,10|0,3:0|0:0,0:0:0:0:
371,47,167927,2,0,P|373:72|366:96,1,50,10|0,3:0|1:0,0:0:0:0:
259,232,168215,2,0,P|257:207|264:183,1,50,2|0,0:0|0:0,0:0:0:0:
383,206,168790,6,0,L|327:214,1,50,8|0,0:0|1:0,0:0:0:0:
420,134,169078,2,0,L|469:142,1,50,2|0,0:0|0:0,0:0:0:0:
440,272,169365,2,0,L|341:288,1,100,10|2,3:0|0:0,0:0:0:0:
303,179,169796,2,0,L|253:169,1,50,10|2,3:0|0:0,0:0:0:0:
173,180,170083,1,0,0:0:0:0:
106,245,170227,2,0,L|57:253,1,50,10|0,3:0|0:0,0:0:0:0:
257,279,170514,2,0,L|306:271,2,50,0|0|2,0:0|1:0|3:0,0:0:0:0:
170,76,171089,6,0,P|146:148|162:188,1,100,8|2,0:0|0:0,0:0:0:0:
185,238,171520,1,0,1:0:0:0:
226,354,171663,2,0,L|275:358,1,50,10|0,3:0|1:0,0:0:0:0:
313,362,171951,1,0,1:0:0:0:
149,309,172095,2,0,L|99:313,1,50,10|0,3:0|0:0,0:0:0:0:
65,290,172383,1,0,1:0:0:0:
185,238,172527,2,0,L|234:242,1,50,10|0,3:0|0:0,0:0:0:0:
315,295,172813,1,2,0:0:0:0:
258,144,173101,6,8,P|316:182|335:231,1,100,8|8,0:0|0:0,0:0:0:0:
399,260,173532,1,0,0:0:0:0:
397,144,173963,6,0,P|413:163|434:178,1,50,12|0,3:0|0:0,0:0:0:0:
506,74,174250,2,0,P|483:80|461:93,1,50,12|0,3:0|0:0,0:0:0:0:
512,176,174538,5,12,3:0:0:0:
374,121,174681,1,0,1:0:0:0:
434,178,174825,5,0,1:0:0:0:
314,67,174969,1,0,1:0:0:0:
299,180,175112,6,0,B|244:210|252:282,1,100,4|0,0:0|0:0,0:0:0:0:
295,336,175543,1,0,1:0:0:0:
159,238,175687,2,0,L|98:229,1,50,8|0,0:0|0:0,0:0:0:0:
158,341,175974,2,0,L|207:336,1,50,0|0,0:0|1:0,0:0:0:0:
354,282,176262,2,0,P|380:279|409:264,1,50,10|0,3:0|1:0,0:0:0:0:
330,246,176549,1,2,0:0:0:0:
344,104,176693,2,0,P|379:151|381:202,1,100,10|0,3:0|0:0,0:0:0:0:
245,294,177124,2,0,P|237:271|235:246,1,50,10|0,3:0|1:0,0:0:0:0:
255,155,177411,1,2,0:0:0:0:
255,155,177699,5,2,0:0:0:0:
198,75,177986,2,0,L|149:70,1,50,8|0,0:0|1:0,0:0:0:0:
117,47,178274,1,0,0:0:0:0:
382,181,178561,2,0,L|375:280,1,100,10|0,3:0|1:0,0:0:0:0:
311,103,178992,2,0,L|308:54,1,50,10|0,3:0|0:0,0:0:0:0:
332,21,179279,1,0,0:0:0:0:
401,82,179423,2,0,L|449:77,1,50,10|0,3:0|0:0,0:0:0:0:
382,181,179711,2,0,L|333:176,1,50,2|0,0:0|1:0,0:0:0:0:
252,156,179997,1,2,3:0:0:0:
120,264,180285,6,0,P|119:299|97:342,2,50,8|0|0,0:0|0:0|1:0,0:0:0:0:
96,176,180716,1,2,0:0:0:0:
168,112,180860,2,0,P|181:64|219:33,1,100,10|2,3:0|0:0,0:0:0:0:
352,108,181291,2,0,L|303:112,1,50,10|0,3:0|1:0,0:0:0:0:
268,130,181577,1,2,0:0:0:0:
192,204,181722,2,0,L|240:208,1,50,10|0,3:0|0:0,0:0:0:0:
124,353,182009,5,2,0:0:0:0:
124,353,182153,1,0,1:0:0:0:
207,323,182297,2,0,L|255:334,1,50,8|0,0:0|0:0,0:0:0:0:
279,296,182584,1,8,0:0:0:0:
340,352,182728,6,0,B|399:242|289:242|327:138,1,209.999993591309,8|0,0:0|0:0,0:0:0:0:
448,51,184309,6,0,B|402:88|344:75|344:75|286:64|248:115,1,200.999990492249,4|0,0:0|0:0,0:0:0:0:
161,159,184883,2,0,P|89:164|12:135,1,133.999993661499,8|2,0:0|0:0,0:0:0:0:
7,130,185315,1,0,0:0:0:0:
67,15,185458,2,0,P|130:36|180:79,1,133.999993661499,8|0,3:0|0:0,0:0:0:0:
199,218,186033,2,0,P|262:239|328:235,1,133.999993661499,2|8,0:0|3:0,0:0:0:0:
512,242,186608,2,0,B|453:236|420:187|420:187|387:140|321:145,1,200.999990492249,2|0,0:0|0:0,0:0:0:0:
243,78,187182,2,0,B|270:51|307:35|377:50,1,133.999993661499,8|2,0:0|0:0,0:0:0:0:
465,105,187758,5,8,3:0:0:0:
243,78,188045,1,2,0:0:0:0:
243,78,188188,1,8,3:0:0:0:
243,78,188332,1,0,1:0:0:0:
243,78,188619,2,0,B|240:134|177:142|183:205,1,133.999993661499,8|2,3:0|0:0,0:0:0:0:
181,220,189050,1,0,0:0:0:0:
53,351,189194,2,0,P|117:348|158:297,1,133.999993661499,2|8,3:0|0:0,0:0:0:0:
90,240,189769,1,0,0:0:0:0:
414,304,190056,2,0,P|365:347|300:343,1,133.999993661499,8|2,3:0|0:0,0:0:0:0:
279,323,190487,1,8,3:0:0:0:
279,323,190630,1,0,0:0:0:0:
381,173,190918,5,8,3:0:0:0:
381,173,191206,1,2,0:0:0:0:
381,173,191493,2,8,P|444:161|477:105,1,133.999993661499,8|8,0:0|0:0,0:0:0:0:
290,184,191924,2,0,P|215:225|153:207,1,133.999993661499,8|0,0:0|0:0,0:0:0:0:
22,220,192355,2,0,B|67:217|96:249|96:249|126:285|165:285,1,133.999993661499,12|0,3:0|0:0,0:0:0:0:
165,354,192786,1,0,0:0:0:0:
256,342,192930,2,0,B|306:379|356:321|414:352,1,133.999993661499,12|0,3:0|0:0,0:0:0:0:
477,372,193362,1,0,0:0:0:0:
484,291,193505,6,0,B|438:254|380:267|380:267|322:278|284:227,1,200.999990492249,4|0,0:0|0:0,0:0:0:0:
172,179,194080,2,0,P|100:174|23:203,1,133.999993661499,8|2,0:0|0:0,0:0:0:0:
17,210,194511,1,0,0:0:0:0:
75,333,194654,2,0,P|138:312|188:269,1,133.999993661499,8|0,3:0|0:0,0:0:0:0:
265,174,195229,2,0,P|328:153|394:157,1,133.999993661499,2|8,0:0|3:0,0:0:0:0:
495,330,195804,2,0,B|436:324|403:275|403:275|370:228|304:233,1,200.999990492249,2|0,0:0|0:0,0:0:0:0:
173,196,196378,2,0,B|111:209|74:193|47:167,1,133.999993661499,8|2,0:0|0:0,0:0:0:0:
136,61,196954,5,8,3:0:0:0:
243,306,197241,1,2,0:0:0:0:
243,306,197385,1,8,3:0:0:0:
243,306,197528,1,0,1:0:0:0:
243,306,197815,2,0,P|177:243|185:168,1,133.999993661499,8|2,3:0|0:0,0:0:0:0:
181,169,198246,1,0,0:0:0:0:
26,55,198390,2,0,P|76:97|140:87,1,133.999993661499,2|8,3:0|0:0,0:0:0:0:
214,35,198965,1,0,0:0:0:0:
126,175,199252,6,0,P|36:217|28:271,1,133.999993661499,8|2,3:0|0:0,0:0:0:0:
39,275,199684,1,8,3:0:0:0:
39,275,199827,1,0,0:0:0:0:
362,245,200114,1,8,3:0:0:0:
362,245,200402,1,2,0:0:0:0:
362,245,200689,2,8,P|426:234|459:179,1,133.999993661499,8|8,0:0|0:0,0:0:0:0:
284,208,201121,2,0,P|198:166|136:208,1,133.999993661499,8|0,0:0|0:0,0:0:0:0:
71,140,201552,2,0,B|96:103|141:101|141:101|187:101|212:70,1,133.999993661499,12|0,3:0|0:0,0:0:0:0:
308,84,201983,1,0,0:0:0:0:
206,5,202127,2,0,B|250:11|273:47|273:47|296:87|335:94,1,133.999993661499,12|0,3:0|0:0,0:0:0:0:
391,139,202558,1,0,0:0:0:0:
484,93,202701,6,0,B|438:130|380:117|380:117|322:106|284:157,1,200.999990492249,4|0,0:0|0:0,0:0:0:0:
183,194,203276,2,0,P|111:199|34:170,1,133.999993661499,8|2,0:0|0:0,0:0:0:0:
26,161,203707,1,0,0:0:0:0:
179,353,203850,2,0,P|132:307|68:291,1,133.999993661499,8|0,3:0|0:0,0:0:0:0:
342,210,204425,2,0,P|291:253|226:269,1,133.999993661499,2|8,0:0|3:0,0:0:0:0:
41,90,205000,2,0,B|99:83|141:125|141:125|183:165|246:148,1,200.999990492249,2|0,0:0|0:0,0:0:0:0:
392,204,205574,2,0,B|330:190|293:206|266:232,1,133.999993661499,8|2,0:0|0:0,0:0:0:0:
266,231,206150,5,8,3:0:0:0:
230,48,206437,1,2,0:0:0:0:
230,48,206581,1,8,3:0:0:0:
230,48,206725,1,0,1:0:0:0:
230,48,207012,2,0,B|230:86|166:109|170:176,1,133.999993661499,8|2,3:0|0:0,0:0:0:0:
169,193,207443,1,0,0:0:0:0:
30,311,207586,2,0,P|94:321|144:280,1,133.999993661499,2|8,3:0|0:0,0:0:0:0:
169,193,208161,1,0,0:0:0:0:
338,332,208448,6,0,P|272:326|231:276,1,133.999993661499,8|2,3:0|0:0,0:0:0:0:
245,237,208880,1,8,3:0:0:0:
245,237,209024,1,2,0:0:0:0:
362,138,209310,1,8,3:0:0:0:
362,138,209598,1,2,0:0:0:0:
362,138,209886,2,8,P|425:153|454:211,1,133.999993661499
278,163,210317,2,0,P|198:216|130:187,1,133.999993661499,8|0,0:0|0:0,0:0:0:0:
51,323,210748,2,0,B|97:337|130:311|130:311|159:287|206:294,1,133.999993661499,12|0,3:0|0:0,0:0:0:0:
243,345,211179,1,0,0:0:0:0:
243,345,211322,2,0,B|282:368|323:354|323:354|366:338|401:357,1,133.999993661499,12|0,3:0|0:0,0:0:0:0:
456,377,211754,1,0,0:0:0:0:
292,266,211897,5,6,0:0:0:0:
