osu file format v14

[General]
AudioFilename: audio.mp3
AudioLeadIn: 0
PreviewTime: 124389
Countdown: 0
SampleSet: Soft
StackLeniency: 0.7
Mode: 0
LetterboxInBreaks: 0
WidescreenStoryboard: 1

[Editor]
DistanceSpacing: 1
BeatDivisor: 4
GridSize: 8
TimelineZoom: 1.4

[Metadata]
Title:Mo Money Mo Problems (feat. Mase & Puff Daddy)
TitleUnicode:Mo Money Mo Problems (feat. Mase & Puff Daddy)
Artist:The Notorious B.I.G.
ArtistUnicode:The Notorious B.I.G.
Creator:RealMetMuster
Version:Normal
Source:
Tags:hip hop, rap, funk, funky, biggie, the notorious b.i.g., 1997, smalls, mase, life after death, puffy, puff daddy, diddy, old school, hip hop, flow, east coast, new york, brooklyn, junior mafia, bad boy, records, kelly price, Kloyd, 5840097
BeatmapID:2266097
BeatmapSetID:745468

[Difficulty]
HPDrainRate:2
CircleSize:3.5
OverallDifficulty:3
ApproachRate:4.2
SliderMultiplier:1.7
SliderTickRate:1

[Events]
//Background and Video events
0,0,"notorious-big-puff-daddy.jpg",0,0
0,0,"notorious-big-puff-daddy.jpg",0,0
//Break Periods
2,166116,171230
//Storyboard Layer 0 (Background)
//Storyboard Layer 1 (Fail)
//Storyboard Layer 2 (Pass)
//Storyboard Layer 3 (Foreground)
//Storyboard Layer 4 (Overlay)
//Storyboard Sound Samples

[TimingPoints]
18776,574.767698055369,4,2,1,80,1,0
55561,-100,4,2,1,80,0,1
73810,-100,4,2,1,80,0,0
110738,-100,4,2,1,80,0,1
128987,-100,4,2,1,80,0,0
184309,-100,4,2,1,80,0,1
211897,-100,4,2,1,80,0,0

[Colours]
Combo1 : 0,108,63
Combo2 : 0,170,0
Combo3 : 0,70,121
Combo4 : 128,0,128
Combo5 : 255,192,0

[HitObjects]
45,293,18775,6,0,P|76:263|115:247,1,85,4|2,0:0|0:0,0:0:0:0:
198,260,19350,1,8,0:0:0:0:
198,260,19638,1,2,0:0:0:0:
272,301,19925,2,0,P|317:312|380:310,1,85,8|0,3:0|1:0,0:0:0:0:
396,300,20356,1,8,3:0:0:0:
475,200,20787,1,8,3:0:0:0:
478,72,21074,2,0,L|475:115,2,42.5,2|0|0,0:0|1:0|1:0,0:0:0:0:
403,31,21649,2,0,L|290:21,1,85,8|2,0:0|0:0,0:0:0:0:
234,37,22224,2,0,P|190:48|140:44,1,85,8|0,3:0|0:0,0:0:0:0:
108,37,22655,2,0,P|79:32|53:35,1,42.5,8|2,3:0|0:0,0:0:0:0:
25,107,23086,1,8,3:0:0:0:
96,152,23374,6,0,L|169:140,2,42.5,0|0|2,1:0|1:0|3:0,0:0:0:0:
35,211,23948,1,8,0:0:0:0:
35,211,24236,1,2,0:0:0:0:
106,253,24523,2,0,P|147:266|189:263,1,85,8|2,3:0|0:0,0:0:0:0:
228,245,24954,1,8,3:0:0:0:
261,122,25385,1,8,3:0:0:0:
261,122,25672,1,0,1:0:0:0:
319,60,25960,6,0,P|381:50|422:64,1,85,8|8,0:0|0:0,0:0:0:0:
436,80,26391,1,8,0:0:0:0:
493,194,26823,2,0,L|441:184,2,42.5,12|0|0,3:0|0:0|0:0,0:0:0:0:
470,275,27397,2,0,L|512:269,2,42.5,2|0|2,0:0|0:0|0:0,0:0:0:0:
403,327,27972,2,0,L|301:345,1,85,4|2,0:0|0:0,0:0:0:0:
266,275,28547,2,0,L|149:263,1,85,8|0,0:0|0:0,0:0:0:0:
100,239,29121,2,0,L|59:376,2,127.5,8|8|8,3:0|3:0|3:0,0:0:0:0:
83,155,30271,6,0,L|70:63,1,85,2|0,0:0|0:0,0:0:0:0:
152,46,30846,2,0,L|220:34,2,42.5,8|0|0,0:0|1:0|1:0,0:0:0:0:
152,46,31421,1,8,3:0:0:0:
191,121,31708,2,0,L|233:125,2,42.5,2|8|0,0:0|3:0|1:0,0:0:0:0:
177,205,32283,1,8,3:0:0:0:
221,277,32570,2,0,L|204:368,2,85,2|2|8,0:0|3:0|0:0,0:0:0:0:
272,209,33432,1,2,0:0:0:0:
302,129,33720,2,0,L|312:30,1,85,8|2,3:0|0:0,0:0:0:0:
316,2,34151,1,8,3:0:0:0:
435,46,34583,1,8,3:0:0:0:
435,46,34870,1,2,0:0:0:0:
461,126,35157,6,0,P|408:139|352:131,1,85,8|8,0:0|0:0,0:0:0:0:
337,124,35588,1,8,0:0:0:0:
216,81,36019,2,0,L|151:71,2,42.5,12|0|12,3:0|0:0|3:0,0:0:0:0:
216,166,36594,2,0,L|258:159,2,42.5,12|0|0,3:0|0:0|0:0,0:0:0:0:
131,152,37169,2,0,P|82:132|23:135,1,85,4|0,0:0|1:0,0:0:0:0:
41,214,37743,1,8,0:0:0:0:
41,214,38031,1,2,0:0:0:0:
49,298,38318,1,8,3:0:0:0:
49,298,38605,2,0,L|90:288,2,42.5,2|8|2,0:0|3:0|0:0,0:0:0:0:
93,370,39180,1,8,3:0:0:0:
169,333,39467,6,0,P|228:304|284:312,1,85,2|2,0:0|0:0,0:0:0:0:
327,329,40042,1,8,0:0:0:0:
411,339,40329,2,0,L|478:330,1,42.5,2|0,0:0|1:0,0:0:0:0:
493,318,40617,1,8,3:0:0:0:
506,234,40904,1,2,0:0:0:0:
500,190,41047,2,0,L|439:179,1,42.5,8|2,3:0|0:0,0:0:0:0:
374,165,41479,2,0,L|304:158,1,42.5,8|0,3:0|1:0,0:0:0:0:
289,166,41766,2,0,L|228:173,2,42.5,2|0|2,0:0|1:0|3:0,0:0:0:0:
306,82,42341,2,0,L|348:76,2,42.5,8|0|2,0:0|1:0|0:0,0:0:0:0:
221,89,42916,6,0,P|179:84|142:64,1,85,8|2,3:0|0:0,0:0:0:0:
108,37,43347,1,8,3:0:0:0:
11,119,43778,2,0,L|16:170,1,42.5,8|0,3:0|1:0,0:0:0:0:
22,203,44065,1,2,0:0:0:0:
106,211,44353,2,0,P|143:191|185:191,1,85,8|8,0:0|0:0,0:0:0:0:
224,207,44784,1,8,0:0:0:0:
232,333,45215,2,0,L|175:339,2,42.5,12|0|12,3:0|0:0|3:0,0:0:0:0:
314,352,45790,2,0,L|371:358,2,42.5,12|0|0,3:0|0:0|1:0,0:0:0:0:
335,269,46365,6,0,L|432:283,1,85,4|2,0:0|0:0,0:0:0:0:
419,281,46940,1,8,0:0:0:0:
469,212,47227,2,0,L|480:134,1,42.5,2|0,0:0|1:0,0:0:0:0:
481,127,47514,1,8,3:0:0:0:
388,39,47945,2,0,L|276:31,1,85,8|0,3:0|0:0,0:0:0:0:
266,54,48376,2,0,L|203:62,1,42.5,8|0,3:0|1:0,0:0:0:0:
98,35,48951,6,0,L|92:97,1,42.5,2|0,0:0|1:0,0:0:0:0:
88,119,49238,1,8,0:0:0:0:
88,119,49526,1,2,0:0:0:0:
37,187,49813,2,0,P|44:231|72:279,1,85,8|0,3:0|1:0,0:0:0:0:
96,293,50244,1,8,3:0:0:0:
210,348,50675,1,8,3:0:0:0:
280,301,50962,2,0,L|348:308,2,42.5,2|0|2,0:0|1:0|3:0,0:0:0:0:
326,224,51537,2,0,P|369:219|410:229,1,85,8|2,0:0|0:0,0:0:0:0:
473,285,52112,2,0,P|489:247|496:205,1,85,8|2,3:0|0:0,0:0:0:0:
492,162,52544,1,8,3:0:0:0:
470,36,52975,5,8,3:0:0:0:
470,36,53262,1,2,0:0:0:0:
389,63,53549,2,0,P|311:71|270:60,1,85,8|8,0:0|0:0,0:0:0:0:
265,53,53980,1,8,0:0:0:0:
141,22,54411,2,0,L|92:13,2,42.5,12|0|12,3:0|0:0|3:0,0:0:0:0:
102,97,54986,2,0,L|60:104,2,42.5,12|0|0,3:0|1:0|0:0,0:0:0:0:
194,171,55561,6,0,P|153:179|111:181,2,85,4|0|8,0:0|0:0|0:0,0:0:0:0:
266,127,56423,1,2,0:0:0:0:
266,127,56710,2,0,P|340:156|355:180,1,85,8|0,3:0|0:0,0:0:0:0:
349,199,57141,2,0,L|353:247,1,42.5,8|2,3:0|0:0,0:0:0:0:
348,326,57572,1,8,3:0:0:0:
347,326,57859,6,0,P|306:331|264:321,2,85,2|0|8,0:0|0:0|0:0,0:0:0:0:
424,290,58721,1,2,0:0:0:0:
453,210,59009,2,0,L|460:104,1,85,8|2,3:0|0:0,0:0:0:0:
462,82,59440,1,8,3:0:0:0:
348,23,59871,1,8,3:0:0:0:
348,23,60159,2,0,L|420:16,2,42.5,2|0|2,0:0|0:0|3:0,0:0:0:0:
262,24,60734,1,8,0:0:0:0:
262,24,61021,1,0,0:0:0:0:
177,31,61308,6,0,P|113:44|61:31,1,85,8|2,3:0|0:0,0:0:0:0:
54,27,61739,2,0,L|60:70,1,42.5,8|2,3:0|0:0,0:0:0:0:
57,154,62170,1,8,3:0:0:0:
37,237,62458,1,2,0:0:0:0:
56,319,62745,2,0,P|130:343|171:336,1,85,8|8,0:0|0:0,0:0:0:0:
176,331,63176,1,8,0:0:0:0:
300,302,63608,6,0,L|288:348,2,42.5,12|0|12,3:0|0:0|3:0,0:0:0:0:
373,258,64182,2,0,L|379:305,2,42.5,12|0|0,3:0|0:0|0:0,0:0:0:0:
452,227,64757,2,0,P|490:167|493:132,1,85,4|0,0:0|0:0,0:0:0:0:
476,70,65332,2,0,P|409:34|361:28,1,85,8|2,0:0|0:0,0:0:0:0:
316,37,65906,1,8,3:0:0:0:
189,54,66337,2,0,L|102:42,1,85,8|0,3:0|0:0,0:0:0:0:
62,34,66768,1,8,3:0:0:0:
45,117,67056,6,0,L|34:214,1,85,2|0,0:0|0:0,0:0:0:0:
33,290,67631,1,8,0:0:0:0:
33,290,67919,1,2,0:0:0:0:
104,335,68206,2,0,P|143:350|185:358,1,85,8|2,3:0|0:0,0:0:0:0:
227,351,68637,1,8,3:0:0:0:
356,334,69068,1,8,3:0:0:0:
356,334,69355,2,0,L|339:398,2,42.5,2|0|2,0:0|0:0|3:0,0:0:0:0:
300,268,69931,2,0,P|360:246|405:247,1,85,8|0,0:0|0:0,0:0:0:0:
456,283,70506,2,0,L|473:180,1,85,0|0,0:0|0:0,0:0:0:0:
475,156,70937,1,8,3:0:0:0:
469,28,71368,1,8,3:0:0:0:
469,28,71655,5,2,0:0:0:0:
387,51,71942,2,0,P|308:62|275:48,1,85,8|8,0:0|0:0,0:0:0:0:
266,42,72373,1,8,0:0:0:0:
139,60,72803,2,0,L|160:9,2,42.5,12|0|12,3:0|0:0|3:0,0:0:0:0:
70,110,73378,2,0,L|59:53,2,42.5,12|0|0,3:0|0:0|1:0,0:0:0:0:
53,193,73954,2,0,P|115:207|154:202,1,85,4|0,0:0|1:0,0:0:0:0:
209,162,74528,1,8,0:0:0:0:
209,162,74816,1,2,0:0:0:0:
253,233,75103,6,0,P|212:244|179:270,1,85,8|0,3:0|1:0,0:0:0:0:
164,310,75534,1,8,3:0:0:0:
283,353,75965,2,0,L|333:345,1,42.5,8|0,3:0|1:0,0:0:0:0:
366,337,76252,1,0,1:0:0:0:
366,337,76540,1,0,0:0:0:0:
434,286,76827,2,0,L|468:179,1,85,8|2,0:0|0:0,0:0:0:0:
460,119,77402,2,0,L|517:126,2,42.5,8|0|2,3:0|0:0|0:0,0:0:0:0:
417,107,77833,1,8,3:0:0:0:
315,29,78264,5,8,3:0:0:0:
315,29,78551,2,0,L|389:23,2,42.5,2|0|2,0:0|1:0|3:0,0:0:0:0:
232,49,79126,2,0,P|189:44|149:31,1,85,8|0,0:0|0:0,0:0:0:0:
65,22,79701,2,0,L|55:89,1,42.5,8|2,3:0|0:0,0:0:0:0:
43,147,80131,1,8,3:0:0:0:
33,277,80562,1,8,3:0:0:0:
33,277,80850,1,0,0:0:0:0:
80,347,81139,2,0,P|119:361|161:364,1,85,8|0,0:0|0:0,0:0:0:0:
203,354,81569,1,8,0:0:0:0:
328,329,82000,2,0,L|322:286,2,42.5,12|0|12,3:0|0:0|3:0,0:0:0:0:
413,333,82575,2,0,L|407:375,2,42.5,12|0|2,3:0|0:0|0:0,0:0:0:0:
452,257,83149,6,0,L|466:196,1,42.5,4|0,0:0|1:0,0:0:0:0:
470,173,83437,1,2,0:0:0:0:
476,88,83724,1,8,0:0:0:0:
476,88,84011,1,0,0:0:0:0:
443,9,84299,2,0,L|485:2,2,42.5,8|0|0,3:0|1:0|1:0,0:0:0:0:
401,20,84730,2,0,L|336:29,1,42.5,8|2,3:0|0:0,0:0:0:0:
276,46,85161,2,0,L|217:41,1,42.5,8|0,3:0|1:0,0:0:0:0:
194,25,85449,2,0,L|151:27,2,42.5,2|0|2,0:0|1:0|0:0,0:0:0:0:
175,107,86023,1,8,0:0:0:0:
51,246,86598,6,0,P|100:262|157:252,1,85,8|0,3:0|0:0,0:0:0:0:
164,234,87029,2,0,L|224:222,1,42.5,8|2,3:0|0:0,0:0:0:0:
288,203,87461,1,8,3:0:0:0:
288,203,87748,2,0,L|294:148,2,42.5,2|0|2,0:0|0:0|3:0,0:0:0:0:
271,286,88322,1,8,0:0:0:0:
439,309,88897,2,0,P|358:331|318:356,2,127.5,8|8|8,3:0|3:0|3:0,0:0:0:0:
472,230,90047,1,2,0:0:0:0:
488,146,90334,2,0,P|426:126|372:127,1,85,8|8,0:0|0:0,0:0:0:0:
365,135,90765,1,8,0:0:0:0:
264,212,91196,2,0,L|254:260,2,42.5,12|0|12,3:0|0:0|3:0,0:0:0:0:
197,158,91771,2,0,L|188:116,2,42.5,12|0|2,3:0|0:0|0:0,0:0:0:0:
140,222,92346,6,0,P|79:212|41:189,1,85,4|2,0:0|0:0,0:0:0:0:
37,119,92920,1,8,0:0:0:0:
37,119,93208,1,2,0:0:0:0:
95,57,93495,2,0,L|198:50,1,85,8|0,3:0|1:0,0:0:0:0:
219,34,93927,2,0,L|322:43,1,85,8|0,3:0|0:0,0:0:0:0:
344,52,94358,1,8,3:0:0:0:
428,63,94645,2,0,P|478:108|485:125,1,85,2|2,0:0|0:0,0:0:0:0:
475,207,95220,2,0,L|482:264,2,42.5,8|0|2,0:0|1:0|0:0,0:0:0:0:
402,161,95795,6,0,P|361:143|303:133,1,85,8|0,3:0|1:0,0:0:0:0:
279,141,96226,1,8,3:0:0:0:
179,221,96657,2,0,L|172:273,2,42.5,8|0|2,3:0|1:0|0:0,0:0:0:0:
171,136,97232,2,0,P|101:111|59:112,1,85,2|8,3:0|0:0,0:0:0:0:
21,159,97807,1,2,0:0:0:0:
21,159,98094,1,8,3:0:0:0:
36,285,98525,6,0,L|26:243,2,42.5,8|2|0,3:0|0:0|1:0,0:0:0:0:
44,326,98955,1,8,3:0:0:0:
212,302,99530,2,0,P|268:281|325:289,1,85,8|8,0:0|0:0,0:0:0:0:
329,302,99961,1,8,0:0:0:0:
431,226,100392,2,0,L|442:270,2,42.5,12|0|12,3:0|0:0|3:0,0:0:0:0:
351,181,100967,2,0,L|340:225,2,42.5,12|0|0,3:0|1:0|1:0,0:0:0:0:
389,103,101542,2,0,L|473:92,2,85,4|2|8,0:0|0:0|0:0,0:0:0:0:
307,79,102404,1,0,0:0:0:0:
227,48,102692,2,0,L|126:32,1,85,8|0,3:0|1:0,0:0:0:0:
100,31,103123,1,8,3:0:0:0:
38,142,103555,5,8,3:0:0:0:
38,142,103842,2,0,L|79:133,2,42.5,2|0|2,0:0|1:0|0:0,0:0:0:0:
23,225,104417,1,8,0:0:0:0:
117,366,104991,2,0,L|50:370,2,42.5,8|0|2,3:0|1:0|0:0,0:0:0:0:
159,360,105422,1,8,3:0:0:0:
191,239,105853,1,8,3:0:0:0:
191,239,106140,1,2,0:0:0:0:
275,229,106428,2,0,P|316:236|353:257,1,85,2|8,3:0|0:0,0:0:0:0:
426,300,107002,2,0,L|479:286,1,42.5,2|0,0:0|1:0,0:0:0:0:
503,266,107290,2,0,L|508:218,1,42.5,8|0,3:0|1:0,0:0:0:0:
478,143,107721,2,0,L|458:89,1,42.5,8|2,3:0|0:0,0:0:0:0:
420,36,108153,6,0,L|361:48,1,42.5,8|0,3:0|0:0,0:0:0:0:
338,52,108440,1,2,0:0:0:0:
259,83,108727,2,0,P|201:72|152:54,1,85,8|8,0:0|0:0,0:0:0:0:
144,35,109158,1,8,0:0:0:0:
107,157,109589,2,0,L|91:101,2,42.5,12|0|12,3:0|0:0|3:0,0:0:0:0:
176,205,110164,2,0,L|192:149,2,42.5,12|0|0,3:0|0:0|0:0,0:0:0:0:
249,248,110739,6,0,P|310:275|347:276,1,85,4|0,0:0|0:0,0:0:0:0:
401,235,111313,1,8,0:0:0:0:
401,235,111601,1,2,0:0:0:0:
444,162,111888,2,0,L|451:67,1,85,8|0,3:0|0:0,0:0:0:0:
446,34,112319,1,8,3:0:0:0:
318,26,112750,1,8,3:0:0:0:
246,72,113037,2,0,P|172:56|138:37,2,85,2|0|8,0:0|0:0|0:0,0:0:0:0:
317,117,113899,1,2,0:0:0:0:
264,183,114187,2,0,P|202:148|141:137,1,127.5,8|8,3:0|3:0,3:0:0:0:
42,210,115050,1,8,3:0:0:0:
42,210,115337,6,0,L|-6:217,2,42.5,2|0|0,0:0|0:0|0:0,0:0:0:0:
125,245,115912,1,8,0:0:0:0:
125,245,116199,1,0,0:0:0:0:
171,316,116486,2,0,P|228:323|284:348,1,85,8|2,3:0|0:0,0:0:0:0:
288,357,116917,1,8,3:0:0:0:
413,323,117348,1,8,3:0:0:0:
413,323,117636,1,2,0:0:0:0:
441,243,117923,6,0,P|361:226|340:209,1,85,8|8,0:0|0:0,0:0:0:0:
325,199,118354,1,8,0:0:0:0:
295,74,118785,2,0,L|309:18,2,42.5,12|0|12,3:0|0:0|3:0,0:0:0:0:
223,121,119361,2,0,L|209:65,2,42.5,12|0|0,3:0|0:0|0:0,0:0:0:0:
176,190,119935,2,0,P|133:188|92:176,1,85,4|0,0:0|0:0,0:0:0:0:
24,125,120510,1,8,0:0:0:0:
24,125,120797,1,2,0:0:0:0:
25,210,121084,2,0,L|37:301,1,85,8|0,3:0|0:0,0:0:0:0:
38,336,121515,1,8,3:0:0:0:
164,353,121946,1,8,3:0:0:0:
243,323,122234,6,0,P|292:307|360:318,1,85,2|0,0:0|0:0,0:0:0:0:
409,320,122809,1,8,0:0:0:0:
409,320,123096,1,2,0:0:0:0:
464,256,123383,2,0,L|519:267,2,42.5,8|0|2,3:0|0:0|0:0,0:0:0:0:
426,236,123814,1,8,3:0:0:0:
452,111,124245,1,8,3:0:0:0:
407,38,124533,2,0,L|461:18,2,42.5,2|0|0,0:0|0:0|0:0,0:0:0:0:
326,30,125107,1,8,0:0:0:0:
326,30,125395,1,0,0:0:0:0:
248,63,125683,6,0,P|195:52|144:22,1,85,0|0,0:0|0:0,0:0:0:0:
133,12,126114,2,0,P|79:11|26:24,1,85,8|0,3:0|0:0,0:0:0:0:
18,47,126545,1,8,3:0:0:0:
18,47,126832,1,2,0:0:0:0:
44,127,127120,2,0,P|95:152|155:153,1,85,8|0,0:0|0:0,0:0:0:0:
164,150,127550,1,8,0:0:0:0:
283,105,127981,2,0,L|295:55,2,42.5,12|0|12,3:0|0:0|3:0,0:0:0:0:
336,170,128556,2,0,L|360:135,2,42.5,12|0|0,3:0|0:0|0:0,0:0:0:0:
264,215,129132,5,4,0:0:0:0:
222,225,129275,2,0,L|172:215,1,42.5,0|0,1:0|0:0,0:0:0:0:
106,185,129706,1,8,0:0:0:0:
106,185,129994,1,2,0:0:0:0:
45,254,130281,2,0,P|93:275|136:311,1,85,8|2,3:0|0:0,0:0:0:0:
144,328,130712,2,0,L|196:321,1,42.5,8|0,3:0|1:0,0:0:0:0:
250,266,131143,1,8,3:0:0:0:
330,291,131430,2,0,L|308:341,2,42.5,2|0|0,0:0|1:0|0:0,0:0:0:0:
411,259,132005,1,8,0:0:0:0:
411,259,132292,1,0,1:0:0:0:
465,193,132580,6,0,L|473:85,1,85,8|2,3:0|0:0,0:0:0:0:
475,65,133011,1,8,3:0:0:0:
351,69,133442,1,8,3:0:0:0:
351,69,133730,2,0,L|364:118,2,42.5,2|0|0,0:0|1:0|0:0,0:0:0:0:
276,40,134305,1,8,0:0:0:0:
276,40,134592,1,0,0:0:0:0:
202,81,134879,2,0,P|139:62|92:25,1,85,8|0,3:0|1:0,0:0:0:0:
87,28,135310,1,8,3:0:0:0:
50,148,135741,1,8,3:0:0:0:
50,148,136028,5,2,0:0:0:0:
116,201,136315,2,0,L|217:182,1,85,8|8,0:0|0:0,0:0:0:0:
239,170,136746,1,8,0:0:0:0:
326,90,137177,2,0,L|305:45,2,42.5,12|0|12,3:0|0:0|3:0,0:0:0:0:
407,116,137752,2,0,L|412:68,2,42.5,12|0|0,3:0|0:0|1:0,0:0:0:0:
402,200,138327,2,0,L|484:178,2,85,4|2|8,0:0|0:0|0:0,0:0:0:0:
326,239,139189,6,0,L|277:223,1,42.5,2|0,0:0|1:0,0:0:0:0:
244,215,139477,1,8,3:0:0:0:
116,223,139908,2,0,L|60:239,1,42.5,8|2,3:0|0:0,0:0:0:0:
14,294,140339,1,8,3:0:0:0:
14,294,140627,2,0,L|7:364,2,42.5,2|0|2,0:0|1:0|0:0,0:0:0:0:
14,208,141202,2,0,L|9:160,1,42.5,8|0,0:0|1:0,0:0:0:0:
14,123,141489,1,2,0:0:0:0:
57,49,141776,6,0,P|131:27|173:38,1,85,8|2,3:0|0:0,0:0:0:0:
175,46,142207,2,0,L|232:55,1,42.5,8|2,3:0|0:0,0:0:0:0:
302,51,142637,1,8,3:0:0:0:
387,55,142925,2,0,L|396:6,2,42.5,2|0|2,0:0|0:0|3:0,0:0:0:0:
437,129,143499,1,8,0:0:0:0:
437,129,143787,1,0,0:0:0:0:
412,210,144075,6,0,L|509:198,2,85,8|2|2,3:0|0:0|0:0,0:0:0:0:
330,209,144937,1,8,3:0:0:0:
330,209,145224,1,2,0:0:0:0:
283,280,145512,2,0,L|199:263,1,85,8|8,0:0|0:0,0:0:0:0:
160,246,145943,1,8,0:0:0:0:
59,168,146374,2,0,L|33:109,2,42.5,12|0|12,3:0|0:0|3:0,0:0:0:0:
117,106,146949,2,0,L|126:44,2,42.5,12|0|2,3:0|0:0|0:0,0:0:0:0:
178,164,147524,2,0,P|224:149|274:103,1,85,4|0,0:0|0:0,0:0:0:0:
297,56,148099,1,8,0:0:0:0:
297,56,148386,1,2,0:0:0:0:
378,32,148673,6,0,P|419:39|455:61,1,85,8|2,3:0|0:0,0:0:0:0:
479,96,149104,2,0,L|470:149,1,42.5,8|2,3:0|0:0,0:0:0:0:
462,222,149536,1,8,3:0:0:0:
438,306,149823,1,2,0:0:0:0:
438,306,150111,1,2,0:0:0:0:
370,255,150398,2,0,L|308:248,1,42.5,8|0,0:0|0:0,0:0:0:0:
285,254,150685,1,2,0:0:0:0:
223,312,150973,2,0,P|179:336|96:321,1,127.5,8|0,3:0|0:0,0:0:0:0:
37,217,151835,1,8,3:0:0:0:
57,134,152122,6,0,L|10:125,2,42.5,2|0|2,0:0|1:0|3:0,0:0:0:0:
112,68,152697,2,0,P|161:39|202:38,1,85,8|0,0:0|1:0,0:0:0:0:
248,96,153271,2,0,P|310:105|351:88,1,85,8|2,3:0|0:0,0:0:0:0:
361,69,153702,2,0,L|415:80,1,42.5,8|2,3:0|0:0,0:0:0:0:
459,141,154133,1,8,3:0:0:0:
434,222,154421,2,0,L|489:214,2,42.5,0|0|8,1:0|1:0|0:0,0:0:0:0:
377,285,154995,2,0,L|323:291,1,42.5,8|8,0:0|0:0,0:0:0:0:
296,308,155283,1,2,0:0:0:0:
211,313,155570,2,0,L|221:364,2,42.5,12|0|12,3:0|0:0|3:0,0:0:0:0:
130,284,156145,2,0,L|120:335,2,42.5,12|0|2,3:0|0:0|0:0,0:0:0:0:
89,209,156720,6,0,P|60:234|-20:240,2,85,4|2|8,0:0|0:0|0:0,0:0:0:0:
75,39,157870,2,0,L|207:58,1,127.5,8|0,3:0|0:0,0:0:0:0:
328,45,158732,1,8,3:0:0:0:
405,79,159019,2,0,P|359:93|335:126,1,85,2|2,0:0|0:0,0:0:0:0:
349,205,159594,1,8,0:0:0:0:
349,205,159881,1,2,0:0:0:0:
425,167,160168,2,0,L|446:272,1,85,8|2,3:0|0:0,0:0:0:0:
412,330,160743,2,0,L|470:341,2,42.5,2|0|8,0:0|1:0|3:0,0:0:0:0:
327,319,161318,2,0,L|263:323,1,42.5,2|0,0:0|1:0,0:0:0:0:
246,339,161605,1,2,3:0:0:0:
162,322,161892,1,8,0:0:0:0:
55,189,162467,6,0,P|24:244|13:307,2,127.5,8|8|8,3:0|3:0|3:0,0:0:0:0:
79,107,163617,2,0,L|16:116,2,42.5,2|0|8,0:0|1:0|0:0,0:0:0:0:
145,53,164192,1,8,0:0:0:0:
314,44,164767,2,0,L|257:26,2,42.5,12|0|0,3:0|0:0|0:0,0:0:0:0:
374,103,165341,2,0,L|431:85,2,42.5,12|0|2,3:0|0:0|0:0,0:0:0:0:
305,153,165916,1,4,0:0:0:0:
256,192,172526,12,4,175112,0:0:0:0:
25,314,176262,6,0,P|67:268|145:259,1,127.5,8|8,3:0|3:0,0:0:0:0:
252,288,177124,2,0,L|241:242,2,42.5,8|0|2,3:0|1:0|0:0,0:0:0:0:
308,351,177699,1,2,0:0:0:0:
386,317,177987,2,0,L|450:310,1,42.5,8|0,0:0|1:0,0:0:0:0:
401,188,178561,2,0,P|454:168|492:104,1,127.5,8|8,3:0|3:0,0:0:0:0:
401,19,179423,1,8,3:0:0:0:
325,59,179711,2,0,L|250:65,1,42.5,2|0,0:0|1:0,0:0:0:0:
241,50,179998,1,2,3:0:0:0:
158,69,180286,6,0,P|131:50|107:40,2,42.5,8|0|0,0:0|0:0|1:0,0:0:0:0:
178,151,180861,1,8,3:0:0:0:
228,267,181292,2,0,P|273:311|334:325,1,127.5,8|0,3:0|0:0,0:0:0:0:
414,298,182010,2,0,L|434:368,2,42.5,2|0|8,0:0|1:0|0:0,0:0:0:0:
449,220,182585,2,0,L|453:167,1,42.5,8|8,0:0|0:0,0:0:0:0:
459,135,182872,1,0,0:0:0:0:
378,108,183160,2,0,L|387:54,2,42.5,12|0|0,3:0|0:0|0:0,0:0:0:0:
301,144,183734,2,0,L|307:185,2,42.5,12|0|0,3:0|0:0|0:0,0:0:0:0:
224,105,184309,6,0,P|186:122|163:158,1,85,4|0,0:0|0:0,0:0:0:0:
88,205,184884,1,8,0:0:0:0:
88,205,185171,1,2,0:0:0:0:
90,289,185458,2,0,P|156:274|230:349,1,170,8|2,3:0|0:0,0:0:0:0:
312,344,186320,1,8,3:0:0:0:
388,309,186608,2,0,P|428:295|455:262,1,85,2|0,0:0|0:0,0:0:0:0:
466,178,187182,1,8,0:0:0:0:
466,178,187470,1,2,0:0:0:0:
422,105,187757,2,0,P|493:65|508:17,2,127.5,8|8|8,3:0|3:0|3:0,0:0:0:0:
345,66,188907,6,0,L|361:6,2,42.5,2|0|2,0:0|0:0|3:0,0:0:0:0:
304,140,189482,1,8,0:0:0:0:
260,67,189769,1,0,0:0:0:0:
186,109,190057,2,0,P|134:103|67:43,1,127.5,8|8,3:0|3:0,0:0:0:0:
52,183,190918,1,8,3:0:0:0:
52,183,191206,1,2,0:0:0:0:
38,266,191494,2,0,L|143:245,1,85,8|8,0:0|0:0,0:0:0:0:
163,251,191925,1,8,0:0:0:0:
276,309,192356,2,0,L|265:368,2,42.5,12|0|12,3:0|0:0|3:0,0:0:0:0:
358,286,192931,2,0,L|369:345,2,42.5,12|0|0,3:0|0:0|0:0,0:0:0:0:
409,218,193505,6,0,P|466:170|461:78,1,170,4|8,0:0|0:0,0:0:0:0:
389,36,194367,1,2,0:0:0:0:
314,76,194655,2,0,P|260:41|199:24,2,127.5,8|8|8,3:0|3:0|3:0,0:0:0:0:
328,159,195804,1,2,0:0:0:0:
352,327,196379,2,0,P|311:303|272:296,1,85,8|2,0:0|0:0,0:0:0:0:
190,304,196953,2,0,P|135:347|71:351,2,127.5,8|8|8,3:0|3:0|3:0,0:0:0:0:
169,221,198104,2,0,L|100:242,2,42.5,2|0|0,0:0|0:0|0:0,0:0:0:0:
176,136,198678,1,8,0:0:0:0:
176,136,198966,1,0,0:0:0:0:
196,53,199253,2,0,P|262:50|320:20,2,127.5,8|8|8,3:0|3:0|3:0,0:0:0:0:
121,94,200402,5,2,0:0:0:0:
121,94,200690,1,8,0:0:0:0:
61,154,200977,2,0,L|50:242,1,85,8|2,0:0|0:0,0:0:0:0:
96,309,201552,2,0,L|26:324,2,42.5,12|0|12,3:0|0:0|3:0,0:0:0:0:
170,350,202126,2,0,L|240:365,2,42.5,12|0|0,3:0|0:0|0:0,0:0:0:0:
199,270,202701,6,0,P|237:252|260:216,1,85,4|0,0:0|0:0,0:0:0:0:
249,132,203276,1,8,0:0:0:0:
249,132,203563,1,2,0:0:0:0:
300,64,203850,2,0,P|367:61|425:149,1,170,8|2,3:0|0:0,0:0:0:0:
462,214,204712,1,8,3:0:0:0:
428,292,205000,2,0,P|385:294|348:273,1,85,2|0,0:0|0:0,0:0:0:0:
307,200,205575,1,8,0:0:0:0:
307,200,205863,1,2,0:0:0:0:
252,135,206150,2,0,P|199:114|178:86,1,85,8|2,3:0|0:0,0:0:0:0:
112,43,206725,1,0,1:0:0:0:
112,43,207012,1,8,3:0:0:0:
38,86,207300,6,0,L|27:44,2,42.5,2|0|0,0:0|0:0|0:0,0:0:0:0:
46,174,207875,1,8,0:0:0:0:
46,174,208162,1,0,0:0:0:0:
29,257,208450,2,0,P|89:256|148:323,1,127.5,0|0,0:0|0:0,0:0:0:0:
251,368,209311,1,8,3:0:0:0:
251,368,209599,1,2,0:0:0:0:
315,313,209886,2,0,L|415:301,1,85,8|8,0:0|0:0,0:0:0:0:
441,304,210317,1,8,0:0:0:0:
446,176,210748,2,0,L|453:134,2,42.5,12|0|12,3:0|0:0|3:0,0:0:0:0:
362,157,211323,2,0,L|354:115,2,42.5,12|0|0,3:0|0:0|0:0,0:0:0:0:
288,199,211897,5,6,0:0:0:0:
