osu file format v14

[General]
AudioFilename: audio.mp3
AudioLeadIn: 0
PreviewTime: 124389
Countdown: 0
SampleSet: Soft
StackLeniency: 0.7
Mode: 0
LetterboxInBreaks: 0
WidescreenStoryboard: 0

[Editor]
Bookmarks: 46939
DistanceSpacing: 1.6
BeatDivisor: 4
GridSize: 32
TimelineZoom: 0.9999999

[Metadata]
Title:Mo Money Mo Problems (feat. Mase & Puff Daddy)
TitleUnicode:Mo Money Mo Problems (feat. Mase & Puff Daddy)
Artist:The Notorious B.I.G.
ArtistUnicode:The Notorious B.I.G.
Creator:RealMetMuster
Version:Hard
Source:
Tags:hip hop, rap, funk, funky, biggie, the notorious b.i.g., 1997, smalls, mase, life after death, puffy, puff daddy, diddy, old school, hip hop, flow, east coast, new york, brooklyn, junior mafia, bad boy, records, kelly price, Kloyd, 5840097
BeatmapID:2937923
BeatmapSetID:745468

[Difficulty]
HPDrainRate:3.7
CircleSize:3.7
OverallDifficulty:6
ApproachRate:8
SliderMultiplier:1.8
SliderTickRate:1

[Events]
//Background and Video events
0,0,"notorious-big-puff-daddy.jpg",0,0
//Break Periods
//Storyboard Layer 0 (Background)
//Storyboard Layer 1 (Fail)
//Storyboard Layer 2 (Pass)
//Storyboard Layer 3 (Foreground)
//Storyboard Layer 4 (Overlay)
//Storyboard Sound Samples

[TimingPoints]
18776,574.767698055369,4,2,1,77,1,0
55561,-100,4,2,1,77,0,1
73810,-100,4,2,1,77,0,0
110738,-100,4,2,1,77,0,1
128987,-100,4,2,1,77,0,0
184309,-100,4,2,1,77,0,1
211897,-100,4,2,1,77,0,0

[Colours]
Combo1 : 0,108,63
Combo2 : 0,170,0
Combo3 : 0,70,121
Combo4 : 128,0,128
Combo5 : 255,192,0

[HitObjects]
115,55,18775,6,0,P|72:44|8:67,2,90,4|2|8,0:0|0:0|0:0,0:0:0:0:
10,155,19638,2,0,P|7:177|10:199,1,45,2|0,0:0|0:0,0:0:0:0:
44,263,19925,5,10,3:0:0:0:
44,263,20212,1,0,1:0:0:0:
112,239,20356,5,10,3:0:0:0:
112,239,20643,1,0,0:0:0:0:
100,309,20787,6,0,P|142:291|234:297,1,135,10|0,3:0|1:0,0:0:0:0:
265,232,21362,2,0,P|283:246|299:278,1,45,0|0,1:0|0:0,0:0:0:0:
293,336,21649,5,8,0:0:0:0:
435,355,21937,1,2,0:0:0:0:
495,224,22224,2,0,P|450:226|410:246,1,90,10|0,3:0|0:0,0:0:0:0:
354,200,22655,2,0,P|374:160|377:115,1,90,10|0,3:0|0:0,0:0:0:0:
445,89,23086,2,0,P|469:126|506:151,1,90,10|0,3:0|1:0,0:0:0:0:
506,151,23517,5,0,1:0:0:0:
495,224,23662,1,2,3:0:0:0:
353,199,23948,2,0,P|338:158|338:113,1,90,8|2,0:0|0:0,0:0:0:0:
365,46,24379,1,0,0:0:0:0:
364,46,24523,6,0,P|322:59|277:62,1,90,10|2,3:0|0:0,0:0:0:0:
216,101,24954,2,0,P|171:92|127:94,1,90,10|0,3:0|1:0,0:0:0:0:
59,69,25385,1,10,3:0:0:0:
59,69,25961,5,8,0:0:0:0:
34,210,26248,1,8,0:0:0:0:
16,138,26392,2,0,P|60:142|93:171,1,90,8|0,0:0|0:0,0:0:0:0:
105,242,26823,6,0,L|91:292,1,45,12|0,3:0|0:0,0:0:0:0:
20,286,27110,2,0,L|34:336,1,45,12|2,3:0|0:0,0:0:0:0:
98,357,27397,2,0,L|217:365,1,90,2|2,0:0|0:0,0:0:0:0:
288,322,27828,1,0,0:0:0:0:
287,322,27972,6,0,P|332:329|369:353,2,90,4|2|8,0:0|0:0|0:0,0:0:0:0:
183,222,28834,2,0,P|181:199|186:177,1,45,0|0,0:0|0:0,0:0:0:0:
224,116,29121,1,10,3:0:0:0:
224,116,29409,5,2,0:0:0:0:
294,133,29553,5,10,3:0:0:0:
294,133,29840,1,0,0:0:0:0:
362,150,29983,6,0,P|394:91|393:24,1,135,10|0,3:0|0:0,0:0:0:0:
323,5,30558,1,0,0:0:0:0:
224,116,30845,1,8,0:0:0:0:
142,0,31133,1,0,1:0:0:0:
79,34,31276,1,0,1:0:0:0:
14,66,31420,6,0,L|35:168,1,90,10|2,3:0|0:0,0:0:0:0:
79,208,31851,2,0,L|182:214,1,90,10|0,3:0|0:0,0:0:0:0:
240,221,32282,2,0,L|261:323,1,90,10|2,3:0|0:0,0:0:0:0:
258,309,32713,5,0,0:0:0:0:
206,360,32857,1,2,3:0:0:0:
106,254,33145,2,0,P|66:271|36:305,1,90,8|2,0:0|0:0,0:0:0:0:
17,374,33576,1,0,0:0:0:0:
88,368,33720,6,0,L|182:359,1,90,10|2,3:0|0:0,0:0:0:0:
228,309,34151,2,0,L|322:317,1,90,10|0,3:0|0:0,0:0:0:0:
374,361,34582,1,10,3:0:0:0:
374,360,34869,6,0,P|394:321|396:276,1,90,2|8,0:0|0:0,0:0:0:0:
320,153,35444,1,8,0:0:0:0:
269,204,35587,2,0,P|271:248|291:288,1,90,8|0,0:0|0:0,0:0:0:0:
345,336,36018,6,0,L|394:332,1,45,12|0,3:0|0:0,0:0:0:0:
462,332,36306,2,0,L|469:271,1,45,12|0,3:0|0:0,0:0:0:0:
476,215,36593,6,0,L|427:219,1,45,12|0,3:0|0:0,0:0:0:0:
359,219,36881,2,0,L|352:280,1,45,0|2,0:0|0:0,0:0:0:0:
345,336,37169,6,0,L|394:332,2,45,4|2|0,0:0|0:0|1:0,0:0:0:0:
280,368,37600,1,0,1:0:0:0:
277,296,37743,2,0,P|233:304|205:346,1,90,8|2,0:0|0:0,0:0:0:0:
206,338,38174,1,0,0:0:0:0:
141,369,38318,5,10,3:0:0:0:
141,369,38605,1,2,0:0:0:0:
83,325,38749,5,10,3:0:0:0:
83,325,39036,1,0,0:0:0:0:
18,358,39180,5,10,3:0:0:0:
3,214,39467,1,2,0:0:0:0:
44,75,39755,1,2,0:0:0:0:
175,16,40042,2,0,L|165:124,1,90,8|2,0:0|0:0,0:0:0:0:
158,177,40473,1,0,1:0:0:0:
149,247,40617,6,0,P|183:219|223:199,1,90,10|2,3:0|0:0,0:0:0:0:
284,237,41048,2,0,P|291:281|289:326,1,90,10|0,3:0|0:0,0:0:0:0:
229,366,41479,6,0,P|186:350|149:325,2,90,10|2|2,3:0|0:0|3:0,0:0:0:0:
300,373,42197,1,0,1:0:0:0:
371,369,42341,2,0,P|392:361|411:347,2,45,8|0|2,0:0|1:0|0:0,0:0:0:0:
308,238,42916,6,0,P|352:239|392:259,1,90,10|2,3:0|0:0,0:0:0:0:
440,200,43347,2,0,P|461:239|464:283,1,90,10|0,3:0|0:0,0:0:0:0:
466,355,43778,1,10,3:0:0:0:
322,346,44065,5,2,0:0:0:0:
232,232,44353,1,8,0:0:0:0:
301,105,44640,1,8,0:0:0:0:
301,105,44784,1,8,0:0:0:0:
301,105,45072,5,0,1:0:0:0:
359,62,45216,2,0,L|414:54,1,45,12|0,3:0|0:0,0:0:0:0:
464,17,45503,2,0,L|519:9,1,45,12|0,3:0|0:0,0:0:0:0:
509,82,45790,2,0,P|511:141|493:187,1,90,12|0,3:0|1:0,0:0:0:0:
504,242,46221,1,0,0:0:0:0:
504,242,46365,6,0,P|468:214|426:199,1,90,4|2,0:0|0:0,0:0:0:0:
284,174,46940,1,8,0:0:0:0:
284,174,47227,2,0,L|292:230,1,45,2|0,0:0|1:0,0:0:0:0:
302,289,47514,5,10,3:0:0:0:
302,289,47802,1,2,0:0:0:0:
372,302,47945,5,10,3:0:0:0:
372,302,48232,1,0,0:0:0:0:
442,317,48376,5,10,3:0:0:0:
442,317,48951,5,2,0:0:0:0:
505,187,49238,2,0,L|508:140,2,45,8|0|2,0:0|1:0|0:0,0:0:0:0:
441,316,49813,6,0,P|418:278|408:235,1,90,10|0,3:0|1:0,0:0:0:0:
336,230,50244,2,0,P|334:185|348:142,1,90,10|0,3:0|0:0,0:0:0:0:
390,83,50675,1,10,3:0:0:0:
509,2,50962,6,0,L|503:49,1,45,2|0,0:0|1:0,0:0:0:0:
464,108,51250,2,0,L|478:207,1,90,2|8,3:0|0:0,0:0:0:0:
476,268,51681,2,0,P|460:254|438:248,1,45,0|2,1:0|0:0,0:0:0:0:
294,246,52112,6,0,L|305:352,1,90,10|2,3:0|0:0,0:0:0:0:
232,348,52543,2,0,L|222:258,1,90,10|0,3:0|1:0,0:0:0:0:
150,255,52974,2,0,L|159:344,1,90,10|2,3:0|0:0,0:0:0:0:
16,362,53548,5,8,0:0:0:0:
37,219,53836,2,0,L|100:210,2,45,8|8|2,0:0|0:0|0:0,0:0:0:0:
14,77,54411,6,0,L|77:68,1,45,12|0,3:0|0:0,0:0:0:0:
110,20,54699,2,0,L|173:11,1,45,12|0,3:0|0:0,0:0:0:0:
197,71,54986,2,0,L|299:56,1,90,12|0,3:0|0:0,0:0:0:0:
347,19,55417,1,0,0:0:0:0:
416,39,55561,6,0,P|487:90|507:176,1,180,4|8,0:0|0:0,0:0:0:0:
412,285,56423,1,2,0:0:0:0:
379,144,56710,2,0,L|439:158,1,45,8|0,3:0|0:0,0:0:0:0:
493,168,56998,1,0,0:0:0:0:
493,168,57142,2,0,L|499:311,1,135,8|8,3:0|3:0,0:0:0:0:
455,361,57717,1,0,0:0:0:0:
385,342,57860,6,0,P|340:290|358:179,1,180,2|8,0:0|0:0,0:0:0:0:
417,56,58722,2,0,L|427:123,1,45,2|0,0:0|0:0,0:0:0:0:
465,158,59009,6,0,P|486:169|508:171,2,45,8|0|2,3:0|0:0|0:0,0:0:0:0:
394,167,59440,2,0,P|395:189|404:209,2,45,8|0|0,3:0|1:0|0:0,0:0:0:0:
348,111,59871,2,0,P|329:123|316:141,1,45,8|0,3:0|0:0,0:0:0:0:
316,213,60159,6,0,L|321:273,2,45,2|0|2,0:0|0:0|3:0,0:0:0:0:
185,150,60734,2,0,L|167:238,1,90,8|0,0:0|0:0,0:0:0:0:
99,261,61165,1,0,0:0:0:0:
29,277,61308,6,0,P|14:329|20:370,2,90,8|2|2,3:0|0:0|0:0,0:0:0:0:
7,134,62170,2,0,L|62:143,1,45,8|0,3:0|1:0,0:0:0:0:
117,110,62458,6,0,P|132:58|126:17,2,90,2|8|8,0:0|0:0|0:0,0:0:0:0:
78,171,63177,2,0,P|121:158|166:156,1,90,8|0,0:0|0:0,0:0:0:0:
229,122,63608,2,0,P|237:147|233:182,1,45,12|0,3:0|0:0,0:0:0:0:
219,235,63895,2,0,P|213:260|192:288,1,45,12|0,3:0|0:0,0:0:0:0:
155,330,64182,2,0,L|260:334,1,90,12|0,3:0|0:0,0:0:0:0:
316,338,64613,1,0,0:0:0:0:
387,343,64757,6,0,P|466:348|499:251,1,180,4|8,0:0|0:0,0:0:0:0:
419,148,65619,1,2,0:0:0:0:
343,24,65906,2,0,L|387:17,1,45,8|0,3:0|0:0,0:0:0:0:
459,27,66194,1,0,0:0:0:0:
459,27,66338,2,0,P|456:97|414:151,1,135,8|8,3:0|3:0,0:0:0:0:
354,181,66913,1,0,0:0:0:0:
283,170,67056,6,0,P|238:222|256:333,1,180,2|8,0:0|0:0,0:0:0:0:
108,351,67918,2,0,L|115:306,1,45,2|0,0:0|0:0,0:0:0:0:
148,241,68206,6,0,P|169:230|191:228,2,45,8|0|2,3:0|0:0|0:0,0:0:0:0:
77,232,68637,2,0,P|78:210|87:190,2,45,8|0|0,3:0|1:0|0:0,0:0:0:0:
31,288,69068,2,0,P|12:276|-1:258,1,45,8|0,3:0|0:0,0:0:0:0:
9,186,69356,6,0,L|-1:143,2,45,2|0|0,0:0|0:0|0:0,0:0:0:0:
87,64,69931,2,0,L|82:158,1,90,8|0,0:0|0:0,0:0:0:0:
141,195,70362,1,0,0:0:0:0:
209,174,70505,6,0,P|224:122|218:81,2,90,8|2|2,3:0|0:0|0:0,0:0:0:0:
163,36,71367,2,0,L|111:47,1,45,8|0,3:0|1:0,0:0:0:0:
58,86,71655,6,0,P|26:50|27:8,2,90,2|8|8,0:0|0:0|0:0,0:0:0:0:
76,155,72373,2,0,P|119:142|164:140,1,90,8|0,0:0|0:0,0:0:0:0:
235,135,72804,2,0,P|243:160|239:195,1,45,12|0,3:0|0:0,0:0:0:0:
210,243,73091,2,0,P|216:268|237:296,1,45,12|0,3:0|0:0,0:0:0:0:
264,345,73378,2,0,L|174:341,1,90,12|0,3:0|1:0,0:0:0:0:
101,341,73810,1,0,1:0:0:0:
101,341,73953,6,0,L|112:273,1,45,4|0,0:0|0:0,0:0:0:0:
17,184,74385,2,0,L|113:216,1,90,2|0,0:0|0:0,0:0:0:0:
165,180,74816,2,0,P|165:154|153:129,1,45,2|0,0:0|1:0,0:0:0:0:
102,212,75103,1,0,0:0:0:0:
45,100,75390,2,0,P|46:77|56:54,2,45,0|8|2,1:0|3:0|0:0,0:0:0:0:
158,11,75965,1,8,3:0:0:0:
283,75,76252,6,0,L|274:190,1,90,0|0,1:0|0:0,0:0:0:0:
241,228,76683,2,0,L|257:328,1,90,2|0,0:0|0:0,0:0:0:0:
310,363,77114,1,2,0:0:0:0:
378,341,77258,2,0,P|430:343|466:369,2,90,0|0|8,1:0|0:0|3:0,0:0:0:0:
326,288,77976,2,0,P|352:253|391:230,1,90,2|8,0:0|3:0,0:0:0:0:
489,124,78551,6,0,L|500:184,2,45,2|0|2,0:0|1:0|3:0,0:0:0:0:
381,27,79126,1,8,0:0:0:0:
316,155,79413,1,0,0:0:0:0:
316,155,79558,2,0,P|363:158|413:134,2,90,0|2|8,1:0|0:0|3:0,0:0:0:0:
254,117,80276,1,2,0:0:0:0:
206,252,80563,1,8,3:0:0:0:
146,210,80707,2,0,P|99:207|49:231,2,90,2|2|0,0:0|0:0|0:0,0:0:0:0:
211,180,81425,2,0,L|310:195,1,90,8|0,0:0|0:0,0:0:0:0:
370,206,81856,1,0,0:0:0:0:
431,243,82000,6,0,L|414:301,1,45,12|0,3:0|0:0,0:0:0:0:
488,303,82287,2,0,L|471:361,1,45,12|0,3:0|0:0,0:0:0:0:
404,361,82575,2,0,L|296:381,1,90,12|2,3:0|0:0,0:0:0:0:
182,322,83150,2,0,P|121:338|85:370,2,90,4|2|8,0:0|0:0|0:0,0:0:0:0:
324,346,84012,1,0,0:0:0:0:
221,243,84299,2,0,L|200:177,1,45,8|0,3:0|1:0,0:0:0:0:
193,133,84587,1,0,1:0:0:0:
193,133,84731,1,8,3:0:0:0:
180,62,84874,2,0,L|81:47,1,90,2|8,0:0|3:0,0:0:0:0:
31,181,85449,5,2,0:0:0:0:
31,181,85592,1,0,1:0:0:0:
22,251,85736,2,0,P|33:271|48:288,1,45,2|0,0:0|1:0,0:0:0:0:
99,339,86023,2,0,L|214:324,1,90,8|0,0:0|0:0,0:0:0:0:
323,277,86599,2,0,P|355:307|439:349,1,135,10|2,3:0|0:0,0:0:0:0:
491,302,87174,2,0,P|508:233|504:202,1,90,2|10,0:0|0:0,0:0:0:0:
442,86,87748,2,0,L|490:80,2,45,2|0|2,0:0|0:0|3:0,0:0:0:0:
302,50,88322,1,8,0:0:0:0:
302,50,88610,1,0,0:0:0:0:
159,70,88898,6,0,L|50:57,1,90,10|0,3:0|0:0,0:0:0:0:
35,124,89329,1,10,3:0:0:0:
35,124,89760,1,10,3:0:0:0:
43,267,90047,1,2,0:0:0:0:
129,151,90334,2,0,L|239:135,1,90,8|8,0:0|0:0,0:0:0:0:
292,129,90765,1,8,0:0:0:0:
292,129,90909,1,2,0:0:0:0:
429,169,91196,6,0,L|376:158,1,45,12|0,3:0|0:0,0:0:0:0:
324,199,91484,2,0,L|279:208,1,45,12|0,3:0|0:0,0:0:0:0:
213,237,91771,2,0,L|104:211,1,90,12|2,3:0|0:0,0:0:0:0:
77,352,92346,6,0,P|107:322|171:308,1,90,4|2,0:0|0:0,0:0:0:0:
220,328,92777,1,0,1:0:0:0:
291,325,92920,2,0,P|317:332|346:360,1,45,8|0,0:0|1:0,0:0:0:0:
404,342,93208,2,0,P|430:335|459:307,1,45,2|0,0:0|0:0,0:0:0:0:
469,257,93495,2,0,L|476:146,1,90,10|0,3:0|1:0,0:0:0:0:
403,157,93926,2,0,L|397:274,1,90,10|0,3:0|0:0,0:0:0:0:
399,246,94357,1,10,3:0:0:0:
279,165,94645,6,0,P|237:150|211:114,1,90,2|2,0:0|0:0,0:0:0:0:
208,42,95076,1,0,0:0:0:0:
139,63,95220,2,0,L|86:52,1,45,8|0,0:0|1:0,0:0:0:0:
25,33,95507,1,2,0:0:0:0:
36,175,95795,2,0,L|27:270,1,90,10|0,3:0|1:0,0:0:0:0:
27,264,96226,2,0,L|110:303,1,90,10|0,3:0|0:0,0:0:0:0:
108,302,96657,1,10,3:0:0:0:
176,280,96800,1,0,1:0:0:0:
242,307,96944,2,0,L|234:361,2,45,2|0|2,0:0|1:0|3:0,0:0:0:0:
227,163,97519,1,8,0:0:0:0:
341,76,97806,6,0,L|404:69,1,45,2|0,0:0|1:0,0:0:0:0:
457,61,98093,1,10,3:0:0:0:
453,276,98524,2,0,P|395:230|351:219,1,90,10|0,3:0|1:0,0:0:0:0:
308,219,98955,1,10,3:0:0:0:
191,303,99243,1,2,0:0:0:0:
191,303,99386,1,0,0:0:0:0:
124,274,99530,2,0,L|52:251,1,45,8|0,0:0|1:0,0:0:0:0:
38,201,99818,1,8,0:0:0:0:
38,201,99962,1,8,0:0:0:0:
109,190,100106,1,0,1:0:0:0:
57,55,100393,6,0,P|80:70|123:71,1,45,12|0,3:0|0:0,0:0:0:0:
160,40,100680,2,0,P|182:42|206:55,1,45,12|0,3:0|0:0,0:0:0:0:
273,66,100968,2,0,L|270:8,2,45,12|0|0,3:0|1:0|1:0,0:0:0:0:
397,139,101542,5,4,0:0:0:0:
397,139,101830,1,2,0:0:0:0:
490,248,102117,2,0,P|434:273|407:323,1,90,8|0,0:0|0:0,0:0:0:0:
285,353,102692,2,0,L|232:336,2,45,10|0|0,3:0|1:0|1:0,0:0:0:0:
357,348,103123,1,10,3:0:0:0:
141,354,103554,5,10,3:0:0:0:
141,354,103841,1,2,0:0:0:0:
68,353,103985,2,0,L|60:295,1,45,0|2,1:0|0:0,0:0:0:0:
44,165,104417,1,8,0:0:0:0:
68,26,104704,1,0,0:0:0:0:
203,73,104991,6,0,P|220:58|240:49,2,45,10|0|2,3:0|1:0|0:0,0:0:0:0:
169,136,105422,1,10,3:0:0:0:
188,205,105565,2,0,L|248:192,1,45,2|0,0:0|1:0,0:0:0:0:
300,173,105853,1,10,3:0:0:0:
439,201,106140,2,0,P|396:212|362:253,2,90,2|2|8,0:0|3:0|0:0,0:0:0:0:
391,337,107002,1,2,0:0:0:0:
391,337,107146,1,0,1:0:0:0:
322,315,107290,2,0,L|262:329,1,45,10|0,3:0|1:0,0:0:0:0:
207,312,107577,2,0,L|163:301,1,45,0|10,1:0|3:0,0:0:0:0:
94,325,107864,1,2,0:0:0:0:
94,325,108008,1,0,1:0:0:0:
35,282,108152,1,10,3:0:0:0:
109,159,108439,6,0,P|58:179|21:225,2,90,2|8|8,0:0|0:0|0:0,0:0:0:0:
180,168,109158,1,8,0:0:0:0:
341,25,109589,2,0,L|351:78,1,45,12|0,3:0|0:0,0:0:0:0:
421,67,109877,2,0,L|411:120,1,45,12|0,3:0|0:0,0:0:0:0:
363,163,110164,2,0,L|368:214,1,45,12|0,3:0|0:0,0:0:0:0:
413,263,110451,2,0,L|408:314,1,45,0|0,0:0|0:0,0:0:0:0:
353,355,110738,6,0,P|275:341|224:269,1,135,4|0,0:0|0:0,0:0:0:0:
237,230,111313,1,8,0:0:0:0:
237,89,111601,1,2,0:0:0:0:
237,89,111888,1,8,3:0:0:0:
168,234,112175,1,0,0:0:0:0:
168,234,112319,2,0,L|162:91,1,135,8|8,3:0|3:0,0:0:0:0:
206,42,112894,1,0,0:0:0:0:
136,26,113037,6,0,P|81:68|78:180,1,180,2|8,0:0|0:0,0:0:0:0:
213,213,113900,2,0,L|201:281,1,45,2|0,0:0|0:0,0:0:0:0:
165,315,114187,6,0,P|144:326|122:328,2,45,8|0|2,3:0|0:0|0:0,0:0:0:0:
237,319,114618,2,0,P|264:335|283:370,1,45,8|0,3:0|1:0,0:0:0:0:
309,205,115049,2,0,P|295:186|276:174,1,45,8|0,3:0|0:0,0:0:0:0:
215,132,115337,6,0,L|210:72,2,45,2|0|0,0:0|0:0|0:0,0:0:0:0:
325,39,115912,2,0,L|307:127,1,90,8|0,0:0|0:0,0:0:0:0:
306,127,116343,1,0,0:0:0:0:
377,117,116486,6,0,P|421:113|463:127,2,90,8|2|2,3:0|0:0|0:0,0:0:0:0:
278,222,117348,2,0,L|322:229,1,45,8|0,3:0|1:0,0:0:0:0:
379,273,117636,6,0,P|360:325|367:363,2,90,2|8|8,0:0|0:0|0:0,0:0:0:0:
441,236,118354,2,0,P|413:200|378:172,1,90,8|0,0:0|0:0,0:0:0:0:
322,127,118786,2,0,P|297:135|262:133,1,45,0|0,0:0|0:0,0:0:0:0:
209,121,119073,2,0,P|183:115|155:95,1,45,12|0,3:0|0:0,0:0:0:0:
121,50,119360,2,0,L|16:46,1,90,12|0,3:0|0:0,0:0:0:0:
19,117,119791,1,0,0:0:0:0:
23,189,119935,6,0,P|76:247|167:200,1,180,4|8,0:0|0:0,0:0:0:0:
160,213,120797,1,0,0:0:0:0:
204,349,121084,2,0,L|248:356,1,45,0|8,0:0|3:0,0:0:0:0:
323,350,121372,1,0,0:0:0:0:
323,350,121515,2,0,P|390:331|432:275,1,135,8|8,3:0|3:0,0:0:0:0:
456,215,122090,1,0,0:0:0:0:
474,145,122234,6,0,P|457:78|356:29,1,180,2|8,0:0|0:0,0:0:0:0:
219,28,123096,2,0,L|212:73,1,45,2|0,0:0|0:0,0:0:0:0:
179,138,123383,6,0,P|158:149|136:151,2,45,8|0|2,3:0|0:0|0:0,0:0:0:0:
250,147,123814,2,0,P|249:169|240:189,2,45,8|0|0,3:0|1:0|0:0,0:0:0:0:
296,91,124245,2,0,P|315:103|328:121,1,45,8|0,3:0|0:0,0:0:0:0:
330,193,124533,6,0,L|340:236,2,45,2|0|0,0:0|0:0|0:0,0:0:0:0:
186,203,125108,2,0,L|181:292,1,90,8|0,0:0|0:0,0:0:0:0:
181,292,125539,1,0,0:0:0:0:
111,309,125682,6,0,P|71:288|42:254,2,90,8|2|2,3:0|0:0|0:0,0:0:0:0:
247,355,126544,2,0,L|299:344,1,45,8|0,3:0|1:0,0:0:0:0:
353,309,126832,6,0,P|385:345|384:387,2,90,2|8|8,0:0|0:0|0:0,0:0:0:0:
338,238,127550,2,0,P|295:251|250:253,1,90,8|0,0:0|0:0,0:0:0:0:
206,195,127981,2,0,P|189:179|169:169,1,45,12|0,3:0|0:0,0:0:0:0:
108,131,128269,2,0,P|100:109|100:87,1,45,12|0,3:0|0:0,0:0:0:0:
143,29,128556,2,0,L|233:33,1,90,12|0,3:0|0:0,0:0:0:0:
373,69,129131,5,4,0:0:0:0:
410,129,129275,2,0,P|430:117|451:110,1,45,0|0,1:0|0:0,0:0:0:0:
468,181,129562,1,2,0:0:0:0:
421,235,129706,2,0,P|398:230|379:219,1,45,8|0,0:0|0:0,0:0:0:0:
315,184,129993,1,2,0:0:0:0:
315,184,130137,1,0,1:0:0:0:
250,216,130280,2,0,P|216:158|154:135,2,135,10|10|10,3:0|3:0|3:0,0:0:0:0:
276,362,131430,5,2,0:0:0:0:
276,362,131574,1,0,1:0:0:0:
336,323,131717,2,0,L|395:350,2,45,0|2|8,0:0|0:0|0:0,0:0:0:0:
192,331,132292,1,0,1:0:0:0:
192,331,132436,1,2,0:0:0:0:
120,325,132580,2,0,L|54:336,1,45,10|0,3:0|0:0,0:0:0:0:
29,276,132867,2,0,L|40:210,1,45,2|10,0:0|3:0,0:0:0:0:
47,160,133154,2,0,L|39:115,2,45,0|0|10,1:0|1:0|3:0,0:0:0:0:
190,147,133729,6,0,L|180:97,1,45,2|0,0:0|1:0,0:0:0:0:
167,32,134016,1,2,3:0:0:0:
311,27,134304,2,0,L|299:130,1,90,8|0,0:0|0:0,0:0:0:0:
291,188,134735,1,0,1:0:0:0:
278,258,134879,6,0,P|257:269|235:271,2,45,10|0|0,3:0|0:0|1:0,0:0:0:0:
347,238,135310,2,0,P|348:260|357:280,2,45,10|2|0,3:0|0:0|0:0,0:0:0:0:
394,183,135741,2,0,P|413:195|426:213,1,45,10|0,3:0|0:0,0:0:0:0:
426,213,136028,1,2,0:0:0:0:
454,353,136315,2,0,L|353:336,1,90,8|8,0:0|0:0,0:0:0:0:
294,322,136746,1,8,0:0:0:0:
225,345,136890,1,2,0:0:0:0:
225,345,137033,1,0,1:0:0:0:
153,356,137177,2,0,L|145:297,1,45,12|0,3:0|0:0,0:0:0:0:
75,304,137465,2,0,L|83:245,1,45,12|0,3:0|0:0,0:0:0:0:
117,196,137752,2,0,L|105:83,1,90,12|0,3:0|1:0,0:0:0:0:
247,75,138327,6,0,P|200:64|169:31,2,90,4|2|8,0:0|0:0|0:0,0:0:0:0:
390,42,139189,1,2,0:0:0:0:
390,42,139333,1,0,1:0:0:0:
430,102,139477,2,0,L|444:197,1,90,10|0,3:0|1:0,0:0:0:0:
443,191,139908,1,10,3:0:0:0:
443,191,140339,1,10,3:0:0:0:
451,334,140627,6,0,P|422:346|383:351,1,45,2|0,0:0|1:0,0:0:0:0:
354,301,140914,1,2,0:0:0:0:
213,335,141202,2,0,P|234:329|255:319,1,45,8|0,0:0|1:0,0:0:0:0:
281,252,141489,2,0,P|259:246|238:236,1,45,2|0,0:0|1:0,0:0:0:0:
195,179,141776,1,10,3:0:0:0:
61,235,142064,2,0,P|94:227|118:210,2,45,2|10|2,0:0|3:0|0:0,0:0:0:0:
40,92,142638,1,10,3:0:0:0:
180,57,142926,6,0,L|115:47,2,45,2|0|2,0:0|0:0|3:0,0:0:0:0:
250,40,143357,1,2,0:0:0:0:
250,40,143500,1,8,0:0:0:0:
393,28,143788,1,0,0:0:0:0:
409,147,144075,2,0,L|454:157,2,45,10|0|2,3:0|1:0|0:0,0:0:0:0:
344,179,144506,2,0,L|270:194,1,45,10|2,3:0|0:0,0:0:0:0:
158,216,144937,1,10,3:0:0:0:
158,216,145224,5,2,0:0:0:0:
49,311,145512,2,0,L|146:320,1,90,8|8,0:0|0:0,0:0:0:0:
210,328,145943,1,8,0:0:0:0:
210,328,146086,1,2,0:0:0:0:
346,374,146374,2,0,L|414:354,1,45,12|0,3:0|0:0,0:0:0:0:
454,331,146661,2,0,L|427:270,1,45,12|0,3:0|0:0,0:0:0:0:
386,237,146948,2,0,L|412:189,1,45,12|0,3:0|0:0,0:0:0:0:
466,155,147236,2,0,L|444:115,1,45,2|0,0:0|1:0,0:0:0:0:
388,69,147524,6,0,P|421:41|465:38,2,90,4|0|8,0:0|0:0|0:0,0:0:0:0:
290,176,148386,1,2,0:0:0:0:
232,44,148673,2,0,L|219:145,1,90,10|2,3:0|0:0,0:0:0:0:
220,133,149104,1,10,3:0:0:0:
167,182,149248,2,0,L|180:283,1,90,2|10,0:0|3:0,0:0:0:0:
41,316,149822,2,0,P|72:347|114:363,1,90,2|2,0:0|0:0,0:0:0:0:
255,332,150397,2,0,P|291:320|332:321,1,45,8|0,0:0|0:0,0:0:0:0:
373,332,150685,1,2,0:0:0:0:
373,332,150829,1,0,1:0:0:0:
440,305,150973,2,0,P|464:232|462:199,1,90,10|0,3:0|0:0,0:0:0:0:
455,148,151404,1,10,3:0:0:0:
455,148,151547,1,2,0:0:0:0:
371,30,151835,5,10,3:0:0:0:
228,49,152122,2,0,L|295:39,2,45,2|0|2,0:0|1:0|3:0,0:0:0:0:
84,61,152697,2,0,P|116:71|133:88,1,45,8|2,0:0|0:0,0:0:0:0:
160,140,152984,1,0,1:0:0:0:
64,246,153271,2,0,P|108:238|147:217,2,90,10|2|2,3:0|0:0|0:0,0:0:0:0:
64,246,154133,1,10,3:0:0:0:
55,317,154277,5,2,0:0:0:0:
55,317,154421,1,0,1:0:0:0:
55,317,154564,1,0,1:0:0:0:
122,341,154708,2,0,L|212:326,1,90,8|8,0:0|0:0,0:0:0:0:
281,313,155139,1,8,0:0:0:0:
345,279,155283,2,0,P|376:288|406:312,1,45,2|0,0:0|1:0,0:0:0:0:
456,312,155570,2,0,L|477:245,1,45,12|0,3:0|0:0,0:0:0:0:
429,208,155857,2,0,L|400:147,1,45,12|0,3:0|0:0,0:0:0:0:
356,117,156145,2,0,L|420:50,1,90,12|2,3:0|0:0,0:0:0:0:
274,56,156720,6,0,L|354:11,2,90,4|2|8,0:0|0:0|0:0,0:0:0:0:
130,41,157581,1,0,0:0:0:0:
49,161,157869,2,0,P|32:141|11:132,2,45,10|0|2,3:0|1:0|0:0,0:0:0:0:
81,231,158300,1,10,3:0:0:0:
292,175,158732,5,10,3:0:0:0:
292,175,158875,1,0,1:0:0:0:
239,223,159019,2,0,P|217:230|197:240,1,45,2|0,0:0|0:0,0:0:0:0:
165,305,159306,2,0,P|185:315|206:321,1,45,2|0,0:0|1:0,0:0:0:0:
274,295,159594,2,0,L|386:284,1,90,8|0,0:0|0:0,0:0:0:0:
412,338,160025,1,0,1:0:0:0:
465,290,160168,2,0,L|475:231,1,45,10|0,3:0|1:0,0:0:0:0:
459,174,160456,2,0,L|449:115,1,45,2|10,0:0|3:0,0:0:0:0:
419,64,160743,6,0,L|482:48,2,45,2|0|10,0:0|1:0|3:0,0:0:0:0:
275,52,161318,2,0,L|324:41,2,45,2|0|2,0:0|1:0|3:0,0:0:0:0:
131,37,161892,1,8,0:0:0:0:
25,135,162180,2,0,P|59:139|87:159,1,45,2|0,0:0|1:0,0:0:0:0:
114,199,162467,2,0,P|130:214|151:223,1,45,10|0,3:0|1:0,0:0:0:0:
222,216,162755,1,0,1:0:0:0:
222,216,162898,1,10,3:0:0:0:
191,281,163042,2,0,P|135:296|96:337,1,90,2|10,0:0|3:0,0:0:0:0:
252,342,163616,5,2,0:0:0:0:
252,342,163760,1,0,1:0:0:0:
316,308,163904,2,0,L|416:293,1,90,8|8,0:0|0:0,0:0:0:0:
405,294,164335,1,8,0:0:0:0:
468,164,164623,1,0,1:0:0:0:
412,118,164767,2,0,L|351:97,1,45,12|0,3:0|0:0,0:0:0:0:
309,143,165054,2,0,L|266:157,1,45,12|0,3:0|0:0,0:0:0:0:
197,136,165341,2,0,L|97:121,2,90,12|2|4,3:0|0:0|0:0,0:0:0:0:
75,214,166203,1,2,0:0:0:0:
75,214,166491,1,8,3:0:0:0:
102,355,166778,1,0,0:0:0:0:
237,305,167066,6,0,P|271:333|311:353,1,90,10|0,3:0|1:0,0:0:0:0:
372,315,167497,2,0,P|379:271|377:226,1,90,10|0,3:0|0:0,0:0:0:0:
317,186,167928,2,0,P|274:202|237:227,2,90,10|2|0,3:0|0:0|0:0,0:0:0:0:
461,148,168790,1,8,0:0:0:0:
461,148,168934,1,0,1:0:0:0:
461,148,169078,1,2,0:0:0:0:
335,77,169365,2,0,L|232:35,1,90,10|2,3:0|0:0,0:0:0:0:
188,77,169796,2,0,L|104:110,1,90,10|0,3:0|0:0,0:0:0:0:
104,110,170227,1,10,3:0:0:0:
75,251,170514,2,0,L|26:234,2,45,0|0|2,0:0|1:0|3:0,0:0:0:0:
207,306,171090,6,0,P|250:295|287:269,1,90,8|0,0:0|0:0,0:0:0:0:
287,269,171521,1,0,1:0:0:0:
335,216,171664,2,0,L|480:235,2,135,10|10|10,3:0|3:0|3:0,0:0:0:0:
191,200,172814,1,2,0:0:0:0:
71,120,173101,2,0,L|159:132,1,90,8|8,0:0|0:0,0:0:0:0:
232,136,173532,1,0,0:0:0:0:
256,192,173963,12,0,174825,1:0:0:0:
40,281,175112,6,0,P|88:273|130:227,1,90,4|0,0:0|0:0,0:0:0:0:
147,180,175543,1,0,1:0:0:0:
123,111,175687,2,0,L|24:133,1,90,8|0,0:0|0:0,0:0:0:0:
141,33,176262,2,0,P|166:43|197:45,1,45,12|0,3:0|1:0,0:0:0:0:
255,45,176549,2,0,P|275:52|294:65,1,45,2|10,0:0|3:0,0:0:0:0:
472,197,177124,5,10,3:0:0:0:
472,197,177267,1,0,1:0:0:0:
472,273,177411,2,0,L|447:370,1,90,2|2,0:0|0:0,0:0:0:0:
387,230,177987,2,0,L|342:222,1,45,8|0,0:0|1:0,0:0:0:0:
272,206,178274,1,0,0:0:0:0:
128,217,178561,2,0,P|168:235|191:273,1,90,10|0,3:0|1:0,0:0:0:0:
200,344,178991,1,10,3:0:0:0:
35,203,179422,1,10,3:0:0:0:
89,69,179710,2,0,L|44:74,2,45,2|0|2,0:0|1:0|3:0,0:0:0:0:
232,69,180285,6,0,P|256:77|287:79,1,45,8|0,0:0|0:0,0:0:0:0:
345,60,180573,1,0,1:0:0:0:
345,60,180716,1,2,0:0:0:0:
409,91,180860,2,0,P|436:125|443:169,1,90,10|2,3:0|0:0,0:0:0:0:
419,238,181291,1,10,3:0:0:0:
351,211,181435,2,0,P|324:200|295:194,1,45,0|2,1:0|0:0,0:0:0:0:
236,192,181722,1,10,3:0:0:0:
210,333,182010,5,2,0:0:0:0:
66,337,182297,1,8,0:0:0:0:
177,269,182441,2,0,L|109:258,1,45,0|8,0:0|0:0,0:0:0:0:
60,254,182729,1,8,0:0:0:0:
60,254,182872,1,0,0:0:0:0:
203,243,183160,2,0,L|254:255,1,45,12|0,3:0|0:0,0:0:0:0:
290,310,183447,2,0,L|341:298,1,45,12|0,3:0|0:0,0:0:0:0:
402,321,183734,2,0,P|442:303|463:264,1,90,12|0,3:0|0:0,0:0:0:0:
446,120,184309,6,0,P|389:64|305:75,1,135,4|0,0:0|0:0,0:0:0:0:
287,113,184883,1,8,0:0:0:0:
314,259,185171,1,2,0:0:0:0:
314,259,185458,1,8,3:0:0:0:
184,195,185746,1,0,0:0:0:0:
184,195,185890,2,0,L|178:338,1,135,8|8,3:0|3:0,0:0:0:0:
107,344,186465,1,0,0:0:0:0:
52,297,186608,6,0,P|16:237|55:132,1,180,2|8,0:0|0:0,0:0:0:0:
193,150,187470,2,0,L|181:82,1,45,2|0,0:0|0:0,0:0:0:0:
141,48,187758,6,0,P|120:37|98:35,2,45,8|0|2,3:0|0:0|0:0,0:0:0:0:
212,36,188189,2,0,P|227:19|247:9,2,45,8|0|0,3:0|1:0|0:0,0:0:0:0:
259,90,188620,2,0,P|277:102|290:120,1,45,8|0,3:0|0:0,0:0:0:0:
264,187,188907,6,0,L|259:247,2,45,2|0|2,0:0|0:0|3:0,0:0:0:0:
356,297,189482,2,0,L|338:209,1,90,8|0,0:0|0:0,0:0:0:0:
337,208,189913,1,0,0:0:0:0:
386,155,190057,6,0,P|430:159|472:145,2,90,8|2|2,3:0|0:0|0:0,0:0:0:0:
255,92,190918,2,0,L|299:85,1,45,8|0,3:0|1:0,0:0:0:0:
364,51,191206,1,2,0:0:0:0:
486,126,191493,1,8,0:0:0:0:
444,248,191780,1,8,0:0:0:0:
444,248,191924,2,0,P|410:277|370:298,1,90,8|0,0:0|0:0,0:0:0:0:
311,255,192355,2,0,P|286:247|251:249,1,45,12|0,3:0|0:0,0:0:0:0:
218,299,192643,2,0,P|196:294|176:284,1,45,12|0,3:0|0:0,0:0:0:0:
121,334,192930,2,0,L|16:338,1,90,12|0,3:0|0:0,0:0:0:0:
19,267,193361,1,0,0:0:0:0:
21,194,193505,6,0,P|82:134|159:169,1,180,4|8,0:0|0:0,0:0:0:0:
158,168,194367,1,2,0:0:0:0:
204,35,194654,2,0,L|248:28,1,45,8|0,3:0|0:0,0:0:0:0:
323,34,194942,1,0,0:0:0:0:
323,34,195085,2,0,P|390:53|433:106,1,135,8|8,3:0|3:0,0:0:0:0:
456,169,195660,1,0,0:0:0:0:
474,239,195804,6,0,P|457:306|355:355,1,180,2|8,0:0|0:0,0:0:0:0:
219,356,196667,2,0,L|212:311,1,45,2|0,0:0|0:0,0:0:0:0:
179,246,196954,6,0,P|158:235|136:233,2,45,8|0|2,3:0|0:0|0:0,0:0:0:0:
250,237,197385,2,0,P|249:215|240:195,2,45,8|0|0,3:0|1:0|0:0,0:0:0:0:
296,293,197816,2,0,P|315:281|328:263,1,45,8|0,3:0|0:0,0:0:0:0:
330,191,198103,6,0,L|340:148,2,45,2|0|2,0:0|0:0|3:0,0:0:0:0:
186,181,198678,2,0,L|181:92,1,90,8|0,0:0|0:0,0:0:0:0:
181,92,199109,1,0,0:0:0:0:
111,75,199253,6,0,P|71:96|42:130,2,90,8|2|2,3:0|0:0|0:0,0:0:0:0:
247,29,200115,2,0,L|299:40,1,45,8|0,3:0|1:0,0:0:0:0:
362,30,200402,1,2,0:0:0:0:
476,118,200689,1,8,0:0:0:0:
338,146,200977,1,8,0:0:0:0:
338,146,201120,2,0,P|295:133|250:131,1,90,8|0,0:0|0:0,0:0:0:0:
206,189,201552,2,0,P|189:205|169:215,1,45,12|0,3:0|0:0,0:0:0:0:
108,253,201839,2,0,P|100:275|100:297,1,45,12|0,3:0|0:0,0:0:0:0:
143,355,202126,2,0,L|233:351,1,90,12|0,3:0|0:0,0:0:0:0:
377,344,202702,6,0,P|443:322|463:237,1,135,4|0,0:0|0:0,0:0:0:0:
448,196,203276,1,8,0:0:0:0:
332,280,203564,1,2,0:0:0:0:
332,280,203851,1,8,3:0:0:0:
385,148,204138,1,0,0:0:0:0:
385,148,204282,2,0,L|242:142,1,135,8|8,3:0|3:0,0:0:0:0:
185,108,204857,1,0,0:0:0:0:
115,124,205000,6,0,P|57:164|50:275,1,180,2|8,0:0|0:0,0:0:0:0:
190,281,205862,2,0,L|258:269,1,45,2|0,0:0|0:0,0:0:0:0:
277,214,206150,6,0,P|266:193|264:171,2,45,8|0|2,3:0|0:0|0:0,0:0:0:0:
307,279,206581,2,0,P|324:294|334:314,2,45,8|0|0,3:0|1:0|0:0,0:0:0:0:
249,322,207012,2,0,P|237:340|219:353,1,45,8|0,3:0|0:0,0:0:0:0:
147,337,207299,6,0,L|87:332,2,45,2|0|2,0:0|0:0|3:0,0:0:0:0:
230,218,207875,2,0,L|142:200,1,90,8|0,0:0|0:0,0:0:0:0:
141,199,208306,1,0,0:0:0:0:
113,132,208449,6,0,P|109:88|123:46,2,90,8|2|2,3:0|0:0|0:0,0:0:0:0:
254,158,209311,2,0,L|261:202,1,45,8|0,3:0|1:0,0:0:0:0:
280,272,209598,1,2,0:0:0:0:
383,371,209885,1,8,0:0:0:0:
468,259,210173,1,8,0:0:0:0:
468,259,210316,2,8,P|428:237|385:224,1,90,8|0,0:0|0:0,0:0:0:0:
326,182,210748,2,0,P|296:173|264:152,1,45,12|0,3:0|0:0,0:0:0:0:
217,195,211036,2,0,P|187:204|155:225,1,45,12|0,3:0|0:0,0:0:0:0:
114,250,211323,2,0,P|70:240|20:161,1,135,12|0,3:0|0:0,0:0:0:0:
44,102,211897,5,6,0:0:0:0:
