osu file format v14

[General]
AudioFilename: audio.mp3
AudioLeadIn: 0
PreviewTime: 124389
Countdown: 0
SampleSet: Soft
StackLeniency: 0.7
Mode: 0
LetterboxInBreaks: 0
WidescreenStoryboard: 1

[Editor]
DistanceSpacing: 1.2
BeatDivisor: 4
GridSize: 8
TimelineZoom: 0.7999998

[Metadata]
Title:Mo Money Mo Problems (feat. Mase & Puff Daddy)
TitleUnicode:Mo Money Mo Problems (feat. Mase & Puff Daddy)
Artist:The Notorious B.I.G.
ArtistUnicode:The Notorious B.I.G.
Creator:RealMetMuster
Version:Easy
Source:
Tags:hip hop, rap, funk, funky, biggie, the notorious b.i.g., 1997, smalls, mase, life after death, puffy, puff daddy, diddy, old school, hip hop, flow, east coast, new york, brooklyn, junior mafia, bad boy, records, kelly price, Kloyd, 5840097
BeatmapID:2265885
BeatmapSetID:745468

[Difficulty]
HPDrainRate:2
CircleSize:3.2
OverallDifficulty:2
ApproachRate:3.5
SliderMultiplier:1.4
SliderTickRate:1

[Events]
//Background and Video events
0,0,"notorious-big-puff-daddy.jpg",0,0
//Break Periods
2,166116,171433
//Storyboard Layer 0 (Background)
//Storyboard Layer 1 (Fail)
//Storyboard Layer 2 (Pass)
//Storyboard Layer 3 (Foreground)
//Storyboard Layer 4 (Overlay)
//Storyboard Sound Samples

[TimingPoints]
18776,574.767698055369,4,2,1,80,1,0
55561,-100,4,2,1,80,0,1
73810,-100,4,2,1,80,0,0
110738,-100,4,2,1,80,0,1
128987,-100,4,2,1,80,0,0
184309,-100,4,2,1,80,0,1
211897,-100,4,2,1,80,0,0

[Colours]
Combo1 : 0,108,63
Combo2 : 0,170,0
Combo3 : 0,70,121
Combo4 : 128,0,128
Combo5 : 255,192,0

[HitObjects]
137,108,18775,6,0,P|214:85|267:34,2,140,4|0|0,0:0|0:0|0:0,0:0:0:0:
59,92,20212,1,0,1:0:0:0:
43,259,21074,2,0,P|88:269|123:303,2,70,2|0|8,0:0|1:0|0:0,0:0:0:0:
18,339,21936,1,2,0:0:0:0:
96,368,22223,2,0,P|146:355|191:328,2,105,8|8|8,3:0|3:0|3:0,0:0:0:0:
105,284,23373,5,0,1:0:0:0:
153,215,23660,1,2,3:0:0:0:
233,237,23948,2,0,L|330:250,2,70,8|2|8,0:0|0:0|3:0,0:0:0:0:
178,122,24953,1,8,3:0:0:0:
270,36,25385,2,0,P|303:31|348:31,1,70,8|0,3:0|1:0,0:0:0:0:
430,54,25959,2,0,L|445:146,1,70,8|8,0:0|0:0,0:0:0:0:
434,291,26823,2,0,L|523:276,2,70,12|0|2,3:0|0:0|0:0,0:0:0:0:
355,322,27685,1,2,0:0:0:0:
276,350,27972,6,0,L|361:367,2,70,4|2|8,0:0|0:0|0:0,0:0:0:0:
220,294,28834,1,0,0:0:0:0:
220,294,29121,2,0,P|175:319|114:326,1,105,8|8,3:0|3:0,0:0:0:0:
15,259,29983,1,8,3:0:0:0:
78,15,30846,6,0,L|179:10,1,70,8|0,0:0|1:0,0:0:0:0:
221,51,31421,2,0,L|338:40,1,105,8|8,3:0|3:0,0:0:0:0:
449,65,32283,1,8,3:0:0:0:
431,147,32570,2,0,P|401:134|360:129,1,70,2|2,0:0|3:0,0:0:0:0:
286,161,33145,1,8,0:0:0:0:
118,172,33720,2,0,P|168:182|208:216,2,105,8|8|8,3:0|3:0|3:0,0:0:0:0:
33,172,34869,2,0,L|48:248,1,70,2|8,0:0|0:0,0:0:0:0:
111,294,35444,2,0,L|149:352,1,70,8|2,0:0|0:0,0:0:0:0:
231,337,36018,2,0,P|291:358|364:342,1,140,12|12,3:0|3:0,0:0:0:0:
506,167,37168,6,0,L|359:188,1,140,4|8,0:0|0:0,0:0:0:0:
199,181,38319,2,0,P|255:174|312:141,1,105,8|0,3:0|0:0,0:0:0:0:
377,54,39181,1,8,3:0:0:0:
377,54,39468,2,0,P|341:50|296:31,1,70,2|2,0:0|0:0,0:0:0:0:
224,29,40042,2,0,P|173:30|91:81,1,140,8|8,0:0|3:0,0:0:0:0:
24,175,41048,1,8,3:0:0:0:
10,309,41479,2,0,L|98:322,1,70,8|2,3:0|0:0,0:0:0:0:
157,289,42054,1,2,3:0:0:0:
416,264,42916,6,0,P|361:282|324:318,1,105,8|8,3:0|3:0,0:0:0:0:
209,358,43778,1,8,3:0:0:0:
130,329,44065,2,0,L|44:347,1,70,2|8,0:0|0:0,0:0:0:0:
12,274,44640,1,8,0:0:0:0:
13,105,45215,2,0,L|100:94,1,70,12|12,3:0|3:0,0:0:0:0:
150,145,45789,2,0,L|219:153,1,70,12|0,3:0|1:0,0:0:0:0:
271,87,46364,6,0,P|321:59|416:66,1,140,4|8,0:0|0:0,0:0:0:0:
471,107,47227,1,2,0:0:0:0:
459,190,47514,2,0,L|482:312,2,105,8|8|8,3:0|3:0|3:0,0:0:0:0:
375,176,48664,2,0,P|340:183|308:208,1,70,0|2,0:0|0:0,0:0:0:0:
295,284,49238,1,8,0:0:0:0:
126,284,49813,2,0,P|74:307|37:346,2,105,8|8|8,3:0|3:0|3:0,0:0:0:0:
130,199,50962,2,0,P|96:191|66:172,1,70,2|2,0:0|3:0,0:0:0:0:
52,89,51537,2,0,P|81:70|115:62,1,70,8|2,0:0|0:0,0:0:0:0:
198,73,52113,2,0,P|247:68|311:21,2,105,8|0|0,3:0|0:0|0:0,0:0:0:0:
365,86,53549,6,0,L|455:68,2,70,8|8|2,0:0|0:0|0:0,0:0:0:0:
303,143,54411,1,12,3:0:0:0:
383,166,54699,1,12,3:0:0:0:
460,197,54986,2,0,L|472:278,1,70,12|0,3:0|0:0,0:0:0:0:
436,343,55561,2,0,P|412:319|295:342,1,140,4|8,0:0|0:0,0:0:0:0:
233,352,56423,1,2,0:0:0:0:
173,292,56710,2,0,P|130:346|58:355,1,140,8|2,3:0|0:0,0:0:0:0:
24,281,57572,1,8,3:0:0:0:
54,202,57859,6,0,L|44:51,1,140,2|8,0:0|0:0,0:0:0:0:
122,30,58721,1,2,0:0:0:0:
192,75,59009,2,0,P|242:63|285:33,2,105,8|8|8,3:0|3:0|3:0,0:0:0:0:
133,135,60160,1,2,0:0:0:0:
208,171,60447,2,0,L|309:153,1,70,2|8,3:0|0:0,0:0:0:0:
436,104,61309,2,0,P|377:72|351:20,2,105,8|8|8,3:0|3:0|3:0,0:0:0:0:
496,261,62746,5,8,0:0:0:0:
424,217,63033,1,8,0:0:0:0:
283,307,63608,2,0,P|227:262|159:248,1,140,12|12,3:0|3:0,0:0:0:0:
26,348,64757,6,0,L|41:201,1,140,4|8,0:0|0:0,0:0:0:0:
28,125,65620,1,2,0:0:0:0:
55,45,65907,2,0,L|191:26,1,105,8|8,3:0|3:0,0:0:0:0:
285,30,66769,1,8,3:0:0:0:
361,64,67057,2,0,P|407:100|500:83,1,140,2|8,0:0|0:0,0:0:0:0:
482,177,67919,1,2,0:0:0:0:
482,260,68206,2,0,P|437:286|411:332,1,105,8|8,3:0|3:0,0:0:0:0:
288,359,69068,1,8,3:0:0:0:
218,311,69355,2,0,L|138:323,2,70,2|2|8,0:0|3:0|0:0,0:0:0:0:
104,186,70505,6,0,L|53:91,2,105,8|8|8,3:0|3:0|3:0,0:0:0:0:
169,133,71654,1,2,0:0:0:0:
222,68,71941,2,0,L|300:55,1,70,8|8,0:0|0:0,0:0:0:0:
458,42,72803,2,0,L|449:116,1,70,12|12,3:0|3:0,0:0:0:0:
410,185,73378,2,0,L|419:259,1,70,12|0,3:0|1:0,0:0:0:0:
457,329,73953,1,4,0:0:0:0:
298,296,74528,6,0,P|231:310|185:361,1,140,8|8,0:0|3:0,0:0:0:0:
67,315,75534,1,8,3:0:0:0:
41,191,75965,1,8,3:0:0:0:
39,107,76252,2,0,L|131:97,1,70,0|0,1:0|0:0,0:0:0:0:
170,156,76827,2,0,L|239:163,1,70,8|2,0:0|0:0,0:0:0:0:
305,111,77402,2,0,P|354:96|388:57,2,105,8|8|8,3:0|3:0|3:0,0:0:0:0:
245,59,78551,1,2,0:0:0:0:
245,59,78838,1,2,3:0:0:0:
188,121,79126,2,0,L|207:267,1,140,8|8,0:0|3:0,0:0:0:0:
315,322,80132,2,0,P|359:349|411:349,1,105,8|8,3:0|3:0,0:0:0:0:
499,206,81138,6,0,L|421:220,1,70,8|8,0:0|0:0,0:0:0:0:
346,206,81713,1,0,0:0:0:0:
279,257,82000,2,0,P|211:270|159:316,1,140,12|12,3:0|3:0,0:0:0:0:
22,218,83150,2,0,L|38:70,1,140,4|8,0:0|0:0,0:0:0:0:
111,39,84012,1,0,0:0:0:0:
190,66,84300,2,0,L|307:46,1,105,8|0,3:0|0:0,0:0:0:0:
419,48,85161,2,0,L|495:21,2,70,8|2|2,3:0|0:0|0:0,0:0:0:0:
389,126,86023,1,8,0:0:0:0:
379,314,86598,6,0,P|419:281|471:272,2,105,8|8|8,3:0|3:0|3:0,0:0:0:0:
299,341,87747,2,0,L|219:353,1,70,2|2,0:0|3:0,0:0:0:0:
150,323,88322,1,8,0:0:0:0:
19,216,88897,2,0,L|5:327,2,105,8|8|8,3:0|3:0|3:0,0:0:0:0:
14,47,90334,2,0,L|86:38,1,70,8|8,0:0|0:0,0:0:0:0:
167,30,90909,1,2,0:0:0:0:
216,95,91196,2,0,P|281:83|341:28,1,140,12|12,3:0|3:0,0:0:0:0:
413,69,92058,1,2,0:0:0:0:
459,139,92346,6,0,L|475:280,1,140,4|8,0:0|0:0,0:0:0:0:
432,350,93208,1,2,0:0:0:0:
363,301,93495,2,0,P|297:333|268:382,2,105,8|8|8,3:0|3:0|3:0,0:0:0:0:
379,133,94932,2,0,P|329:152|315:167,1,70,2|8,0:0|0:0,0:0:0:0:
251,213,95507,1,2,0:0:0:0:
224,292,95795,2,0,P|174:322|122:322,1,105,8|8,3:0|3:0,0:0:0:0:
18,261,96657,2,0,L|3:337,2,70,8|2|2,3:0|0:0|3:0,0:0:0:0:
24,177,97519,1,8,0:0:0:0:
67,14,98093,6,0,L|195:31,1,105,8|8,3:0|3:0,0:0:0:0:
297,24,98956,1,8,3:0:0:0:
374,56,99244,2,0,L|444:67,1,70,2|8,0:0|0:0,0:0:0:0:
481,141,99818,1,8,0:0:0:0:
436,303,100393,2,0,L|514:317,2,70,12|12|12,3:0|3:0|3:0,0:0:0:0:
365,257,101255,1,0,1:0:0:0:
316,325,101542,2,0,P|274:354|178:350,1,140,4|8,0:0|0:0,0:0:0:0:
61,242,102693,2,0,P|35:265|2:276,2,70,8|0|0,3:0|0:0|0:0,0:0:0:0:
97,166,103555,1,8,3:0:0:0:
85,82,103842,2,0,P|119:75|150:59,1,70,2|2,0:0|0:0,0:0:0:0:
229,32,104417,1,8,0:0:0:0:
396,33,104991,6,0,P|348:53|319:96,2,105,8|8|8,3:0|3:0|3:0,0:0:0:0:
432,110,106140,1,2,0:0:0:0:
460,189,106428,2,0,L|468:268,1,70,2|8,3:0|0:0,0:0:0:0:
461,342,107002,1,2,0:0:0:0:
384,306,107291,2,0,P|319:321|278:358,1,105,8|0,3:0|0:0,0:0:0:0:
165,366,108153,2,0,P|131:358|101:340,1,70,8|0,3:0|0:0,0:0:0:0:
106,256,108727,2,0,L|27:241,1,70,8|8,0:0|0:0,0:0:0:0:
38,74,109589,2,0,P|94:73|156:142,1,140,12|12,3:0|3:0,0:0:0:0:
210,68,110450,1,0,0:0:0:0:
294,68,110738,6,0,L|446:41,1,140,4|8,0:0|0:0,0:0:0:0:
478,113,111601,1,2,0:0:0:0:
436,185,111888,2,0,P|484:201|513:247,2,105,8|8|8,3:0|3:0|3:0,0:0:0:0:
372,240,113037,2,0,L|349:385,1,140,2|8,0:0|0:0,0:0:0:0:
271,348,113899,1,2,0:0:0:0:
271,348,114187,1,8,3:0:0:0:
155,296,114618,2,0,P|94:327|66:380,1,105,8|8,3:0|3:0,0:0:0:0:
22,287,115336,2,0,L|16:214,1,70,2|2,0:0|3:0,0:0:0:0:
33,134,115911,1,8,0:0:0:0:
172,40,116486,6,0,L|49:30,2,105,8|8|8,3:0|3:0|3:0,0:0:0:0:
256,32,117636,1,2,0:0:0:0:
334,61,117923,2,0,L|414:51,1,70,8|8,0:0|0:0,0:0:0:0:
479,88,118498,1,2,0:0:0:0:
437,160,118785,2,0,P|430:220|488:288,2,140,12|12|4,3:0|3:0|0:0,0:0:0:0:
399,323,120510,2,0,P|347:294|306:291,1,70,8|0,0:0|0:0,0:0:0:0:
253,291,121085,2,0,P|201:320|136:323,1,105,8|0,3:0|0:0,0:0:0:0:
41,272,121947,1,8,3:0:0:0:
29,188,122234,2,0,P|64:101|115:74,1,140,2|8,0:0|0:0,0:0:0:0:
172,121,123096,1,2,0:0:0:0:
234,65,123383,6,0,P|271:28|332:23,2,105,8|8|8,3:0|3:0|3:0,0:0:0:0:
246,148,124533,2,0,L|150:133,2,70,2|0|8,0:0|0:0|0:0,0:0:0:0:
327,125,125395,1,0,0:0:0:0:
406,147,125682,2,0,P|442:186|457:236,1,105,8|8,3:0|3:0,0:0:0:0:
420,356,126544,1,8,3:0:0:0:
262,296,127119,2,0,L|185:308,1,70,8|8,0:0|0:0,0:0:0:0:
116,341,127694,1,2,0:0:0:0:
58,279,127981,2,0,P|8:241|8:156,1,140,12|12,3:0|3:0,0:0:0:0:
142,75,129131,6,0,P|101:65|70:47,2,70,4|0|8,0:0|0:0|0:0,0:0:0:0:
220,44,129994,1,2,0:0:0:0:
296,78,130281,2,0,P|352:44|406:35,2,105,8|8|8,3:0|3:0|3:0,0:0:0:0:
309,161,131430,2,0,L|407:183,1,70,2|0,0:0|0:0,0:0:0:0:
451,216,132005,1,8,0:0:0:0:
345,347,132581,2,0,P|396:343|443:380,2,105,8|0|0,3:0|0:0|0:0,0:0:0:0:
268,325,133730,5,2,0:0:0:0:
268,325,134017,1,2,3:0:0:0:
185,342,134305,2,0,L|102:352,1,70,8|0,0:0|0:0,0:0:0:0:
62,285,134879,2,0,P|43:323|-9:369,2,105,8|8|8,3:0|3:0|3:0,0:0:0:0:
48,117,136316,2,0,L|121:100,1,70,8|8,0:0|0:0,0:0:0:0:
172,38,136891,1,2,0:0:0:0:
248,72,137178,2,0,P|305:34|374:36,1,140,12|12,3:0|3:0,0:0:0:0:
454,184,138327,6,0,P|414:139|334:114,1,140,4|8,0:0|0:0,0:0:0:0:
278,170,139189,1,2,0:0:0:0:
278,170,139477,1,8,3:0:0:0:
152,157,139908,2,0,P|95:178|63:221,1,105,8|8,3:0|3:0,0:0:0:0:
89,292,140626,2,0,L|15:308,2,70,2|2|8,0:0|0:0|0:0,0:0:0:0:
162,250,141488,1,2,0:0:0:0:
245,240,141776,2,0,L|361:210,2,105,8|8|8,3:0|3:0|3:0,0:0:0:0:
211,317,142925,2,0,P|155:300|116:304,2,70,2|2|8,0:0|3:0|0:0,0:0:0:0:
374,357,144075,2,0,P|460:321|482:295,1,105,8|8,3:0|3:0,0:0:0:0:
484,188,144937,1,8,3:0:0:0:
469,105,145224,6,0,L|398:76,1,70,2|8,0:0|0:0,0:0:0:0:
332,34,145799,2,0,L|267:60,1,70,8|2,0:0|0:0,0:0:0:0:
196,106,146375,2,0,P|122:91|65:15,1,140,12|12,3:0|3:0,0:0:0:0:
29,206,147524,2,0,P|53:231|64:263,1,70,4|0,0:0|0:0,0:0:0:0:
35,342,148099,1,8,0:0:0:0:
35,342,148386,1,2,0:0:0:0:
118,332,148673,2,0,P|199:353|233:392,2,105,8|8|8,3:0|3:0|3:0,0:0:0:0:
148,256,149822,5,2,0:0:0:0:
148,256,150110,1,2,0:0:0:0:
225,224,150397,2,0,L|325:230,1,70,8|2,0:0|0:0,0:0:0:0:
353,288,150972,2,0,P|305:324|285:376,2,105,8|8|8,3:0|3:0|3:0,0:0:0:0:
426,247,152122,2,0,L|440:318,2,70,2|2|8,0:0|3:0|0:0,0:0:0:0:
468,174,152984,1,0,1:0:0:0:
465,90,153271,1,8,3:0:0:0:
344,50,153702,2,0,P|292:48|243:30,1,105,8|8,3:0|3:0,0:0:0:0:
159,36,154421,6,0,P|124:41|94:59,1,70,0|8,1:0|0:0,0:0:0:0:
47,128,154995,1,8,0:0:0:0:
78,293,155570,2,0,P|39:321|-5:325,2,70,12|12|12,3:0|3:0|3:0,0:0:0:0:
159,271,156432,1,2,0:0:0:0:
219,329,156720,2,0,P|279:360|356:331,1,140,4|8,0:0|0:0,0:0:0:0:
428,325,157581,1,0,0:0:0:0:
469,251,157869,2,0,L|458:143,1,105,8|8,3:0|3:0,0:0:0:0:
432,22,158732,5,8,3:0:0:0:
357,59,159019,1,2,0:0:0:0:
273,49,159306,2,0,L|183:20,2,70,2|8|2,0:0|0:0|0:0,0:0:0:0:
293,130,160168,1,8,3:0:0:0:
290,255,160599,2,0,P|341:268|382:302,1,105,8|8,3:0|3:0,0:0:0:0:
435,365,161318,2,0,L|514:349,2,70,2|2|8,0:0|3:0|0:0,0:0:0:0:
270,332,162467,2,0,L|159:348,1,105,8|8,3:0|3:0,0:0:0:0:
40,331,163329,1,8,3:0:0:0:
50,247,163616,2,0,L|38:165,1,70,2|8,0:0|0:0,0:0:0:0:
47,93,164191,1,8,0:0:0:0:
211,58,164766,2,0,P|240:38|274:31,2,70,12|12|12,3:0|3:0|3:0,0:0:0:0:
197,144,165629,1,2,0:0:0:0:
197,144,165916,1,4,0:0:0:0:
256,192,172813,12,4,175111,0:0:0:0:
467,274,176262,6,0,L|336:255,1,105,8|8,3:0|3:0,0:0:0:0:
237,273,177124,1,8,3:0:0:0:
155,292,177411,2,0,P|113:309|95:327,1,70,2|2,0:0|0:0,0:0:0:0:
19,290,177986,2,0,L|26:210,1,70,8|0,0:0|0:0,0:0:0:0:
63,145,178560,2,0,L|40:35,2,105,8|8|8,3:0|3:0|3:0,0:0:0:0:
142,174,179710,2,0,L|151:97,2,70,2|2|8,0:0|3:0|0:0,0:0:0:0:
301,121,180860,2,0,P|251:87|234:38,2,105,8|8|8,3:0|3:0|3:0,0:0:0:0:
384,108,182009,1,2,0:0:0:0:
451,157,182297,2,0,L|461:228,1,70,8|8,0:0|0:0,0:0:0:0:
439,307,182871,1,0,0:0:0:0:
360,336,183159,2,0,P|308:293|225:288,1,140,12|12,3:0|3:0,0:0:0:0:
69,286,184309,6,0,P|102:286|171:188,1,140,4|8,0:0|0:0,0:0:0:0:
101,168,185171,1,2,0:0:0:0:
55,97,185458,2,0,P|98:43|170:34,1,140,8|2,3:0|0:0,0:0:0:0:
233,81,186320,1,8,3:0:0:0:
292,140,186607,6,0,L|302:291,1,140,2|8,0:0|0:0,0:0:0:0:
328,359,187469,1,2,0:0:0:0:
382,295,187757,2,0,P|432:307|475:337,2,105,8|8|8,3:0|3:0|3:0,0:0:0:0:
298,307,188907,1,2,0:0:0:0:
231,255,189194,2,0,L|130:273,1,70,2|8,3:0|0:0,0:0:0:0:
96,320,189769,1,0,0:0:0:0:
79,237,190057,2,0,P|47:279|-4:298,2,105,8|8|8,3:0|3:0|3:0,0:0:0:0:
33,75,191493,2,0,L|119:54,1,70,8|8,0:0|0:0,0:0:0:0:
180,29,192069,1,2,0:0:0:0:
241,86,192356,2,0,P|311:83|361:12,1,140,12|12,3:0|3:0,0:0:0:0:
443,177,193505,6,0,L|428:324,1,140,4|8,0:0|0:0,0:0:0:0:
358,362,194367,1,2,0:0:0:0:
295,305,194655,2,0,L|161:322,1,105,8|8,3:0|3:0,0:0:0:0:
67,288,195516,1,8,3:0:0:0:
40,208,195804,2,0,P|44:151|106:91,1,140,2|8,0:0|0:0,0:0:0:0:
182,109,196667,1,2,0:0:0:0:
263,89,196954,2,0,P|298:41|349:23,1,105,8|8,3:0|3:0,0:0:0:0:
456,71,197816,1,8,3:0:0:0:
426,149,198104,2,0,L|511:164,2,70,2|0|8,0:0|0:0|0:0,0:0:0:0:
262,188,199253,6,0,P|200:167|157:113,2,105,8|8|8,3:0|3:0|3:0,0:0:0:0:
332,234,200402,1,2,0:0:0:0:
279,299,200689,2,0,L|201:312,1,70,8|8,0:0|0:0,0:0:0:0:
129,285,201264,1,2,0:0:0:0:
79,217,201552,2,0,P|33:170|33:89,2,140,12|12|4,3:0|3:0|0:0,0:0:0:0:
243,181,203276,2,0,P|291:163|315:143,1,70,8|2,0:0|0:0,0:0:0:0:
330,71,203851,2,0,P|381:78|424:108,1,105,8|8,3:0|3:0,0:0:0:0:
469,225,204713,1,8,3:0:0:0:
469,309,205001,6,0,L|315:331,1,140,2|8,0:0|0:0,0:0:0:0:
251,357,205863,1,2,0:0:0:0:
178,314,206150,2,0,P|123:348|62:354,2,105,8|8|8,3:0|3:0|3:0,0:0:0:0:
226,245,207299,2,0,L|296:264,2,70,2|2|8,0:0|3:0|0:0,0:0:0:0:
59,217,208450,2,0,P|112:200|152:159,1,105,0|0,0:0|0:0,0:0:0:0:
179,44,209312,1,8,3:0:0:0:
344,68,209886,6,0,L|253:93,1,70,8|8,0:0|0:0,0:0:0:0:
169,215,210748,2,0,P|126:205|101:187,2,70,12|12|12,3:0|3:0|3:0,0:0:0:0:
243,264,211610,1,0,0:0:0:0:
326,257,211897,5,6,0:0:0:0:
