osu file format v14

[General]
AudioFilename: audio.mp3
AudioLeadIn: 0
PreviewTime: 67337
Countdown: 0
SampleSet: Soft
StackLeniency: 0.9
Mode: 0
LetterboxInBreaks: 0
WidescreenStoryboard: 1

[Editor]
DistanceSpacing: 1.8
BeatDivisor: 6
GridSize: 4
TimelineZoom: 1.8

[Metadata]
Title:Sweater Weather
TitleUnicode:Sweater Weather
Artist:The Neighbourhood
ArtistUnicode:The Neighbourhood
Creator:VINXIS
Version:Hard
Source:
Tags:i love you you. dada alternative rock alt english mishima yurara neighborhood indie psychedelia
BeatmapID:1865087
BeatmapSetID:656186

[Difficulty]
HPDrainRate:5
CircleSize:4
OverallDifficulty:6
ApproachRate:8
SliderMultiplier:1.6
SliderTickRate:1

[Events]
//Background and Video events
0,0,"a8e7a3b85ca2a86539467c3e5e1702d6.png",0,0
//Break Periods
2,157579,171127
//Storyboard Layer 0 (Background)
//Storyboard Layer 1 (Fail)
//Storyboard Layer 2 (Pass)
//Storyboard Layer 3 (Foreground)
//Storyboard Layer 4 (Overlay)
//Storyboard Sound Samples

[TimingPoints]
805,483.870967741935,4,2,1,50,1,0
22095,-66.6666666666667,4,2,1,50,0,0
23063,-100,4,2,1,50,0,0
25966,-66.6666666666667,4,2,1,50,0,0
26934,-100,4,2,1,50,0,0
27901,-66.6666666666667,4,2,1,50,0,0
30804,-100,4,2,1,50,0,0
33708,-66.6666666666667,4,2,1,50,0,0
34675,-100,4,2,1,50,0,0
35643,-66.6666666666667,4,2,1,50,0,0
38546,-100,4,2,1,50,0,0
41450,-66.6666666666667,4,2,1,50,0,0
42417,-100,4,2,1,50,0,0
43385,-66.6666666666667,4,2,1,50,0,0
46288,-100,4,2,1,50,0,0
49192,-66.6666666666667,4,2,1,50,0,0
50159,-100,4,2,1,50,0,0
51127,-66.6666666666667,4,2,1,50,0,0
54030,-100,4,2,1,50,0,0
68546,-66.6666666666667,4,2,1,65,0,1
69998,-100,4,2,1,65,0,1
72417,-66.6666666666667,4,2,1,65,0,1
73869,-100,4,2,1,65,0,1
76288,-66.6666666666667,4,2,1,65,0,1
77740,-100,4,2,1,65,0,1
80159,-66.6666666666667,4,2,1,65,0,1
81611,-100,4,2,1,65,0,1
84030,-66.6666666666667,4,2,1,50,0,0
84998,-100,4,2,1,50,0,0
87901,-66.6666666666667,4,2,1,50,0,0
88869,-100,4,2,1,50,0,0
89837,-66.6666666666667,4,2,1,50,0,0
92740,-100,4,2,1,50,0,0
95643,-66.6666666666667,4,2,1,50,0,0
96611,-100,4,2,1,50,0,0
97579,-66.6666666666667,4,2,1,50,0,0
100482,-100,4,2,1,50,0,0
103385,-66.6666666666667,4,2,1,50,0,0
104353,-100,4,2,1,50,0,0
105321,-66.6666666666667,4,2,1,50,0,0
108224,-100,4,2,1,50,0,0
111127,-66.6666666666667,4,2,1,50,0,0
112095,-100,4,2,1,50,0,0
114998,-66.6666666666667,4,2,1,50,0,0
115966,-100,4,2,1,50,0,0
118869,-66.6666666666667,4,2,1,50,0,0
119837,-100,4,2,1,50,0,0
122740,-66.6666666666667,4,2,1,65,0,1
124192,-100,4,2,1,65,0,1
126611,-66.6666666666667,4,2,1,65,0,1
128063,-100,4,2,1,65,0,1
130482,-66.6666666666667,4,2,1,65,0,1
131934,-100,4,2,1,65,0,1
134353,-66.6666666666667,4,2,1,65,0,1
135804,-100,4,2,1,65,0,1
138224,-66.6666666666667,4,2,1,65,0,1
139675,-100,4,2,1,65,0,1
142095,-66.6666666666667,4,2,1,65,0,1
143546,-100,4,2,1,65,0,1
145966,-66.6666666666667,4,2,1,65,0,1
147417,-100,4,2,1,65,0,1
149837,-66.6666666666667,4,2,1,65,0,1
151288,-100,4,2,1,65,0,1
153708,-100,4,2,1,50,0,0
155643,-100,4,2,1,50,0,0
156611,-100,4,2,1,5,0,0
173063,-100,4,2,1,50,0,0
188909,-100,4,2,1,5,0,0
189030,-100,4,2,1,50,0,0
189393,-100,4,2,1,5,0,0
189514,-100,4,2,1,50,0,0
190845,-100,4,2,1,5,0,0
190966,-100,4,2,1,50,0,0
191329,-100,4,2,1,5,0,0
191450,-100,4,2,1,50,0,0
204030,-100,4,2,1,65,0,0
219514,-83.3333333333333,4,2,1,65,0,0
234998,-100,4,2,1,50,0,0
236934,-100,4,2,1,40,0,0
238869,-100,4,2,1,35,0,0
240804,-100,4,2,1,30,0,0
242740,-100,4,2,1,25,0,0
244675,-100,4,2,1,20,0,0
246611,-100,4,2,1,15,0,0
248546,-100,4,2,1,10,0,0
250482,-100,4,2,1,5,0,0

[Colours]
Combo1 : 223,223,223
Combo2 : 155,155,155
Combo3 : 87,87,87
Combo4 : 155,155,155

[HitObjects]
266,115,14353,5,0,1:0:0:0:
322,199,14595,1,0,0:0:0:0:
251,271,14837,1,8,0:0:0:0:
251,271,15804,1,8,0:0:0:0:
251,271,16772,1,8,0:0:0:0:
251,271,17740,1,8,0:0:0:0:
266,115,18224,5,0,1:0:0:0:
322,199,18466,1,0,0:0:0:0:
251,271,18708,1,8,0:0:0:0:
322,199,18950,1,0,1:0:0:0:
251,271,19675,1,8,0:0:0:0:
251,271,20643,1,8,0:0:0:0:
169,177,21127,6,0,P|113:185|46:240,2,120,2|2|2,0:1|0:1|0:1,0:0:0:0:
247,127,22095,6,0,L|236:-24,2,120.000004577637,6|0|8,1:2|0:0|0:0,0:0:0:0:
310,193,22821,1,0,0:0:0:0:
388,137,23063,6,0,P|434:136|501:167,2,120,2|2|2,0:1|0:1|0:1,0:0:0:0:
310,193,24030,6,0,P|312:253|344:360,1,160,0|8,0:0|0:0,0:0:0:0:
511,314,24998,2,0,P|509:254|477:147,1,160,2|8,0:1|0:0,0:0:0:0:
483,159,25966,6,0,L|499:27,2,120.000004577637,2|0|8,1:2|0:0|0:0,0:0:0:0:
399,198,26692,1,0,1:0:0:0:
325,138,26934,6,0,P|263:156|215:220,2,120,2|2|2,0:1|0:1|0:1,0:0:0:0:
399,198,27901,6,2,L|383:330,1,120.000004577637,2|0,0:0|0:0,0:1:0:0:
300,356,28385,2,2,L|180:341,1,120.000004577637,10|0,0:0|0:0,0:1:0:0:
142,257,28869,2,2,L|156:137,1,120.000004577637,2|0,0:0|0:0,0:1:0:0:
241,99,29353,2,2,L|360:113,1,120.000004577637,10|0,0:0|0:0,0:1:0:0:
453,119,29837,6,0,L|469:-13,2,120.000004577637,2|0|8,1:2|0:0|0:0,0:0:0:0:
360,113,30563,1,0,0:0:0:0:
405,191,30804,6,0,P|390:236|330:283,2,120,2|2|2,0:1|0:1|0:1,0:0:0:0:
360,113,31772,6,0,B|252:98|320:141|200:126,1,160,0|8,0:0|0:0,0:0:0:0:
142,53,32498,1,0,0:0:0:0:
95,137,32740,2,2,P|86:189|86:298,1,160,2|8,0:1|0:0,0:1:0:0:
42,368,33466,1,2,0:1:0:0:
137,368,33708,6,0,L|268:356,2,120.000004577637,2|0|8,1:2|0:0|0:0,0:0:0:0:
42,368,34434,1,0,1:0:0:0:
85,295,34675,6,0,P|65:233|30:170,1,120,2|2,0:1|0:1,0:0:0:0:
39,184,35159,1,8,0:0:0:0:
83,101,35401,1,2,0:1:0:0:
159,154,35643,6,2,L|284:138,1,120.000004577637,2|0,0:0|0:0,0:1:0:0:
337,210,36127,2,2,L|462:194,1,120.000004577637,10|0,0:0|0:0,0:1:0:0:
512,121,36611,2,2,L|496:-4,1,120.000004577637,2|0,0:0|0:0,0:1:0:0:
404,0,37095,2,2,L|419:119,1,120.000004577637,10|0,0:0|0:0,0:1:0:0:
354,185,37579,6,0,L|369:304,2,120.000004577637,6|0|8,1:2|0:0|0:0,0:0:0:0:
283,125,38304,1,0,0:0:0:0:
226,201,38546,6,0,P|157:210|112:213,2,80,2|2|8,0:1|0:1|0:2,0:0:0:0:
283,125,39272,2,0,P|346:99|450:92,1,160,2|2,0:1|0:1,0:0:0:0:
494,169,39998,1,8,0:0:0:0:
453,255,40240,1,0,0:0:0:0:
366,297,40482,2,2,P|302:315|285:313,1,80,2|2,0:1|0:1,0:1:0:0:
267,219,40966,2,0,P|303:203|343:202,1,80,8|2,0:0|0:1,0:0:0:0:
290,314,41450,6,0,L|170:307,2,120.000004577637,2|0|8,1:0|0:0|0:0,0:0:0:0:
267,219,42175,1,0,1:0:0:0:
231,136,42417,6,2,P|234:89|247:5,1,120,2|0,0:1|0:0,0:1:0:0:
244,16,42901,1,8,0:0:0:0:
330,0,43143,1,2,0:1:0:0:
354,81,43385,6,2,L|497:91,1,120.000004577637,2|0,0:0|0:0,0:1:0:0:
423,167,43869,2,2,L|303:158,1,120.000004577637,10|0,0:0|0:0,0:1:0:0:
336,245,44353,2,2,L|479:255,1,120.000004577637,2|0,0:0|0:0,0:1:0:0:
405,331,44837,2,2,L|285:322,1,120.000004577637,10|0,0:0|0:0,0:1:0:0:
207,278,45321,6,0,L|217:135,2,120.000004577637,2|0|8,1:2|0:0|0:0,0:0:0:0:
134,334,46046,1,0,0:0:0:0:
116,246,46288,6,0,P|65:245|0:265,2,120,2|2|2,0:1|0:1|0:1,0:0:0:0:
173,168,47256,6,0,P|225:147|305:68,1,160,0|8,0:0|0:0,0:0:0:0:
171,260,48224,2,0,P|225:317|297:351,1,160,2|8,0:1|0:0,0:0:0:0:
298,351,49192,6,0,L|309:201,2,120.000004577637,2|0|8,1:2|0:0|0:0,0:0:0:0:
213,302,49917,1,0,1:0:0:0:
138,357,50159,6,2,P|78:356|46:345,1,80,0|0,0:0|0:0,0:1:0:0:
60,250,50643,2,2,P|99:248|138:257,1,80,8|0,0:0|0:0,0:1:0:0:
212,209,51127,6,2,L|201:79,1,120.000004577637,2|0,0:0|0:0,0:1:0:0:
293,107,51611,2,2,L|423:96,1,120.000004577637,10|0,0:0|0:0,0:1:0:0:
490,45,52095,2,2,L|501:175,1,120.000004577637,2|0,0:0|0:0,0:1:0:0:
431,226,52579,2,2,L|301:237,1,120.000004577637,10|0,0:0|0:0,0:1:0:0:
228,209,53063,6,0,L|243:62,2,120.000004577637,6|2|10,1:2|0:0|0:0,0:0:0:0:
253,291,53788,2,0,L|193:297,1,60.0000022888184,2|2,0:0|0:0,0:0:0:0:
164,279,54030,6,0,P|123:255|67:244,1,80,2|2,0:0|0:0,0:0:0:0:
92,246,54393,1,2,0:0:0:0:
92,246,54514,1,8,0:0:0:0:
101,153,54756,1,0,0:0:0:0:
16,202,54998,5,0,0:0:0:0:
197,172,55482,2,0,L|205:111,2,40,8|2|2,0:0|0:0|0:0,0:0:0:0:
210,200,55845,1,2,0:0:0:0:
226,227,55966,2,0,P|266:220|305:222,1,80,2|2,0:0|0:0,0:0:0:0:
331,238,56329,1,2,0:0:0:0:
359,251,56450,2,0,L|455:246,1,80,8|0,0:0|0:0,0:0:0:0:
498,182,56934,5,2,1:2:0:0:
493,85,57175,1,2,0:1:0:0:
385,89,57417,2,0,P|395:128|399:168,1,80,8|0,0:0|1:0,0:0:0:0:
291,176,57901,1,0,0:0:0:0:
286,79,58142,1,2,0:1:0:0:
178,83,58385,2,0,P|188:122|192:162,1,80,8|0,0:0|0:0,0:0:0:0:
117,209,58869,5,2,0:0:0:0:
159,288,59111,1,2,0:1:0:0:
237,246,59353,2,0,P|275:255|315:259,1,80,8|0,0:0|0:0,0:0:0:0:
372,181,59837,1,0,0:0:0:0:
330,102,60079,1,2,0:1:0:0:
252,144,60321,2,0,P|213:134|173:130,1,80,8|0,0:0|0:0,0:0:0:0:
102,172,60804,5,2,1:2:0:0:
53,97,61046,1,2,0:1:0:0:
9,177,61288,2,2,P|33:228|39:334,1,160,8|0,0:0|0:0,0:1:0:0:
157,361,62014,1,2,0:1:0:0:
157,361,62256,2,2,P|157:281|187:207,1,160,8|2,0:0|0:0,0:1:0:0:
268,151,62982,5,2,0:1:0:0:
275,241,63224,2,0,P|267:280|255:318,1,80,8|0,0:0|0:0,0:0:0:0:
336,357,63708,1,2,0:1:0:0:
351,347,63829,2,2,P|358:307|370:269,1,80,2|2,0:1|0:1,0:1:0:0:
369,269,64192,1,8,0:0:0:0:
434,209,64434,1,2,0:0:0:0:
368,131,64675,6,0,L|379:61,2,40,2|0|2,1:2|0:0|0:0,0:0:0:0:
277,119,65159,1,10,0:0:0:0:
294,209,65401,6,0,L|300:248,2,40,2|0|2,1:2|0:0|0:0,0:0:0:0:
386,212,65885,1,2,0:0:0:0:
384,301,66127,1,8,0:0:0:0:
473,310,66369,1,2,0:1:0:0:
478,217,66611,5,0,0:0:0:0:
265,203,67095,1,8,0:0:0:0:
340,141,67337,1,2,0:0:0:0:
228,127,67579,2,0,P|229:83|240:36,1,80,2|0,0:0|0:0,0:0:0:0:
140,30,68063,2,0,P|139:88|133:109,1,80,10|0,0:0|0:0,0:0:0:0:
157,187,68546,6,0,L|3:177,2,120.000004577637,6|0|8,1:2|1:0|0:0,0:0:0:0:
219,244,69272,2,0,L|212:363,1,120.000004577637,0|0,1:0|0:0,0:0:0:0:
357,245,69998,6,0,P|433:249|512:216,2,160,8|2|8,0:0|0:0|0:0,0:0:0:0:
212,364,71450,2,0,P|139:334|60:337,1,160,2|8,0:0|0:0,0:0:0:0:
21,178,72417,6,0,L|10:34,2,120.000004577637,2|0|8,1:2|1:0|0:0,0:0:0:0:
109,172,73143,2,0,L|98:28,1,120.000004577637,0|0,1:0|0:0,0:0:0:0:
99,52,73869,5,8,0:0:0:0:
186,8,74111,1,2,0:0:0:0:
270,52,74353,2,0,P|305:97|325:203,1,160,2|8,0:0|0:0,0:0:0:0:
276,258,75079,1,2,0:0:0:0:
372,271,75321,2,0,P|407:226|427:120,1,160,2|8,0:0|0:0,0:0:0:0:
431,130,76288,6,0,L|307:142,2,120.000004577637,2|0|8,1:2|1:0|0:0,0:0:0:0:
477,202,77014,2,0,L|489:326,1,120.000004577637,0|0,1:0|0:0,0:0:0:0:
294,359,77740,6,0,P|234:370|140:331,2,160,8|2|8,0:0|0:0|0:0,0:0:0:0:
488,321,79192,2,0,P|457:248|392:202,1,160,2|8,0:0|0:0,0:0:0:0:
393,203,80159,6,0,L|402:84,2,120.000004577637,2|0|8,1:2|1:0|0:0,0:0:0:0:
309,206,80885,2,0,L|317:87,1,120.000004577637,0|0,1:0|0:0,0:0:0:0:
317,86,81611,5,8,0:0:0:0:
237,46,81853,1,2,0:0:0:0:
179,119,82095,2,0,P|174:186|137:274,1,160,2|8,0:0|0:0,0:0:0:0:
176,351,82821,1,2,0:0:0:0:
91,364,83063,2,0,P|42:301|15:226,1,160,2|8,0:0|0:0,0:0:0:0:
71,144,83788,1,0,0:0:0:0:
31,57,84030,6,0,L|180:41,2,120.000004577637,6|0|8,1:2|0:0|0:0,0:0:0:0:
71,144,84756,1,0,0:0:0:0:
167,121,84998,6,0,P|169:187|182:230,1,80,2|0,0:0|0:0,0:0:0:0:
172,200,85361,1,2,0:0:0:0:
172,200,85482,1,8,0:0:0:0:
263,231,85724,1,0,0:0:0:0:
334,176,85966,6,0,L|395:169,2,40,2|0|0,0:0|0:0|0:0,0:0:0:0:
326,90,86450,2,0,L|365:86,2,40,10|0|0,0:0|0:0|0:0,0:0:0:0:
316,4,86934,2,0,P|267:0|182:11,1,120,2|2,0:0|0:0,0:0:0:0:
197,7,87417,1,8,0:0:0:0:
150,93,87659,1,0,0:0:0:0:
242,104,87901,6,0,L|248:254,2,120.000004577637,2|0|8,1:2|0:0|0:0,0:0:0:0:
150,93,88627,1,0,1:0:0:0:
77,156,88869,6,0,P|85:196|82:235,1,80,2|0,0:0|0:0,0:0:0:0:
82,234,89232,2,0,P|132:221|209:217,1,120,2|0,0:0|0:0,0:0:0:0:
200,216,89716,1,0,0:0:0:0:
200,216,89837,6,2,L|206:343,1,120.000004577637,2|0,0:0|0:0,0:1:0:0:
292,324,90321,2,2,L|285:204,1,120.000004577637,10|0,0:0|0:0,0:1:0:0:
371,198,90804,2,2,L|377:325,1,120.000004577637,2|0,0:0|0:0,0:1:0:0:
462,309,91288,2,2,L|455:189,1,120.000004577637,10|0,0:0|0:0,0:1:0:0:
418,102,91772,6,0,P|352:112|255:106,2,120.000004577637,2|0|8,1:2|0:0|0:0,0:0:0:0:
461,26,92498,1,0,0:0:0:0:
502,97,92740,6,0,L|516:207,1,80,2|0,0:0|0:0,0:0:0:0:
512,176,93103,1,2,0:0:0:0:
512,176,93224,1,8,0:0:0:0:
498,268,93466,1,0,0:0:0:0:
418,224,93708,6,0,L|365:232,3,40,2|0|2|0,0:0|0:0|0:0|0:0,0:0:0:0:
343,212,94192,2,0,L|227:202,1,80,10|0,0:0|0:0,0:0:0:0:
196,256,94675,2,0,P|190:295|173:331,1,80,2|0,0:0|0:0,0:0:0:0:
173,331,95038,1,2,0:0:0:0:
173,331,95159,1,8,0:0:0:0:
263,374,95401,1,0,0:0:0:0:
315,308,95643,6,0,L|481:319,2,120.000004577637,2|0|8,1:2|0:0|0:0,0:0:0:0:
276,226,96369,1,0,1:0:0:0:
339,163,96611,6,0,P|341:85|338:59,1,80,2|0,0:0|0:0,0:0:0:0:
340,83,96974,1,2,0:0:0:0:
340,83,97095,1,8,0:0:0:0:
264,27,97337,1,0,0:0:0:0:
264,27,97458,1,0,0:0:0:0:
264,27,97579,6,2,L|118:20,1,120.000004577637,2|0,0:0|0:0,0:1:0:0:
119,131,98063,2,2,L|238:137,1,120.000004577637,10|0,0:0|0:0,0:1:0:0:
255,249,98546,2,2,L|109:242,1,120.000004577637,2|0,0:0|0:0,0:1:0:0:
110,353,99030,2,2,L|229:359,1,120.000004577637,10|0,0:0|0:0,0:1:0:0:
328,315,99514,6,0,P|346:252|335:188,2,120.000004577637,6|0|8,1:2|0:0|0:0,0:0:0:0:
402,374,100240,1,0,0:0:0:0:
471,319,100482,6,2,P|472:275|480:227,1,80,2|0,0:1|0:0,0:1:0:0:
478,240,100845,1,2,0:1:0:0:
478,240,100966,1,8,0:0:0:0:
427,168,101208,1,0,0:0:0:0:
469,90,101450,6,0,L|481:24,2,40,2|2|2,0:0|0:0|0:0,0:0:0:0:
387,46,101934,2,0,L|399:-20,2,40,10|2|2,0:0|0:0|0:0,0:0:0:0:
299,74,102417,2,2,P|255:75|207:83,1,80,2|0,0:1|0:0,0:1:0:0:
219,80,102780,1,2,0:1:0:0:
219,80,102901,1,8,0:0:0:0:
139,46,103143,1,0,0:0:0:0:
140,139,103385,6,0,L|151:305,2,120.000004577637,2|0|8,1:2|0:0|0:0,0:0:0:0:
60,92,104111,1,0,1:0:0:0:
32,181,104353,6,0,P|22:219|4:255,2,80,0|0|8,0:0|0:0|0:0,0:0:0:0:
60,92,105079,1,0,0:0:0:0:
145,47,105321,6,0,L|295:46,1,120.000004577637
292,153,105804,2,0,L|173:153,1,120.000004577637
132,257,106288,2,0,L|282:256,1,120.000004577637
279,363,106772,2,0,L|160:363,1,120.000004577637
54,366,107256,6,0,P|52:306|38:248,2,120.000004577637,6|0|8,1:2|0:0|0:0,0:0:0:0:
146,350,107982,1,0,0:0:0:0:
246,325,108224,5,2,0:0:0:0:
246,325,108345,2,0,L|353:322,1,80,0|2,0:0|0:0,0:0:0:0:
325,322,108708,2,0,L|323:242,1,80,8|0,0:0|0:0,0:0:0:0:
268,177,109192,5,2,0:0:0:0:
313,107,109434,1,2,0:1:0:0:
238,59,109675,2,0,P|154:52|69:55,1,160,8|2,0:0|0:0,0:0:0:0:
3,103,110401,5,2,0:1:0:0:
68,152,110643,2,0,P|70:232|70:261,1,80,8|0,0:0|0:0,0:0:0:0:
153,260,111127,6,0,P|146:319|154:378,2,120.000004577637,2|0|8,1:2|0:0|0:0,0:0:0:0:
231,212,111853,1,0,1:0:0:0:
310,168,112095,6,0,P|350:166|390:173,1,80,2|2,0:0|0:1,0:0:0:0:
422,97,112579,2,0,P|461:98|501:91,1,80,8|0,0:0|0:0,0:0:0:0:
512,14,113063,5,2,0:0:0:0:
512,14,114998,6,0,L|501:182,2,120.000004577637,0|2|8,1:0|0:1|0:0,0:0:0:0:
414,0,115724,1,2,0:1:0:0:
332,51,115966,5,2,0:1:0:0:
332,51,116087,2,2,L|243:56,1,80,2|2,0:1|0:1,0:1:0:0:
255,58,116450,2,0,L|259:137,1,80,8|2,0:0|0:0,0:0:0:0:
195,199,116934,6,0,L|149:198,2,40,2|0|2,0:2|0:0|0:0,0:0:0:0:
246,274,117417,1,10,0:0:0:0:
156,291,117659,6,0,L|110:290,2,40,2|0|2,0:0|0:0|0:0,0:0:0:0:
207,366,118142,1,2,0:0:0:0:
303,343,118385,1,8,0:0:0:0:
400,362,118627,1,0,0:0:0:0:
496,340,118869,6,2,P|505:272|505:202,2,120.000004577637,2|0|8,1:2|0:0|0:0,0:1:0:0:
416,271,119595,1,2,1:2:0:0:
317,294,119837,6,0,P|325:235|291:129,1,160,0|8,0:0|0:0,0:0:0:0:
268,53,120563,1,2,0:1:0:0:
205,164,120804,5,2,0:1:0:0:
173,70,121046,1,2,0:1:0:0:
109,150,121288,5,8,0:0:0:0:
77,57,121530,1,2,0:0:0:0:
17,127,121772,5,2,0:0:0:0:
190,183,122256,1,10,0:0:0:0:
374,152,122740,6,0,L|373:9,2,120.000004577637,6|0|8,1:2|1:0|0:0,0:0:0:0:
455,150,123466,2,0,L|455:30,1,120.000004577637,0|0,1:0|0:0,0:0:0:0:
357,266,124192,6,0,P|432:248|521:266,2,160,8|2|8,0:0|0:0|0:0,0:0:0:0:
455,30,125643,2,0,P|380:48|291:30,1,160,2|8,0:0|0:0,0:0:0:0:
299,33,126611,6,0,L|287:173,2,120.000004577637,2|0|8,1:2|1:0|0:0,0:0:0:0:
214,12,127337,2,0,L|95:1,1,120.000004577637,0|0,1:0|0:0,0:0:0:0:
94,0,128063,5,8,0:0:0:0:
47,81,128304,1,2,0:0:0:0:
117,137,128546,2,0,P|122:214|100:301,1,160,2|8,0:0|0:0,0:0:0:0:
161,360,129272,1,2,0:0:0:0:
224,302,129514,2,0,P|219:225|241:138,1,160,2|8,0:0|0:0,0:0:0:0:
238,145,130482,6,0,L|376:139,2,120.000004577637,2|0|8,1:2|1:0|0:0,0:0:0:0:
229,61,131208,2,0,L|348:55,1,120.000004577637,0|0,1:0|0:0,0:0:0:0:
469,223,131934,6,0,P|464:302|443:379,2,160,8|2|8,0:0|0:0|0:0,0:0:0:0:
349,56,133385,2,0,P|353:135|375:212,1,160,2|8,0:0|0:0,0:0:0:0:
375,213,134353,6,0,L|222:226,2,120.000004577637,2|0|8,1:2|1:0|0:0,0:0:0:0:
426,146,135079,2,0,L|416:27,1,120.000004577637,0|0,1:0|0:0,0:0:0:0:
415,26,135804,5,8,0:0:0:0:
326,1,136046,1,2,0:0:0:0:
246,54,136288,2,0,P|250:123|219:222,1,160,2|8,0:0|0:0,0:0:0:0:
291,267,137014,1,2,0:0:0:0:
233,332,137256,2,0,P|153:341|74:334,1,160,2|10,0:0|0:0,0:0:0:0:
24,172,138224,6,0,L|29:31,2,120.000004577637,6|0|8,1:2|1:0|0:0,0:0:0:0:
111,174,138950,2,0,L|116:33,1,120.000004577637,0|0,1:0|0:0,0:0:0:0:
321,9,139675,5,8,0:0:0:0:
115,54,140159,1,2,0:0:0:0:
160,260,140643,1,8,0:0:0:0:
366,215,141127,2,0,P|368:126|340:54,1,160,2|8,0:0|0:0,0:0:0:0:
344,61,142095,6,0,L|190:61,2,120.000004577637,2|0|8,1:2|1:0|0:0,0:0:0:0:
345,147,142821,2,0,L|225:147,1,120.000004577637,0|0,1:0|0:0,0:0:0:0:
225,147,143546,5,8,0:0:0:0:
224,61,143788,1,2,0:0:0:0:
141,42,144030,2,0,P|76:40|-3:104,1,160,2|8,0:0|0:0,0:0:0:0:
5,98,144756,1,2,0:0:0:0:
35,179,144998,2,0,P|100:181|179:117,1,160,2|8,0:0|0:0,0:0:0:0:
174,127,145966,6,0,L|164:284,2,120.000004577637,2|0|8,1:2|1:0|0:0,0:0:0:0:
262,131,146692,2,0,L|252:288,1,120.000004577637,0|0,1:0|0:0,0:0:0:0:
358,66,147417,5,8,0:0:0:0:
255,251,147901,1,2,0:0:0:0:
170,39,148385,1,8,0:0:0:0:
49,204,148869,2,0,P|52:273|27:361,1,160,2|8,0:0|0:0,0:0:0:0:
28,360,149837,6,0,L|147:368,2,120.000004577637,2|0|8,1:2|1:0|0:0,0:0:0:0:
35,274,150563,2,0,L|154:282,1,120.000004577637,0|0,1:0|0:0,0:0:0:0:
154,282,151288,5,8,0:0:0:0:
242,321,151530,1,2,0:0:0:0:
304,248,151772,2,0,P|310:168|303:88,1,160,2|8,0:0|0:0,0:0:0:0:
370,27,152498,1,2,0:0:0:0:
450,75,152740,2,0,P|443:154|450:234,1,160,2|8,0:0|0:0,0:0:0:0:
218,213,153708,5,2,0:0:0:0:
131,54,173063,5,4,1:2:0:0:
292,75,173546,1,2,0:0:0:0:
446,32,174030,2,0,P|452:74|455:152,1,106.666666666667,8|0,0:0|0:0,0:0:0:0:
455,138,174514,1,2,0:0:0:0:
172,187,174998,5,0,1:0:0:0:
356,259,175482,1,2,0:0:0:0:
222,378,175966,2,0,P|225:289|230:254,1,106.666666666667,8|0,0:0|0:0,0:0:0:0:
231,274,176450,2,0,L|110:268,1,106.666666666667,0|0,1:0|0:0,0:0:0:0:
124,268,176934,5,0,1:0:0:0:
308,211,177417,1,2,0:0:0:0:
186,53,177901,2,0,L|192:160,1,106.666666666667,8|0,0:0|0:0,0:0:0:0:
191,159,178385,1,0,1:0:0:0:
393,138,178869,5,0,1:0:0:0:
301,235,179353,1,2,0:0:0:0:
305,55,179837,2,0,P|240:48|142:66,2,160,8|2|0,0:0|0:0|1:0,0:0:0:0:
448,132,181288,5,2,0:0:0:0:
334,245,181772,2,0,P|269:252|206:243,1,106.666666666667,8|0,0:0|0:0,0:0:0:0:
228,247,182256,1,2,0:0:0:0:
19,246,182740,5,0,1:0:0:0:
122,105,183224,1,2,0:0:0:0:
38,268,183708,2,0,P|38:336|41:389,1,106.666666666667,8|0,0:0|0:0,0:0:0:0:
44,377,184192,2,0,L|153:384,1,106.666666666667,0|0,1:0|0:0,0:0:0:0:
150,384,184675,5,0,1:0:0:0:
162,209,185159,1,2,0:0:0:0:
340,213,185643,2,0,P|346:258|337:324,1,106.666666666667,8|0,0:0|0:0,0:0:0:0:
338,318,186127,1,0,1:0:0:0:
142,308,186611,5,0,1:0:0:0:
352,339,187095,1,2,0:0:0:0:
226,183,187579,1,8,0:0:0:0:
393,220,188063,1,2,0:0:0:0:
198,176,188546,6,0,P|185:119|209:6,1,160,0|2,1:0|0:0,0:0:0:0:
369,44,189514,2,0,P|430:27|483:26,1,106.666666666667,8|0,0:0|0:0,0:0:0:0:
473,25,189998,1,2,0:0:0:0:
329,120,190482,6,0,P|316:177|340:290,1,160,0|2,1:0|0:0,0:0:0:0:
112,290,191450,2,0,P|129:229|130:176,1,106.666666666667,8|0,0:0|0:0,0:0:0:0:
130,185,191934,2,0,P|183:188|234:203,1,106.666666666667,0|0,1:0|0:0,0:0:0:0:
234,203,192417,6,0,P|234:150|258:28,1,160,0|2,1:0|0:0,0:0:0:0:
392,16,193385,2,0,P|445:17|519:35,1,106.666666666667,8|0,0:0|0:0,0:0:0:0:
497,28,193869,1,0,1:0:0:0:
481,157,194192,1,0,0:0:0:0:
481,157,194353,6,0,P|427:156|375:146,1,106.666666666667,0|0,1:0|0:0,0:0:0:0:
375,146,194837,2,0,P|389:230|383:275,1,106.666666666667,2|0,0:0|0:0,0:0:0:0:
387,250,195321,1,8,0:0:0:0:
141,248,195804,1,2,0:0:0:0:
374,274,196288,5,0,1:0:0:0:
136,224,196772,1,2,0:0:0:0:
289,105,197256,2,0,P|294:160|287:229,1,106.666666666667,8|0,0:0|0:0,0:0:0:0:
290,211,197740,1,2,0:0:0:0:
137,346,198224,5,0,1:0:0:0:
304,238,198708,1,2,0:0:0:0:
506,367,199192,2,0,P|514:304|506:251,1,106.666666666667,8|0,0:0|0:0,0:0:0:0:
512,265,199675,2,0,P|449:257|396:265,1,106.666666666667,0|0,1:0|0:0,0:0:0:0:
406,262,200159,5,0,1:0:0:0:
199,220,200643,1,2,0:0:0:0:
332,127,201127,1,8,0:0:0:0:
290,350,201611,1,0,1:0:0:0:
321,151,202095,6,0,P|339:53|370:-9,2,160,0|2|10,1:0|0:0|0:0,0:0:0:0:
160,246,203546,1,2,0:0:0:0:
430,237,204030,6,0,P|358:262|266:243,2,160,6|0|8,1:2|0:0|0:0,0:0:0:0:
176,158,205482,2,0,P|174:237|215:305,1,160,2|0,0:0|1:0,0:0:0:0:
214,304,206450,1,0,0:0:0:0:
430,237,206934,2,0,P|431:158|391:90,1,160,10|2,0:0|1:2,0:0:0:0:
177,52,207901,6,0,B|166:252|256:154|243:362,1,320,2|8,1:2|0:0,0:0:0:0:
41,346,209353,1,0,1:0:0:0:
330,369,209837,6,0,P|337:290|327:211,1,160,2|0,1:2|0:0,0:0:0:0:
107,50,210804,2,0,P|100:129|110:208,1,160,10|2,0:0|0:0,0:0:0:0:
300,363,211772,6,0,P|376:341|456:343,2,160,6|0|8,1:2|0:0|0:0,0:0:0:0:
93,315,213224,2,0,P|91:236|112:159,1,160,2|0,0:0|1:0,0:0:0:0:
94,0,214192,1,0,0:0:0:0:
252,124,214675,2,0,P|253:204|232:281,1,160,8|2,0:0|1:2,0:0:0:0:
431,368,215643,6,0,B|436:304|436:304|454:283|454:283|458:208,1,160,2|0,1:2|0:0,0:0:0:0:
355,190,216369,2,0,P|349:229|349:290,1,80,2|8,0:0|0:0,0:0:0:0:
133,271,217095,2,0,P|131:231|125:191,1,80,0|2,1:0|0:0,0:0:0:0:
163,122,217579,6,0,P|212:114|322:149,1,160,2|2,1:2|0:0,0:0:0:0:
389,103,218304,1,0,0:0:0:0:
460,166,218546,2,0,P|440:242|454:321,1,160,10|2,0:0|0:0,0:0:0:0:
288,362,219514,6,0,P|304:281|185:-4,1,383.99998828125,6|8,1:2|0:0,0:0:0:0:
23,0,220966,1,2,0:0:0:0:
47,177,221450,6,0,P|204:199|105:323,1,383.99998828125,0|8,1:0|0:0,0:0:0:0:
328,240,222901,1,2,1:2:0:0:
106,324,223385,6,0,B|306:297|172:367|403:330,1,287.999991210938,2|0,1:2|0:0,0:0:0:0:
455,276,224353,2,0,P|463:224|427:77,1,191.999994140625,8|0,0:0|1:0,0:0:0:0:
208,123,225321,6,0,P|200:175|236:322,1,191.999994140625,2|0,1:2|0:0,0:0:0:0:
455,276,226288,2,0,P|463:224|427:77,1,191.999994140625,8|2,0:0|0:0,0:0:0:0:
210,8,227256,6,0,B|230:268|121:100|143:389,1,383.99998828125,2|8,1:2|0:0,0:0:0:0:
391,371,228708,1,2,0:0:0:0:
142,375,229192,6,0,P|79:319|261:208,1,383.99998828125,0|8,1:0|0:0,0:0:0:0:
391,371,230643,1,2,1:2:0:0:
250,196,231127,6,0,B|241:115|241:115|253:91|253:91|244:-1,1,191.999994140625,2|0,1:2|0:0,0:0:0:0:
331,0,231853,2,0,P|332:47|354:106,1,95.9999970703126,2|8,0:0|0:0,0:0:0:0:
166,134,232579,2,0,P|119:133|60:111,1,95.9999970703126,0|2,1:0|0:0,0:0:0:0:
37,205,233063,6,0,P|117:221|193:310,1,191.999994140625,2|2,1:2|0:0,0:0:0:0:
216,384,233788,1,2,0:0:0:0:
284,322,234030,2,0,P|373:345|475:322,1,191.999994140625,8|0,0:0|0:0,0:0:0:0:
448,117,234998,5,6,0:0:0:0:
448,117,236934,1,6,0:0:0:0:
448,117,238869,1,6,0:0:0:0:
448,117,240804,5,4,0:0:0:0:
256,192,240925,12,0,250482,0:0:0:0:
