osu file format v14

[General]
AudioFilename: audio.mp3
AudioLeadIn: 0
PreviewTime: 16914
Countdown: 0
SampleSet: None
StackLeniency: 0.4
Mode: 0
LetterboxInBreaks: 0
WidescreenStoryboard: 1

[Editor]
DistanceSpacing: 1
BeatDivisor: 4
GridSize: 16
TimelineZoom: 1.5

[Metadata]
Title:Power Rangers S.P.D. Opening Theme
TitleUnicode:Power Rangers S.P.D. Opening Theme
Artist:The Mighty RAW
ArtistUnicode:The Mighty RAW
Creator:Vel0ciTy
Version:To The Rescue!
Source:Power Rangers S.P.D.
Tags:
BeatmapID:1979451
BeatmapSetID:936261

[Difficulty]
HPDrainRate:6
CircleSize:4
OverallDifficulty:9.2
ApproachRate:9.3
SliderMultiplier:1.7
SliderTickRate:1

[Events]
//Background and Video events
0,0,"Power-rangers-SPD-the-power-ranger-36856912-1024-567.jpg",0,0
//Break Periods
2,77620,80559
//Storyboard Layer 0 (Background)
//Storyboard Layer 1 (Fail)
//Storyboard Layer 2 (Pass)
//Storyboard Layer 3 (Foreground)
//Storyboard Sound Samples

[TimingPoints]
578,314.13612565445,4,3,0,100,1,0
578,-133.333333333333,4,3,0,100,0,0
6860,-117.647058823529,4,3,0,100,0,0
13143,-111.111111111111,4,3,0,100,0,0
16913,-100,4,3,0,100,0,0
27279,-105.263157894737,4,3,0,100,0,0
37331,-125,4,3,0,100,0,0
38588,-111.111111111111,4,3,0,100,0,0
39845,-100,4,3,0,100,0,0
42080,314.13612565445,4,3,0,100,1,0
52132,-117.647058823529,4,3,0,100,0,0
57158,-105.263157894737,4,3,0,100,0,0
63441,-100,4,3,0,100,0,0
67210,-90.9090909090909,4,3,0,100,0,0
79857,314.13612565445,4,3,0,100,1,0
81113,-100,4,3,0,100,0,0
85825,-83.3333333333333,4,3,0,100,0,1
89909,-90.9090909090909,4,3,0,100,0,0

[Colours]
Combo1 : 0,233,124
Combo2 : 198,98,255
Combo3 : 1,196,244

[HitObjects]
32,32,1834,6,0,L|112:52,1,63.7500024318696
217,88,2148,2,0,P|188:101|167:124,1,63.7500024318696
239,224,2462,2,0,P|242:193|233:163,1,63.7500024318696
110,176,2776,1,0,0:0:0:0:
160,256,2934,1,0,0:0:0:0:
32,352,3091,6,0,L|109:331,1,63.7500024318696
237,297,3405,2,0,P|223:326|220:358,1,63.7500024318696
319,260,3719,2,0,P|301:233|275:215,1,63.7500024318696
310,350,4033,1,0,0:0:0:0:
417,291,4190,1,0,0:0:0:0:
412,142,4347,6,0,L|334:162,1,63.7500024318696
215,193,4661,2,0,P|247:198|274:215,1,63.7500024318696
230,332,4975,2,0,P|218:302|220:271,1,63.7500024318696
341,249,5290,1,0,0:0:0:0:
320,384,5447,1,0,0:0:0:0:
432,176,5604,6,0,L|452:253,1,63.7500024318696
480,368,5918,5,0,0:0:0:0:
359,159,6075,1,0,0:0:0:0:
230,332,6232,5,0,0:0:0:0:
448,237,6389,1,0,0:0:0:0:
224,160,6546,5,0,0:0:0:0:
400,368,6703,1,0,0:0:0:0:
480,160,6860,6,0,L|461:90,1,72.2500013780594
320,0,7174,2,0,P|332:33|330:69,1,72.2500013780594
187,93,7488,2,0,P|210:65|242:49,1,72.2500013780594
334,161,7803,1,0,0:0:0:0:
192,224,7960,1,0,0:0:0:0:
311,67,8117,6,0,L|241:48,1,72.2500013780594
334,160,8431,2,0,P|366:146|391:120,1,72.2500013780594
307,0,8745,2,0,P|303:35|312:70,1,72.2500013780594
459,57,9059,1,0,0:0:0:0:
224,0,9216,1,0,0:0:0:0:
48,96,9373,6,0,L|117:115,1,72.2500013780594
255,176,9687,2,0,P|221:186|194:209,1,72.2500013780594
259,332,10002,2,0,P|268:297|262:262,1,72.2500013780594
122,258,10316,1,0,0:0:0:0:
333,367,10473,1,0,0:0:0:0:
254,176,10630,6,0,L|178:155,1,72.2500013780594
27,150,10944,2,0,P|60:161|85:187,1,72.2500013780594
144,368,11258,5,0,0:0:0:0:
254,176,11415,1,0,0:0:0:0:
20,226,11572,5,0,0:0:0:0:
251,331,11729,1,0,0:0:0:0:
168,142,11886,6,0,P|146:114|117:94,1,72.2500013780594
288,16,12201,2,0,P|265:44|236:64,1,72.2500013780594
384,192,12515,2,0,P|361:163|332:143,1,72.2500013780594
512,16,12829,2,0,P|489:44|460:64,1,72.2500013780594
231,140,13143,6,0,P|237:102|258:70,1,76.4999976654053
359,212,13457,2,0,P|352:174|331:142,1,76.4999976654053
206,299,13771,2,0,P|212:261|233:229,1,76.4999976654053
400,352,14085,6,0,P|393:314|372:282,1,76.4999976654053
231,140,14399,1,0,0:0:0:0:
134,336,14557,1,0,0:0:0:0:
161,74,14714,2,0,P|141:106|136:143,1,76.4999976654053
372,282,15028,1,0,0:0:0:0:
231,140,15185,1,0,0:0:0:0:
64,297,15342,2,0,P|53:333|61:370,1,76.4999976654053
372,282,15656,5,0,0:0:0:0:
136,143,15813,1,0,0:0:0:0:
285,352,15970,5,0,0:0:0:0:
376,86,16127,1,0,0:0:0:0:
144,244,16284,5,0,0:0:0:0:
440,213,16441,1,0,0:0:0:0:
177,43,16598,5,0,0:0:0:0:
352,320,16756,1,0,0:0:0:0:
31,160,16913,6,0,P|0:237|23:317,1,170
190,309,17384,2,0,P|175:269|143:243,1,85
352,176,17698,2,0,P|336:215|304:242,1,85
128,80,18012,6,0,L|220:55,1,85
304,242,18326,2,0,L|236:174,1,85
356,8,18640,2,0,L|331:100,1,85
264,312,18954,6,0,P|273:271|303:241,1,85
442,163,19269,1,0,0:0:0:0:
345,312,19426,5,0,0:0:0:0:
302,127,19583,1,0,0:0:0:0:
443,265,19740,5,0,0:0:0:0:
226,246,19897,1,0,0:0:0:0:
416,128,20054,6,0,P|460:115|500:122,1,85
303,241,20368,2,0,P|347:254|387:247,1,85
224,96,20682,5,0,0:0:0:0:
192,272,20839,1,0,0:0:0:0:
340,135,20996,5,0,0:0:0:0:
139,166,21153,1,0,0:0:0:0:
308,286,21310,5,0,0:0:0:0:
236,73,21468,1,0,0:0:0:0:
188,293,21625,5,0,0:0:0:0:
337,111,21782,1,0,0:0:0:0:
75,80,21939,6,0,P|33:151|54:231,1,170
212,127,22410,2,0,P|179:153|139:166,1,85
16,352,22724,2,0,P|49:326|89:313,1,85
304,288,23038,6,0,L|279:380,1,85
480,288,23352,2,0,L|504:380,1,85
417,93,23667,2,0,L|395:175,1,85
348,358,23981,6,0,P|332:319|304:288,1,85
128,256,24295,1,0,0:0:0:0:
233,384,24452,5,0,0:0:0:0:
281,189,24609,1,0,0:0:0:0:
96,272,24766,5,0,0:0:0:0:
303,287,24923,1,0,0:0:0:0:
153,131,25080,2,0,P|110:133|73:153,1,85
0,0,25394,2,0,P|37:18|79:19,1,85
320,0,25708,5,0,0:0:0:0:
153,131,25865,1,0,0:0:0:0:
362,184,26023,5,0,0:0:0:0:
197,37,26180,1,0,0:0:0:0:
251,255,26337,5,0,0:0:0:0:
382,67,26494,1,0,0:0:0:0:
409,299,26651,5,0,0:0:0:0:
261,102,26808,1,0,0:0:0:0:
198,322,26965,5,0,0:0:0:0:
332,203,27122,1,0,0:0:0:0:
144,208,27279,6,0,L|221:228,1,80.7499978437424
96,352,27593,1,0,0:0:0:0:
71,192,27750,2,0,P|88:157|122:136,1,80.7499978437424
256,272,28064,2,0,P|180:274|142:207,1,161.499995687485
211,86,28536,5,0,0:0:0:0:
218,207,28693,1,0,0:0:0:0:
86,59,28850,2,0,P|20:69|59:124,1,161.499995687485
86,324,29321,2,0,P|20:314|59:259,1,161.499995687485
218,207,29792,5,0,0:0:0:0:
60,124,29949,1,0,0:0:0:0:
247,124,30106,2,0,P|280:145|302:179,1,80.7499978437424
304,368,30420,2,0,P|270:346|248:312,1,80.7499978437424
480,288,30735,6,0,L|455:380,1,80.7499978437424
342,190,31049,2,0,L|366:282,1,80.7499978437424
474,47,31363,2,0,L|432:202,1,161.499995687485
388,370,31834,1,0,0:0:0:0:
342,190,31991,1,0,0:0:0:0:
278,377,32148,5,0,0:0:0:0:
224,224,32305,1,0,0:0:0:0:
352,304,32462,1,0,0:0:0:0:
160,304,32619,1,0,0:0:0:0:
360,216,32776,2,0,P|398:230|428:257,1,80.7499978437424
480,3,33091,2,0,P|430:64|431:143,1,161.499995687485
483,256,33562,5,0,0:0:0:0:
336,144,33719,1,0,0:0:0:0:
352,304,33876,1,0,0:0:0:0:
430,142,34033,2,0,P|421:104|397:72,1,80.7499978437424
216,188,34347,2,0,P|261:127|336:144,1,161.499995687485
432,272,34818,5,0,0:0:0:0:
287,194,34975,1,0,0:0:0:0:
416,79,35132,2,0,P|454:68|494:75,1,80.7499978437424
271,10,35447,2,0,P|310:16|349:5,1,80.7499978437424
127,83,35761,5,0,0:0:0:0:
287,194,35918,1,0,0:0:0:0:
93,240,36075,5,0,0:0:0:0:
233,99,36232,1,0,0:0:0:0:
211,301,36389,5,0,0:0:0:0:
88,121,36546,1,0,0:0:0:0:
47,339,36703,5,0,0:0:0:0:
206,174,36860,1,0,0:0:0:0:
288,321,37017,2,0,L|210:300,1,80.7499978437424
363,245,37331,5,0,0:0:0:0:
319,172,37488,1,0,0:0:0:0:
217,174,37646,2,0,P|186:263|242:187,1,272
409,94,38588,5,0,0:0:0:0:
320,176,38745,1,0,0:0:0:0:
369,328,38903,2,0,P|482:326|384:271,1,305.999990661621
272,336,39845,5,0,0:0:0:0:
241,186,40002,1,0,0:0:0:0:
380,42,40160,2,0,P|474:72|383:111,1,255
272,32,40787,6,0,L|231:22,3,42.5
93,96,41101,2,0,L|135:86,3,42.5
275,160,41415,6,0,L|234:150,1,42.5
87,223,41572,2,0,L|128:212,1,42.5
281,288,41729,2,0,L|239:277,1,42.5
81,352,41886,2,0,L|123:341,1,42.5
406,266,42079,6,0,P|408:336|453:267,1,170
480,133,42551,2,0,P|471:174|483:214,1,85
403,1,42865,2,0,P|411:42|399:82,1,85
221,58,43179,6,0,L|304:37,1,85
160,192,43493,2,0,L|99:131,1,85
306,179,43807,2,0,L|284:261,1,85
303,37,44121,6,0,P|346:39|383:59,1,85
496,176,44435,1,0,0:0:0:0:
324,122,44593,5,0,0:0:0:0:
448,240,44750,1,0,0:0:0:0:
448,32,44907,5,0,0:0:0:0:
336,208,45064,1,0,0:0:0:0:
506,99,45221,6,0,P|465:118|421:116,1,85
224,32,45535,2,0,P|265:13|309:15,1,85
240,192,45849,5,0,0:0:0:0:
142,27,46006,1,0,0:0:0:0:
97,226,46163,5,0,0:0:0:0:
280,104,46320,1,0,0:0:0:0:
74,79,46477,5,0,0:0:0:0:
215,239,46634,1,0,0:0:0:0:
226,16,46792,5,0,0:0:0:0:
48,192,46949,1,0,0:0:0:0:
298,262,47106,6,0,P|282:183|206:153,1,170
176,310,47577,2,0,P|185:269|214:238,1,85
64,368,47891,2,0,P|54:327|25:296,1,85
32,96,48205,6,0,L|56:188,1,85
226,16,48519,2,0,L|201:108,1,85
171,353,48833,2,0,L|149:270,1,85
72,29,49148,6,0,P|64:70|32:96,1,85
226,16,49462,1,0,0:0:0:0:
96,144,49619,5,0,0:0:0:0:
288,160,49776,1,0,0:0:0:0:
146,19,49933,5,0,0:0:0:0:
203,226,50090,1,0,0:0:0:0:
313,43,50247,2,0,P|348:21|389:11,1,85
512,176,50561,2,0,P|476:198|435:208,1,85
240,192,50875,5,0,0:0:0:0:
394,333,51032,1,0,0:0:0:0:
376,127,51189,5,0,0:0:0:0:
225,285,51346,1,0,0:0:0:0:
445,250,51504,5,0,0:0:0:0:
260,108,51661,1,0,0:0:0:0:
301,344,51818,5,0,0:0:0:0:
435,114,51975,1,0,0:0:0:0:
480,352,52132,6,0,L|397:330,1,72.2500013780594
240,310,52446,2,0,P|275:318|300:343,1,72.2500013780594
158,348,52760,2,0,P|147:314|156:279,1,72.2500013780594
272,240,53074,1,0,0:0:0:0:
176,176,53231,1,0,0:0:0:0:
320,96,53388,6,0,L|250:77,1,72.2500013780594
84,51,53703,2,0,P|118:60|143:85,1,72.2500013780594
78,197,54017,2,0,P|69:162|79:128,1,72.2500013780594
207,128,54331,1,0,0:0:0:0:
149,254,54488,1,0,0:0:0:0:
0,304,54645,6,0,L|69:322,1,72.2500013780594
248,363,54959,2,0,P|223:337|212:302,1,72.2500013780594
335,228,55273,2,0,P|325:262|301:289,1,72.2500013780594
174,219,55587,1,0,0:0:0:0:
320,112,55744,1,0,0:0:0:0:
480,160,55901,6,0,L|459:237,1,72.2500013780594
425,363,56216,5,0,0:0:0:0:
348,159,56373,1,0,0:0:0:0:
266,360,56530,5,0,0:0:0:0:
461,229,56687,1,0,0:0:0:0:
226,261,56844,5,0,0:0:0:0:
445,358,57001,1,0,0:0:0:0:
348,159,57158,6,0,L|426:179,1,80.7499978437424
300,66,57472,2,0,P|269:90|248:125,1,80.7499978437424
451,254,57786,2,0,P|445:214|425:179,1,80.7499978437424
213,289,58100,1,0,0:0:0:0:
423,356,58257,1,0,0:0:0:0:
321,141,58415,6,0,L|243:120,1,80.7499978437424
48,66,58729,2,0,P|75:95|88:133,1,80.7499978437424
0,320,59043,2,0,P|12:281|38:251,1,80.7499978437424
243,234,59357,1,0,0:0:0:0:
89,327,59514,1,0,0:0:0:0:
165,99,59671,6,0,L|242:119,1,80.7499978437424
496,176,59985,2,0,P|459:160|430:132,1,80.7499978437424
320,0,60299,2,0,P|324:39|314:78,1,80.7499978437424
255,240,60613,1,0,0:0:0:0:
430,132,60771,1,0,0:0:0:0:
205,35,60928,6,0,L|127:55,1,80.7499978437424
0,224,61242,2,0,P|39:217|77:229,1,80.7499978437424
192,352,61556,5,0,0:0:0:0:
176,160,61713,1,0,0:0:0:0:
34,304,61870,5,0,0:0:0:0:
249,277,62027,1,0,0:0:0:0:
94,145,62184,2,0,P|57:133|17:139,1,80.7499978437424
112,320,62498,2,0,P|151:326|189:313,1,80.7499978437424
336,144,62812,2,0,P|296:137|258:150,1,80.7499978437424
416,352,63127,2,0,P|455:358|493:345,1,80.7499978437424
480,128,63441,6,0,L|455:220,1,85
256,64,63755,2,0,L|348:39,1,85
312,289,64069,2,0,L|244:221,1,85
96,64,64383,5,0,0:0:0:0:
48,288,64540,1,0,0:0:0:0:
254,136,64697,2,0,P|295:148|325:177,1,85
384,352,65011,5,0,0:0:0:0:
448,112,65168,1,0,0:0:0:0:
179,190,65326,2,0,P|210:218|251:228,1,85
32,352,65640,2,0,P|72:341|103:313,1,85
189,110,65954,5,0,0:0:0:0:
254,330,66111,1,0,0:0:0:0:
346,118,66268,5,0,0:0:0:0:
146,248,66425,1,0,0:0:0:0:
383,287,66582,5,0,0:0:0:0:
254,74,66739,1,0,0:0:0:0:
197,331,66896,5,0,0:0:0:0:
384,128,67053,1,0,0:0:0:0:
115,55,67210,6,0,P|59:83|138:136,1,187.000005706787
319,48,67682,2,0,P|361:27|408:29,1,93.5000028533936
512,240,67996,2,0,P|470:219|423:221,1,93.5000028533936
272,352,68310,6,0,L|247:259,1,93.5000028533936
0,336,68624,2,0,L|92:360,1,93.5000028533936
150,109,68938,2,0,L|82:176,1,93.5000028533936
308,187,69252,6,0,P|335:225|340:271,1,93.5000028533936
144,320,69566,1,0,0:0:0:0:
254,131,69723,5,0,0:0:0:0:
320,352,69881,1,0,0:0:0:0:
128,224,70038,1,0,0:0:0:0:
360,162,70195,1,0,0:0:0:0:
184,345,70352,6,0,P|142:362|96:359,1,93.5000028533936
68,121,70666,2,0,P|110:103|156:106,1,93.5000028533936
360,162,70980,5,0,0:0:0:0:
128,224,71137,1,0,0:0:0:0:
262,25,71294,5,0,0:0:0:0:
342,262,71451,1,0,0:0:0:0:
133,122,71608,5,0,0:0:0:0:
392,58,71765,1,0,0:0:0:0:
336,320,71922,5,0,0:0:0:0:
208,64,72079,1,0,0:0:0:0:
96,335,72237,6,0,P|168:280|260:284,1,187.000005706787
496,368,72708,6,0,P|447:338|426:291,1,93.5000028533936
432,64,73022,2,0,P|481:94|502:141,1,93.5000028533936
256,80,73336,6,0,L|147:51,1,93.5000028533936
256,304,73650,2,0,L|335:224,1,93.5000028533936
62,192,73964,2,0,L|90:300,1,93.5000028533936
255,79,74278,6,0,P|231:118|227:164,1,93.5000028533936
256,304,74593,1,0,0:0:0:0:
327,153,74750,5,0,0:0:0:0:
397,337,74907,1,0,0:0:0:0:
206,250,75064,1,0,0:0:0:0:
432,160,75221,1,0,0:0:0:0:
171,160,75378,6,0,P|133:188|113:230,1,93.5000028533936
16,32,75692,2,0,P|53:59|73:101,1,93.5000028533936
64,320,76006,5,0,0:0:0:0:
176,103,76163,1,0,0:0:0:0:
228,340,76320,5,0,0:0:0:0:
33,166,76477,1,0,0:0:0:0:
289,109,76634,5,0,0:0:0:0:
146,342,76792,1,0,0:0:0:0:
105,61,76949,5,0,0:0:0:0:
320,272,77106,1,0,0:0:0:0:
80,288,77263,2,0,L|92:241,2,46.7500014266968
270,100,81113,5,0,0:0:0:0:
221,279,81270,1,0,0:0:0:0:
331,145,81427,5,0,0:0:0:0:
290,298,81584,1,0,0:0:0:0:
393,192,81741,5,0,0:0:0:0:
359,316,81898,1,0,0:0:0:0:
455,255,82055,2,0,L|433:337,1,85
479,143,82370,6,0,P|442:70|361:54,1,170
265,57,82841,2,0,P|303:130|384:147,2,170
112,16,83626,2,0,L|90:98,1,85
48,256,83940,5,0,0:0:0:0:
192,128,84097,1,0,0:0:0:0:
212,323,84254,5,0,0:0:0:0:
64,176,84411,1,0,0:0:0:0:
272,176,84569,5,0,0:0:0:0:
149,360,84726,2,0,P|151:279|227:251,1,170
287,296,85197,2,0,P|253:321|211:322,2,85
336,144,85668,1,0,0:0:0:0:
160,96,85825,6,0,L|110:82,1,50.9999984436036
177,238,85982,2,0,L|226:251,1,50.9999984436036
391,293,86139,5,0,0:0:0:0:
313,77,86296,1,0,0:0:0:0:
464,256,86453,5,0,0:0:0:0:
256,160,86610,1,0,0:0:0:0:
472,83,86767,5,0,0:0:0:0:
311,275,86925,1,0,0:0:0:0:
259,31,87082,5,0,0:0:0:0:
414,233,87239,1,0,0:0:0:0:
171,177,87396,5,0,0:0:0:0:
367,31,87553,1,0,0:0:0:0:
266,255,87710,5,0,0:0:0:0:
193,20,87867,1,0,0:0:0:0:
113,251,88024,5,0,0:0:0:0:
289,95,88181,1,0,0:0:0:0:
48,128,88338,5,0,0:0:0:0:
277,189,88495,1,0,0:0:0:0:
64,320,88652,5,0,0:0:0:0:
224,96,88809,1,0,0:0:0:0:
256,352,88966,5,0,0:0:0:0:
96,96,89124,1,0,0:0:0:0:
353,196,89281,5,0,0:0:0:0:
62,285,89438,1,0,0:0:0:0:
272,32,89595,6,0,L|257:85,1,50.9999984436036
144,352,89752,2,0,L|157:302,1,50.9999984436036
129,67,89909,6,0,P|106:141|53:84,1,187.000005706787
257,80,90380,2,0,P|296:106|320:146,1,93.5000028533936
480,336,90694,2,0,P|441:310|417:270,1,93.5000028533936
480,32,91008,6,0,L|451:140,1,93.5000028533936
336,320,91322,2,0,L|311:229,1,93.5000028533936
208,16,91637,2,0,L|183:106,1,93.5000028533936
79,336,91951,6,0,P|70:290|37:258,1,93.5000028533936
176,352,92265,1,0,0:0:0:0:
96,160,92422,5,0,0:0:0:0:
288,256,92579,1,0,0:0:0:0:
79,336,92736,5,0,0:0:0:0:
207,147,92893,1,0,0:0:0:0:
303,351,93050,6,0,P|349:362|395:356,1,93.5000028533936
512,176,93364,2,0,P|466:165|420:171,1,93.5000028533936
224,288,93678,5,0,0:0:0:0:
304,80,93836,1,0,0:0:0:0:
396,280,93993,5,0,0:0:0:0:
202,149,94150,1,0,0:0:0:0:
432,91,94307,5,0,0:0:0:0:
305,308,94464,1,0,0:0:0:0:
268,59,94621,5,0,0:0:0:0:
448,256,94778,1,0,0:0:0:0:
176,208,94935,5,0,0:0:0:0:
400,48,95092,1,0,0:0:0:0:
368,336,95249,1,0,0:0:0:0:
160,48,95406,1,0,0:0:0:0:
