osu file format v14

[General]
AudioFilename: audio.mp3
AudioLeadIn: 0
PreviewTime: 29
Countdown: 0
SampleSet: Soft
StackLeniency: 0.7
Mode: 0
LetterboxInBreaks: 0
CountdownOffset: 3
WidescreenStoryboard: 0

[Editor]
DistanceSpacing: 1.2
BeatDivisor: 4
GridSize: 32
TimelineZoom: 2.6

[Metadata]
Title:The Glow, Pt. 2
TitleUnicode:The Glow, Pt. 2
Artist:The Microphones
ArtistUnicode:The Microphones
Creator:Mirash
Version:Insane
Source:
Tags:Phil Elverum Mount Eerie Ruiz Duchamp attendant indie folk rock english lo-fi noise part two
BeatmapID:3950796
BeatmapSetID:1915048

[Difficulty]
HPDrainRate:6
CircleSize:4
OverallDifficulty:7
ApproachRate:9
SliderMultiplier:2.4
SliderTickRate:1

[Events]
//Background and Video events
0,0,"aaaa.jpg",0,0
//Break Periods
//Storyboard Layer 0 (Background)
//Storyboard Layer 1 (Fail)
//Storyboard Layer 2 (Pass)
//Storyboard Layer 3 (Foreground)
//Storyboard Layer 4 (Overlay)
//Storyboard Sound Samples

[TimingPoints]
49,512.820512820513,4,2,46,60,1,0
1074,491.803278688525,4,2,46,60,1,0
1565,540.540540540541,4,2,46,60,1,0
2105,535.714285714286,4,2,46,60,1,0
3578,-103.092783505155,4,2,46,60,0,0
3712,576.923076923077,4,2,46,60,1,0
4288,550.45871559633,4,2,46,60,1,0
4838,476.190476190476,4,2,46,60,1,0
5314,564.705882352941,4,2,46,60,1,0
5737,-99.009900990099,4,2,46,60,0,0
6161,495.867768595041,4,2,46,60,1,0
6408,535.714285714286,4,2,46,60,1,0
6943,552.995391705069,4,2,46,60,1,0
7495,563.380281690141,4,2,46,60,1,0
7924,-96.1538461538461,4,2,46,60,0,0
8621,520.60737527115,4,2,46,60,1,0
9662,511.727078891258,4,2,46,60,1,0
10685,535.714285714286,4,2,46,60,1,0
11756,559.440559440559,4,2,46,60,1,0
12595,576.923076923077,4,2,46,60,1,0
12883,576.230492196879,4,2,46,60,1,0
13459,508.474576271186,4,2,46,60,1,0
13967,536.912751677852,4,2,46,60,1,0
14366,-98.5221674876847,4,2,46,60,0,0
15040,529.801324503311,4,2,46,60,1,0
15569,542.986425339367,4,2,46,60,1,0
16111,582.52427184466,4,2,46,60,1,0
16984,606.060606060606,4,2,46,60,1,0
17287,560.747663551402,4,2,46,55,1,0
17777,-66.6666666666667,4,2,46,55,0,0
17847,515.021459227468,4,2,46,55,1,0
18362,521.739130434783,4,2,46,55,1,0
18753,-101.522842639594,4,2,46,55,0,0
18883,535.714285714286,4,2,46,55,1,0
19150,588.235294117647,4,2,46,55,1,0
19444,533.333333333333,4,2,46,55,1,0
20510,526.315789473684,4,2,46,55,1,0
20904,-104.166666666667,4,2,46,55,0,0
21036,571.428571428571,4,2,46,55,1,0
21607,521.739130434783,4,2,46,55,1,0
21607,-166.666666666667,4,2,46,55,0,0
22389,-166.666666666667,4,2,45,5,0,0
22650,517.241379310345,4,2,46,55,1,0
23031,-108.695652173913,4,2,46,55,0,0
23167,545.454545454546,4,2,46,55,1,0
23712,521.739130434783,4,2,46,55,1,0
24755,576.923076923077,4,2,46,50,1,0
25187,-94.3396226415094,4,2,46,50,0,0
25331,508.474576271186,4,2,46,50,1,0
25839,545.454545454546,4,2,46,50,1,0
26384,508.474576271186,4,2,46,50,1,0
26892,555.555555555556,4,2,46,50,1,0
27999,-95.6937799043062,4,2,46,45,0,0
28003,550.45871559633,4,2,46,50,1,0
28553,585.365853658537,4,2,46,50,1,0
29138,600,4,2,46,50,1,0
29586,-108.695652173913,4,2,46,45,0,0
29738,631.578947368421,4,2,46,50,1,0
30369,606.060606060606,4,2,46,45,1,0
30975,563.380281690141,4,2,46,45,1,0
31538,590.551181102362,4,2,46,45,1,0
31980,-95.2380952380952,4,2,46,45,0,0
32128,535.714285714286,4,2,46,45,1,0
32395,625,4,2,46,45,1,0
32707,571.428571428571,4,2,46,45,1,0
33278,555.555555555556,4,2,46,45,1,0
33833,582.52427184466,4,2,46,45,1,0
34998,591.133004926108,4,2,46,40,1,0
34998,-125,4,2,46,40,0,0
35589,571.428571428571,4,2,46,40,1,0
36160,540.540540540541,4,2,46,40,1,0
36700,600,4,2,46,40,1,0
37300,521.739130434783,4,2,46,40,1,0
37300,-200,4,2,46,40,0,0
37821,594.059405940594,4,2,46,40,1,0
38415,625,4,2,46,40,1,0
39040,638.297872340426,4,2,46,40,1,0
39466,-100,4,2,46,10,0,0
40316,465.116279069767,4,2,46,40,1,0
40781,689.655172413793,4,2,46,35,1,0
40843,-100,4,2,46,35,0,0
41125,666.666666666667,4,2,46,35,1,0
41791,631.578947368421,4,2,46,35,1,0
42422,652.173913043478,4,2,46,35,1,0
43074,769.230769230769,4,2,46,35,1,0
43458,606.060606060606,4,2,46,35,1,0
43761,703.812316715542,4,2,46,35,1,0
44464,555.555555555556,4,2,46,35,1,0
44741,628.272251308901,4,2,46,35,1,0
45055,643.43163538874,4,2,46,35,1,0
46341,625,4,2,46,35,1,0
46966,670.391061452514,4,2,46,35,1,0
47636,594.059405940594,4,2,46,35,1,0
48230,652.173913043478,4,2,46,35,1,0
48882,643.43163538874,4,2,46,35,1,0
50168,594.059405940594,4,2,46,35,1,0
50762,634.920634920635,4,2,46,35,1,0
51079,674.157303370787,4,2,46,35,1,0
51416,631.578947368421,4,2,46,35,1,0
52047,606.060606060606,4,2,46,35,1,0
52653,674.157303370787,4,2,46,35,1,0
53327,530.973451327434,4,2,46,35,1,0
53857,636.604774535809,4,2,46,35,1,0
55130,540.540540540541,4,2,46,35,1,0
55670,652.173913043478,4,2,46,35,1,0
56322,603.015075376884,4,2,46,35,1,0
56925,631.578947368421,4,2,46,35,1,0
57556,594.059405940594,4,2,46,35,1,0
58150,618.556701030928,4,2,46,35,1,0
58768,652.173913043478,4,2,46,35,1,0
59420,594.059405940594,4,2,46,35,1,0
60014,638.297872340426,4,2,46,35,1,0
60652,618.556701030928,4,2,46,35,1,0
61270,600,4,2,46,35,1,0
61870,609.137055837563,4,2,46,35,1,0
63088,594.059405940594,4,2,46,35,1,0
63682,574.162679425837,4,2,46,35,1,0
64256,625,4,2,46,35,1,0
64881,609.137055837563,4,2,46,35,1,0
66099,566.037735849057,4,2,46,35,1,0
66665,625,4,2,46,35,1,0
67284,-100.502512562814,4,2,46,35,0,0
67915,585.365853658537,4,2,46,35,1,0
68500,594.059405940594,4,2,46,35,1,0
70282,659.340659340659,4,2,46,35,1,0
70941,526.315789473684,4,2,46,35,1,0
71467,695.652173913044,4,2,46,35,1,0
72137,-98.5221674876847,4,2,46,35,0,0
72162,631.578947368421,4,2,46,35,1,0
73109,535.714285714286,4,2,46,35,1,0
73376,576.923076923077,4,2,46,35,1,0
73952,638.297872340426,4,2,46,35,1,0
74590,521.739130434783,4,2,46,35,1,0
75111,625,4,2,46,35,1,0
75728,-79.3650793650794,4,2,46,35,0,0
75736,571.428571428571,4,2,46,35,1,0
76307,625,4,2,46,35,1,0
77557,579.710144927536,4,2,46,35,1,0
77846,-100,4,2,46,55,0,0
78136,636.604774535809,4,2,46,45,1,0
78136,-98.5221674876847,4,2,46,45,0,0
78772,582.52427184466,4,2,46,45,1,0
79341,-93.8967136150235,4,2,46,45,0,0
79937,594.059405940594,4,2,46,45,1,0
80531,571.428571428571,4,2,46,45,1,0
81102,681.818181818182,4,2,46,45,1,0
81783,612.244897959184,4,2,46,45,1,0
83007,585.365853658537,4,2,46,45,1,0
84177,610.687022900763,4,2,46,45,1,0
85018,-101.010101010101,4,2,46,45,0,0
85398,617.760617760618,4,2,46,45,1,0
86633,621.761658031088,4,2,46,45,1,0
87876,609.137055837563,4,2,46,45,1,0
89094,638.297872340426,4,2,46,45,1,0
89732,555.555555555556,4,2,46,45,1,0
90287,659.340659340659,4,2,46,45,1,0
90946,563.380281690141,4,2,46,45,1,0
91509,589.68058968059,4,2,46,45,1,0
92688,618.556701030928,4,2,46,45,1,0
93925,582.52427184466,4,2,46,45,1,0
94507,606.060606060606,4,2,46,60,1,0
95113,625,4,2,46,45,1,0
95738,579.710144927536,4,2,46,45,1,0
96317,597.014925373134,4,2,46,45,1,0
97511,661.157024793388,4,2,46,45,1,0
98172,521.739130434783,4,2,46,45,1,0
98693,615.384615384615,4,2,46,45,1,0
99923,625,4,2,46,45,1,0
99923,-333.333333333333,4,2,46,45,0,0
101173,659.340659340659,4,2,46,25,1,0
101832,833.333333333333,4,2,46,25,1,0
101832,-100,4,2,46,25,0,0
102098,-200,4,2,46,5,0,0
102248,645.161290322581,4,2,46,25,1,0
102248,-200,4,2,46,25,0,0
102893,759.493670886076,4,2,46,25,1,0
103272,1196.41076769691,4,2,46,25,1,0
103272,-100,4,2,46,25,0,0
105066,875.912408759124,4,2,46,25,1,0
105284,-133.333333333333,4,2,46,25,0,0
105941,1165.04854368932,4,2,46,25,1,0
105941,-166.666666666667,4,2,46,25,0,0
107106,1212.12121212121,4,2,46,25,1,0
107106,-200,4,2,46,25,0,0
109530,882.352941176471,4,2,46,25,1,0
109530,-200,4,2,46,25,0,0
110412,736.196319018405,4,2,46,25,1,0
110412,-200,4,2,46,25,0,0
111148,845.070422535211,4,2,46,25,1,0
112838,827.586206896552,4,2,46,25,1,0
112838,-200,4,2,46,25,0,0
113665,875.912408759124,4,2,46,25,1,0
113665,-200,4,2,46,25,0,0
114540,714.285714285714,4,2,46,25,1,0
114897,967.741935483871,4,2,46,25,1,0
114897,-200,4,2,46,25,0,0
115380,810.810810810811,4,2,46,25,1,0
116190,750,4,2,46,25,1,0
116190,-333.333333333333,4,2,46,25,0,0
117690,747.663551401869,4,2,46,25,1,0
120306,-200,4,2,46,25,0,0
121054,625,4,2,46,25,1,0
121054,-200,4,2,46,25,0,0
121679,731.707317073171,4,2,46,25,1,0
122044,833.333333333333,4,2,46,25,1,0
122044,-133.333333333333,4,2,46,25,0,0
122877,916.030534351145,4,2,46,25,1,0
124251,1090.90909090909,4,2,46,25,1,0
124796,674.157303370787,4,2,46,25,1,0
125133,618.556701030928,4,2,46,25,1,0
125133,-200,4,2,46,25,0,0
125751,560.747663551402,4,2,46,25,1,0
125751,-200,4,2,46,25,0,0
126311,629.92125984252,4,2,46,25,1,0
126311,-200,4,2,46,25,0,0
126940,689.655172413793,4,2,46,25,1,0
126940,-200,4,2,46,25,0,0
127629,-211.416490486258,4,2,46,25,0,0
127974,750,4,2,46,25,1,0
128724,1073.34525939177,4,2,46,25,1,0
131944,747.663551401869,4,2,46,25,1,0
131944,-200,4,2,46,25,0,0
132691,600,4,2,46,25,1,0
133291,645.161290322581,4,2,46,25,1,0
133291,-400,4,2,46,25,0,0
133936,1151.07913669065,4,2,46,25,1,0
135087,560.747663551402,4,2,46,25,1,0
135087,-200,4,2,46,25,0,0
135647,645.161290322581,4,2,46,25,1,0
135969,845.070422535211,4,2,46,25,1,0
135969,-200,4,2,46,25,0,0
136814,495.867768595041,4,2,46,25,1,0
137309,588.235294117647,4,2,46,25,1,0
137897,638.297872340426,4,2,46,25,1,0
138535,609.137055837563,4,2,46,25,1,0
138535,-400,4,2,46,25,0,0
139753,693.64161849711,4,2,46,25,1,0
141140,666.666666666667,4,2,46,25,1,0
142473,952.380952380952,4,2,46,25,1,0
142473,-200,4,2,46,25,0,0
143425,1188.11881188119,4,2,46,25,1,0
143425,-100,4,2,46,25,0,0
144019,814.940577249576,4,2,46,25,1,0
144019,-200,4,2,46,25,0,0
145648,1025.64102564103,4,2,46,25,1,0
145648,-100,4,2,46,25,0,0
146160,774.193548387097,4,2,46,25,1,0
146547,944.88188976378,4,2,46,25,1,0
146547,-200,4,2,46,25,0,0
147491,769.230769230769,4,2,46,25,1,0
148260,839.160839160839,4,2,46,25,1,0
148679,-200,4,2,46,25,0,0
149099,727.272727272727,4,2,46,25,1,0
149462,616.966580976864,4,2,46,25,1,0
149462,-200,4,2,46,25,0,0
151312,560.747663551402,4,2,46,25,1,0
151312,-200,4,2,46,25,0,0
151872,1025.64102564103,4,2,46,25,1,0
151872,-121.212121212121,4,2,46,25,0,0
154820,-181.818181818182,4,2,45,5,0,0
154948,1243.52331606218,4,2,46,25,1,0
154948,-136.892539356605,4,2,46,30,0,0
159922,1355.93220338983,4,2,46,35,1,0
160260,-357.142857142857,4,2,46,35,0,0
160581,-47.1698113207547,4,2,46,35,0,0
163820,-200,4,2,46,5,0,0
163989,786.885245901639,4,2,46,25,1,0
163989,-200,4,2,46,25,0,0
164775,652.173913043478,4,2,46,25,1,0
164775,-200,4,2,46,25,0,0
165590,-200,4,2,46,25,0,0
166405,1105.99078341014,4,2,46,25,1,0
166526,-200,4,2,45,5,0,0
169722,714.285714285714,4,2,46,25,1,0
169722,-200,4,2,46,25,0,0
170436,1283.42245989305,4,2,46,35,1,0
170436,-107.411385606874,4,2,46,35,0,0
173002,1957.58564437194,4,2,46,35,1,0
174225,-200,4,2,46,5,0,0
174470,-40.8163265306122,4,2,46,35,0,0
176672,-200,4,2,45,5,0,0
176917,779.220779220779,4,2,46,35,1,0
176917,-200,4,2,46,25,0,0
177696,956.175298804781,4,2,46,35,1,0
177696,-181.818181818182,4,2,46,35,0,0
179608,1061.94690265487,4,2,46,35,1,0
179608,-200,4,2,46,25,0,0
181731,618.556701030928,4,2,46,25,1,0
181731,-200,4,2,46,25,0,0
182267,-200,4,2,46,5,0,0
182349,1276.59574468085,4,2,46,25,1,0
182349,-200,4,2,46,25,0,0
183499,-200,4,2,46,25,0,0
183625,1071.42857142857,4,2,46,25,1,0
183625,-200,4,2,46,35,0,0
184696,674.157303370787,4,2,46,25,1,0
184696,-200,4,2,46,25,0,0
185370,1445.78313253012,4,2,46,25,1,0
185370,-76.9230769230769,4,2,46,25,0,0
186815,1991.70124481328,4,2,46,25,1,0
186815,-100,4,2,46,25,0,0
188806,1237.11340206186,4,2,46,25,1,0
188806,-200,4,2,46,25,0,0
190043,1486.06811145511,4,2,46,25,1,0
190043,-200,4,2,46,25,0,0
191529,1323.77275234418,4,2,46,25,1,0
191529,-250,4,2,46,25,0,0
194176,952.380952380952,4,2,46,25,1,0
194176,-200,4,2,46,25,0,0
195128,800,4,2,46,25,1,0
195128,-200,4,2,46,25,0,0
195928,1043.47826086957,4,2,46,25,1,0
198275,-188.679245283019,4,2,46,25,0,0
200101,875.912408759124,4,2,46,25,1,0
200101,-200,4,2,46,25,0,0
200976,1233.93316195373,4,2,46,25,1,0
200976,-125,4,2,46,25,0,0
201847,-200,4,2,46,25,0,0
203443,594.059405940594,4,2,46,25,1,0
203443,-200,4,2,46,25,0,0
204037,652.173913043478,4,2,46,25,1,0
204037,-133.333333333333,4,2,46,25,0,0
204329,-200,4,2,46,5,0,0
204363,750,4,2,46,25,1,0
204363,-200,4,2,46,25,0,0
205113,681.818181818182,4,2,46,25,1,0
205113,-200,4,2,46,15,0,0
205794,652.173913043478,4,2,46,25,1,0
207750,666.666666666667,4,2,46,25,1,0
208416,659.340659340659,4,2,46,25,1,0
209734,631.578947368421,4,2,46,25,1,0
210365,648.648648648649,4,2,47,30,1,0
211013,625,4,2,47,30,1,0
211638,609.137055837563,4,2,47,30,1,0
212856,620.15503875969,4,2,47,30,1,0
214096,616.966580976864,4,2,47,30,1,0
215329,620.15503875969,4,2,47,35,1,0
215949,604.534005037783,4,2,47,35,1,0
216553,613.496932515337,4,2,47,35,1,0
217166,600,4,2,47,35,1,0
217766,612.557427258806,4,2,47,35,1,0
218991,562.060889929742,4,2,47,35,1,0
220115,589.390962671906,4,2,47,40,1,0
221293,582.52427184466,4,2,47,40,1,0
221875,595.238095238095,4,2,47,40,1,0
222470,574.162679425837,4,2,47,40,1,0
223044,600,4,2,47,40,1,0
223644,586.79706601467,4,2,47,40,1,0
224817,598.503740648379,4,2,47,40,1,0
227211,585.365853658537,4,2,47,40,1,0
228381,600,4,2,47,40,1,0
229581,589.68058968059,4,2,47,45,1,0
230760,597.014925373134,4,2,47,45,1,0
231954,589.68058968059,4,2,47,45,1,0
234312,586.79706601467,4,2,47,45,1,0
235485,592.592592592593,4,2,47,45,1,0
236670,588.235294117647,4,2,47,45,1,0
237846,571.428571428571,4,2,47,45,1,0
238417,560.747663551402,4,2,47,45,1,0
238977,604.534005037783,4,2,47,45,1,0
240186,593.325092707046,4,2,47,45,1,0
241372,585.365853658537,4,2,47,45,1,0
243128,576.923076923077,4,2,47,45,1,0
243704,601.503759398496,4,2,47,45,1,0
244907,582.52427184466,4,2,47,45,1,0
246072,585.365853658537,4,2,47,45,1,0
247242,552.995391705069,4,2,47,45,1,0
247794,589.68058968059,4,2,47,45,1,0
248383,638.297872340426,4,2,47,55,1,0
249021,592.592592592593,4,2,47,55,1,0
249613,571.428571428571,4,2,47,55,1,0
250755,579.710144927536,4,2,47,55,1,0
251914,588.235294117647,4,2,47,55,1,0
253090,583.941605839416,4,2,47,55,1,0
254257,563.380281690141,4,2,47,55,1,0
255383,585.9375,4,2,47,55,1,0
256554,555.555555555556,4,2,47,55,1,0
257109,585.365853658537,4,2,47,55,1,0
257693,-100,4,2,47,60,0,0
257694,594.059405940594,4,2,47,60,1,0
258882,576.923076923077,4,2,47,60,1,0
260035,579.710144927536,4,2,47,60,1,0
262353,582.52427184466,4,2,47,60,1,0
263518,588.235294117647,4,2,47,60,1,0
264694,579.010856453559,4,2,47,60,1,0
265852,538.116591928251,4,2,47,60,1,0
266390,576.923076923077,4,2,47,60,1,0
266966,592.592592592593,4,2,47,60,1,0
268151,586.79706601467,4,2,47,60,1,0
269324,576.923076923077,4,2,47,60,1,0
270477,552.995391705069,4,2,47,60,1,0
271582,597.014925373134,4,2,47,60,1,0
272776,581.113801452785,4,2,47,60,1,0
273938,586.79706601467,4,2,47,60,1,0
275111,563.380281690141,4,2,47,60,1,0
276237,610.687022900763,4,2,47,65,1,0
277458,579.710144927536,4,2,47,65,1,0
278617,578.034682080925,4,2,47,65,1,0
279773,560.747663551402,4,2,47,65,1,0
280894,587.515299877601,4,2,47,65,1,0
282069,573.476702508961,4,2,47,65,1,0
283215,566.037735849057,4,2,47,65,1,0
284347,579.710144927536,4,2,47,65,1,0
285506,560.747663551402,4,2,47,65,1,0
286627,566.037735849057,4,2,47,65,1,0
287759,568.720379146919,4,2,47,65,1,0
288896,581.113801452785,4,2,47,65,1,0
290058,574.162679425837,4,2,47,65,1,0
291206,554.272517321016,4,2,47,65,1,0
292314,575.539568345324,4,2,47,65,1,0
294040,555.555555555556,4,2,47,65,1,0
294595,575.539568345324,4,2,47,65,1,0
295746,568.720379146919,4,2,47,50,1,0
296314,535.714285714286,4,2,47,50,1,0
296849,571.428571428571,4,2,47,40,1,0
297420,588.235294117647,4,2,47,20,1,0
297420,-100,4,2,47,20,0,0

[Colours]
Combo1 : 81,81,81
Combo2 : 233,233,233

[HitObjects]
261,149,49,5,4,1:0:0:0:
478,268,1074,5,8,1:0:0:0:
406,152,1442,1,4,1:3:0:0:
335,322,1835,1,8,1:3:0:0:
61,246,2105,5,4,1:3:0:0:
62,242,2194,1,8,2:3:0:0:
63,238,2283,1,4,2:3:0:0:
64,234,2372,1,8,2:3:0:0:
65,230,2462,1,4,2:3:0:0:
66,226,2551,1,8,2:3:0:0:
54,200,2640,1,4,1:3:0:0:
52,171,2730,1,8,2:3:0:0:
66,147,2819,1,4,2:3:0:0:
91,134,2908,1,8,2:3:0:0:
119,134,2997,1,4,2:3:0:0:
143,148,3087,1,8,2:3:0:0:
155,170,3176,2,0,P|213:185|259:146,1,120,4|0,1:0|0:0,0:0:0:0:
325,115,3578,2,0,P|283:158|294:217,1,120,4|0,1:0|0:0,0:0:0:0:
287,290,4000,2,0,P|275:246|244:227,1,60,4|0,1:0|0:0,0:0:0:0:
491,215,4288,6,2,P|428:220|377:371,1,240,4|4,1:0|1:3,2:2:0:0:
512,104,5314,6,0,P|486:51|426:28,1,120,4|8,1:0|1:0,2:2:0:0:
354,104,5737,2,0,P|295:133|278:200,1,121.199997595825,4|8,1:0|1:0,2:2:0:0:
359,269,6161,2,0,P|389:285|410:320,1,60,4|0,1:0|2:0,2:2:0:0:
493,256,6408,5,8,1:0:0:0:
378,184,6675,1,4,1:3:0:0:
233,301,6943,1,2,1:0:0:0:
381,382,7219,1,8,1:3:0:0:
200,192,7495,6,0,P|100:217|69:230,1,120,4|0,1:0|0:0,0:0:0:0:
237,118,7917,2,0,P|226:47|219:-11,1,120,4|0,1:0|0:0,0:0:0:0:
298,170,8340,2,0,P|333:163|386:153,1,62.3999996191406,8|0,1:0|0:0,0:0:0:0:
205,379,8621,6,2,P|263:346|243:226,1,180,4|4,1:0|2:3,2:2:0:0:
380,8,9141,2,0,P|322:41|321:108,1,120,4|8,1:0|1:0,2:2:0:0:
116,151,9662,6,0,L|-3:123,1,120,8|0,1:0|0:0,2:2:0:0:
117,138,10045,2,0,L|241:98,1,120,4|0,1:3|0:0,0:0:0:0:
100,66,10429,2,0,L|32:49,1,60,8|0,1:3|0:0,0:0:0:0:
161,217,10685,5,4,2:3:0:0:
185,229,10774,1,8,2:3:0:0:
209,242,10863,1,4,2:3:0:0:
233,256,10952,1,8,2:3:0:0:
256,271,11042,1,4,2:3:0:0:
279,286,11131,1,8,2:3:0:0:
299,304,11220,1,4,2:3:0:0:
310,300,11310,1,8,2:3:0:0:
321,296,11399,1,4,2:3:0:0:
332,292,11488,1,8,2:3:0:0:
343,289,11577,1,4,2:3:0:0:
354,286,11667,1,8,2:3:0:0:
365,283,11756,2,0,P|437:250|492:215,1,120,4|0,1:0|0:0,0:0:0:0:
314,219,12175,2,0,P|376:167|418:125,1,120,4|0,1:0|0:0,0:0:0:0:
235,180,12595,2,0,P|268:143|287:111,1,60,8|0,1:0|0:0,0:0:0:0:
53,253,12883,6,2,P|109:173|166:32,1,240,4|4,1:0|1:3,2:2:0:0:
359,195,13967,6,0,P|416:232|425:298,1,120,4|8,1:0|1:0,0:0:0:0:
310,253,14369,2,0,P|246:245|229:182,1,121.799995632477,4|8,1:0|1:0,2:2:0:0:
341,88,14772,2,0,P|319:119|302:163,1,60.8999978162385,4|0,1:0|2:0,2:2:0:0:
502,161,15040,1,4,2:3:0:0:
496,125,15128,1,8,2:3:0:0:
482,91,15216,1,4,2:3:0:0:
460,61,15304,1,8,2:3:0:0:
430,40,15393,1,4,2:3:0:0:
396,28,15481,1,8,2:3:0:0:
360,24,15569,1,4,2:3:0:0:
319,57,15659,1,8,2:3:0:0:
269,71,15749,1,4,2:3:0:0:
217,75,15840,1,8,2:3:0:0:
165,73,15930,1,4,2:3:0:0:
113,65,16021,1,8,2:3:0:0:
66,52,16111,2,0,P|130:33|192:27,1,120,4|0,1:0|0:0,2:2:0:0:
257,204,16547,2,0,P|238:140|232:78,1,120,12|0,1:0|0:0,0:0:0:0:
354,28,16984,2,0,P|289:36|272:37,1,60,4|0,1:0|0:0,0:0:0:0:
138,220,17287,6,2,P|86:262|98:367,1,180,4|0,1:0|0:0,2:2:0:0:
229,282,17777,2,0,P|234:254|221:216,1,45.0000017166138,4|4,1:3|1:3,0:0:0:0:
253,295,18362,6,0,P|242:226|264:159,1,120,4|0,1:0|3:0,2:2:0:0:
128,38,18753,2,0,P|193:62|245:110,1,120,2|0,1:0|2:0,2:2:0:0:
368,90,19150,2,0,P|340:112|297:122,1,60,4|0,1:0|2:0,2:2:0:0:
316,213,19444,5,8,1:0:0:0:
239,200,19577,1,8,1:0:0:0:
199,267,19710,1,8,1:0:0:0:
121,256,19844,1,8,1:0:0:0:
184,210,19977,1,4,1:3:0:0:
250,250,20110,1,8,1:3:0:0:
299,189,20244,1,4,1:3:0:0:
369,222,20377,1,8,1:3:0:0:
436,189,20510,6,0,P|481:129|459:83,1,120,4|0,1:0|0:0,0:0:0:0:
301,146,20904,2,0,P|330:214|381:218,1,120,4|0,1:0|0:0,0:0:0:0:
388,62,21321,2,0,P|358:54|323:71,1,60,4|0,1:0|0:0,0:0:0:0:
196,149,21607,6,2,P|82:92|105:23,1,215.999993408203,4|0,1:0|2:0,2:2:0:0:
91,224,22650,6,0,P|87:297|138:322,1,120,4|0,1:0|0:0,0:0:0:0:
281,310,23037,2,0,P|324:255|304:205,1,112.799998278809,4|0,1:0|0:0,0:0:0:0:
207,165,23439,2,0,P|204:101|206:66,1,90,8|0,1:0|0:0,0:0:0:0:
456,36,23712,6,2,P|468:135|469:237,1,180,4|4,1:0|1:3,2:2:0:0:
370,350,24233,2,0,P|373:286|371:264,1,60,2|0,1:0|0:0,2:2:0:0:
291,225,24494,1,8,1:3:0:0:
132,191,24755,6,0,P|64:220|58:269,1,120,4|0,1:0|0:0,2:2:0:0:
201,383,25187,2,0,P|244:338|215:289,1,120,4|0,1:3|0:0,0:0:0:0:
96,366,25585,2,0,P|48:359|13:356,1,60,4|0,1:0|0:0,0:0:0:0:
216,202,25839,6,2,P|292:213|468:230,1,240,4|4,1:0|1:3,2:2:0:0:
450,211,26892,6,0,P|366:198|316:191,1,120,4|8,1:2|1:0,0:0:0:0:
229,119,27308,2,0,P|184:107|167:74,1,60,4|0,1:2|0:0,0:0:0:0:
144,31,27586,1,8,1:0:0:0:
66,40,27725,2,0,P|78:100|76:124,1,60,4|0,1:2|0:0,0:0:0:0:
117,164,28003,2,0,P|110:244|86:376,1,210,4|0,1:0|0:0,0:0:0:0:
27,305,28553,1,4,2:3:0:0:
52,264,28650,1,8,2:3:0:0:
98,251,28748,1,4,2:3:0:0:
144,263,28845,1,8,2:3:0:0:
170,303,28943,1,4,2:3:0:0:
190,346,29040,1,8,2:3:0:0:
226,373,29138,2,0,P|307:350|369:310,1,120,4|0,1:0|0:0,0:0:0:0:
273,215,29588,2,0,P|312:162|334:105,1,113.399999264603,4|0,1:0|0:0,0:0:0:0:
203,107,30053,2,0,P|199:41|194:24,1,60,4|4,1:0|1:2,2:2:0:0:
41,271,30369,6,2,P|148:245|280:192,1,240,4|4,1:0|1:2,2:2:0:0:
266,172,31538,6,0,P|338:188|394:232,1,120,4|4,1:2|1:3,0:0:0:0:
475,73,31980,2,0,P|401:95|334:105,1,120,2|0,1:0|0:0,0:0:0:0:
216,29,32395,2,0,P|181:37|138:61,1,60,8|0,1:3|0:0,0:0:0:0:
4,64,32707,6,0,P|38:132|48:194,1,120,4|4,1:0|1:3,2:2:0:0:
64,251,33135,1,0,1:0:0:0:
35,323,33278,1,4,1:3:0:0:
97,370,33416,1,8,1:3:0:0:
161,318,33555,1,4,1:3:0:0:
241,350,33694,1,8,1:3:0:0:
324,301,33833,6,0,P|404:328|509:349,1,180,4|4,1:0|1:0,0:0:0:0:
200,256,34706,5,4,1:0:0:0:
269,224,34998,2,2,P|271:132|278:15,1,192,4|4,1:0|1:2,2:2:0:0:
276,57,36160,6,0,P|283:176|283:264,1,180,4|8,1:0|1:3,0:0:0:0:
268,267,37000,1,8,1:3:0:0:
268,267,37300,6,0,P|268:169|264:127,1,120,4|4,1:3|1:3,0:0:0:0:
69,309,40781,5,0,2:0:0:0:
69,309,41125,2,0,P|134:313|248:367,1,180,2|0,2:0|2:0,2:2:0:0:
297,317,41791,1,2,2:0:0:0:
367,329,41948,1,0,2:0:0:0:
434,303,42106,2,0,P|387:307|356:318,1,60,2|0,2:0|2:0,2:2:0:0:
330,251,42422,2,0,P|273:254|203:218,1,120,2|0,2:0|2:0,2:2:0:0:
143,246,42911,1,0,2:0:0:0:
92,190,43074,1,2,2:0:0:0:
16,202,43266,1,2,0:0:0:0:
0,126,43458,2,0,P|51:123|83:129,1,60,2|0,2:0|2:0,2:2:0:0:
133,103,43761,6,0,P|196:119|283:133,1,120,2|0,2:0|0:0,2:2:0:0:
330,98,44288,1,2,2:0:0:0:
390,163,44464,1,2,2:0:0:0:
442,110,44602,1,0,2:0:0:0:
495,157,44741,2,0,P|459:146|433:142,1,60,2|0,2:0|2:0,2:2:0:0:
338,24,45055,6,0,P|276:25|185:38,1,120,2|0,2:0|2:0,2:2:0:0:
161,78,45537,1,0,2:0:0:0:
89,72,45698,2,0,P|53:70|11:65,1,60,2|0,2:0|2:0,2:2:0:0:
0,3,46020,1,2,2:0:0:0:
138,128,46341,6,0,P|157:204|163:273,1,120,2|0,2:0|0:0,2:2:0:0:
236,254,46809,1,2,2:0:0:0:
184,373,46966,2,0,P|191:318|198:296,1,60,2|0,2:0|2:0,2:2:0:0:
236,254,47301,1,2,2:0:0:0:
344,200,47636,6,0,P|332:121|332:55,1,120,2|0,2:0|2:0,2:2:0:0:
259,50,48081,1,2,2:0:0:0:
323,6,48230,2,0,P|334:53|338:92,1,60,2|0,2:0|2:0,2:2:0:0:
306,130,48556,2,0,P|297:200|298:275,1,120,2|2,2:0|2:0,2:2:0:0:
292,325,49364,1,0,0:0:0:0:
316,258,49525,2,0,P|327:202|323:166,1,60,2|0,2:0|2:0,0:0:0:0:
308,126,49847,1,2,2:0:0:0:
198,29,50168,6,0,P|136:42|115:128,1,120,2|0,2:0|2:0,2:2:0:0:
48,131,50613,1,2,2:0:0:0:
151,204,50762,2,0,P|161:268|164:294,1,60,4|0,2:0|2:0,2:2:0:0:
127,327,51079,1,2,2:0:0:0:
165,131,51416,6,0,P|242:149|266:201,1,120,2|0,2:0|0:0,2:2:0:0:
290,245,51889,2,0,P|277:295|280:330,1,60,2|2,2:0|2:0,2:2:0:0:
325,356,52198,1,0,2:0:0:0:
396,346,52350,2,0,P|392:316|382:288,1,60,2|0,2:0|0:0,0:0:0:0:
392,212,52653,6,0,P|396:134|402:52,1,120,2|0,2:0|2:0,2:2:0:0:
441,33,53158,1,2,2:0:0:0:
512,10,53327,2,0,P|455:3|430:-6,1,60,2|0,2:0|2:0,2:2:0:0:
364,11,53592,1,2,2:0:0:0:
254,177,53857,6,0,P|166:165|115:148,1,120,2|0,2:0|0:0,2:2:0:0:
95,97,54334,1,2,2:0:0:0:
35,137,54493,1,2,2:0:0:0:
95,97,54652,1,0,2:0:0:0:
71,28,54811,2,0,P|122:65|133:76,1,60,2|0,2:0|2:0,2:2:0:0:
153,212,55130,6,0,P|171:275|173:349,1,120,2|0,2:0|2:0,2:2:0:0:
107,358,55535,1,2,2:0:0:0:
48,316,55670,2,0,P|50:293|63:247,1,60,2|0,2:0|2:0,2:2:0:0:
25,193,55996,1,2,2:0:0:0:
209,149,56322,6,0,P|268:171|347:194,1,120,2|0,2:0|2:0,2:2:0:0:
370,240,56774,1,2,2:0:0:0:
436,212,56925,1,2,2:0:0:0:
495,252,57082,1,0,2:0:0:0:
436,212,57240,2,0,P|429:164|426:134,1,60,2|0,2:0|2:0,2:2:0:0:
249,239,57556,6,0,P|233:307|225:372,1,120,2|0,2:0|2:0,2:2:0:0:
297,365,58001,1,2,2:0:0:0:
312,294,58150,1,2,2:0:0:0:
243,313,58304,1,0,2:0:0:0:
179,347,58459,2,0,P|148:337|100:324,1,60,2|0,2:0|0:0,0:0:0:0:
231,191,58768,6,0,P|285:208|370:226,1,120,2|0,2:0|0:0,2:2:0:0:
403,178,59257,1,2,2:0:0:0:
449,241,59420,1,2,2:0:0:0:
511,205,59568,1,0,2:0:0:0:
449,241,59717,2,0,P|451:314|452:327,1,60,2|0,2:0|2:0,0:0:0:0:
471,139,60014,6,0,P|466:62|465:-1,1,120,2|2,2:0|2:0,2:2:0:0:
465,19,60492,1,0,2:0:0:0:
399,48,60652,2,0,P|354:35|326:27,1,60,2|0,2:0|2:0,0:0:0:0:
272,54,60961,2,0,P|227:41|199:33,1,60,2|0,2:0|2:0,2:2:0:0:
92,100,61270,6,0,P|26:143|41:200,1,120,2|0,2:0|2:0,2:2:0:0:
94,211,61720,1,2,2:0:0:0:
138,275,61870,2,0,P|145:320|145:373,1,60,2|2,0:0|0:0,0:0:0:0:
145,334,62174,1,2,0:0:0:0:
209,232,62479,6,0,P|278:246|346:263,1,120,2|0,2:0|0:0,2:2:0:0:
361,320,62935,1,2,2:0:0:0:
432,310,63088,2,0,P|421:279|414:244,1,60,2|0,2:0|2:0,2:2:0:0:
464,194,63385,1,2,2:0:0:0:
171,123,63682,6,0,P|235:110|315:96,1,120,2|0,2:0|2:0,2:2:0:0:
347,52,64112,1,0,2:0:0:0:
407,91,64256,2,0,P|461:104|495:113,2,60,2|2|2,2:0|2:0|2:2,2:2:0:0:
417,21,64724,1,0,2:0:0:0:
320,36,64881,6,0,P|335:113|344:188,1,120,2|0,2:0|2:0,2:2:0:0:
325,223,65337,1,2,2:0:0:0:
368,325,65490,2,0,P|386:273|391:243,1,60,2|0,2:0|2:0,2:2:0:0:
245,213,65794,2,0,P|251:269|260:301,1,60,2|0,2:0|0:0,0:0:0:0:
481,177,66099,6,0,P|419:182|337:192,1,120,2|2,2:0|2:0,2:2:0:0:
303,145,66523,1,0,2:0:0:0:
258,201,66665,1,2,2:0:0:0:
186,191,66821,1,0,2:0:0:0:
129,235,66977,2,0,P|80:240|56:240,1,60,2|0,2:0|2:0,0:0:0:0:
186,191,67290,6,0,P|257:203|381:211,1,179.10000444088,2|0,2:0|2:0,0:0:0:0:
421,161,67915,2,0,P|485:187|500:198,1,60,2|0,2:0|2:0,2:2:0:0:
208,107,68207,2,0,P|151:123|129:130,1,60,2|0,2:0|0:0,0:0:0:0:
289,32,68500,6,0,P|356:51|436:80,1,120,2|0,2:0|0:0,2:2:0:0:
472,45,68945,1,2,2:0:0:0:
403,67,69094,2,0,P|413:134|415:151,1,60,2|0,2:0|2:0,2:2:0:0:
216,95,69391,2,0,P|211:65|206:35,1,60,2|0,2:0|0:0,0:0:0:0:
313,173,69688,6,0,P|324:249|338:325,1,120,2|0,2:0|2:0,2:2:0:0:
319,366,70133,1,2,2:0:0:0:
386,340,70282,2,0,P|437:350|466:351,1,60,2|0,2:0|2:0,2:2:0:0:
257,300,70611,2,0,P|217:305|189:311,1,60,0|0,2:0|0:0,0:0:0:0:
144,357,70941,6,0,P|73:340|69:222,1,180,2|2,2:0|2:0,2:2:0:0:
112,206,71467,2,0,P|102:140|95:108,1,60,0|2,2:0|2:0,0:0:0:0:
54,93,71814,1,2,2:0:0:0:
239,13,72162,6,0,P|303:28|329:144,1,180,2|0,2:0|2:0,2:2:0:0:
297,188,72793,1,2,2:0:0:0:
337,247,72951,1,0,2:0:0:0:
321,317,73109,2,0,P|331:259|343:233,1,60,2|0,2:0|2:0,2:2:0:0:
486,299,73376,6,0,P|496:228|407:179,1,180,2|2,2:0|2:0,2:2:0:0:
262,246,73952,2,0,P|199:237|178:232,1,60,2|0,2:0|2:0,2:2:0:0:
146,192,74271,1,2,2:0:0:0:
475,27,74590,6,0,P|407:38|370:139,1,180,2|0,2:0|2:0,2:2:0:0:
307,173,75111,2,0,P|236:149|216:140,1,60,2|0,2:0|2:0,2:2:0:0:
197,102,75423,1,2,2:0:0:0:
129,127,75579,1,0,0:0:0:0:
59,38,75736,6,0,P|6:85|18:208,1,180,2|0,2:0|2:0,0:0:0:0:
75,203,76307,1,2,2:0:0:0:
71,274,76463,1,0,2:0:0:0:
118,328,76619,2,0,P|83:287|66:266,1,60,2|0,2:0|2:0,2:2:0:0:
188,175,76932,2,0,P|227:227|277:293,1,120,4|0,2:3|2:0,2:2:0:0:
296,333,77400,1,2,2:0:0:0:
367,325,77557,1,2,2:0:0:0:
299,349,77701,1,0,2:0:0:0:
100,356,77846,6,0,B|72:341|72:341|38:373,1,60,10|0,1:0|0:0,2:2:0:0:
125,382,78136,6,0,P|124:305|126:161,1,182.699993448715,2|0,2:0|2:0,0:0:0:0:
125,128,78772,1,2,2:0:0:0:
122,56,78917,1,0,2:0:0:0:
119,8,79063,2,0,P|114:68|111:94,1,60,2|0,2:0|2:0,2:2:0:0:
135,188,79354,2,0,P|143:266|144:385,1,191.700000731277,2|0,2:0|0:0,0:0:0:0:
215,348,79937,2,0,P|250:321|280:310,1,60,2|2,2:0|2:0,0:0:0:0:
397,301,80234,5,2,1:0:0:0:
345,249,80382,1,0,2:0:0:0:
418,232,80531,2,0,P|487:206|479:139,1,120,2|2,2:0|1:0,2:2:0:0:
453,110,80959,1,0,0:0:0:0:
496,52,81102,1,0,2:0:0:0:
423,48,81272,1,2,2:0:0:0:
367,2,81442,2,0,P|373:53|373:84,1,60,2|0,1:0|2:0,2:2:0:0:
313,113,81783,6,0,P|307:187|289:270,1,120,2|2,2:0|1:0,2:2:0:0:
235,265,82242,1,0,0:0:0:0:
253,334,82395,2,0,P|246:273|241:244,1,60,2|0,2:0|2:0,0:0:0:0:
229,204,82701,1,2,1:0:0:0:
229,204,82854,1,0,0:0:0:0:
163,254,83007,6,0,P|152:194|148:135,1,120,2|2,2:0|1:0,0:0:0:0:
141,63,83446,1,0,0:0:0:0:
212,66,83592,2,0,P|251:79|286:88,1,60,2|0,2:0|2:0,2:2:0:0:
141,63,83885,1,2,1:0:0:0:
141,63,84031,1,0,0:0:0:0:
62,44,84177,6,0,P|66:103|76:162,1,120,0|2,2:0|1:0,0:0:0:0:
52,231,84635,1,0,0:0:0:0:
81,296,84787,1,2,2:0:0:0:
67,366,84940,1,0,0:0:0:0:
31,303,85093,2,0,P|35:233|33:193,1,59.3999998187256,2|0,1:0|0:0,0:0:0:0:
172,234,85398,6,0,P|241:237|271:340,1,180,2|2,2:0|2:0,2:2:0:0:
210,357,86015,1,2,2:0:0:0:
210,357,86170,1,0,2:0:0:0:
137,358,86324,2,0,P|149:297|151:276,1,60,2|0,2:0|0:0,0:0:0:0:
313,228,86633,6,0,P|289:322|282:378,1,120,2|0,2:0|0:0,0:0:0:0:
351,372,87099,1,2,2:0:0:0:
404,323,87254,2,0,P|406:261|393:246,1,60,2|0,2:0|2:0,2:2:0:0:
387,190,87565,2,0,L|416:99,1,60,2|0,1:0|0:0,2:2:0:0:
249,53,87876,6,0,P|197:104|224:200,1,180,2|0,2:0|0:0,0:0:0:0:
293,185,88485,2,0,P|319:147|327:121,1,60,2|2,0:0|0:0,0:0:0:0:
88,84,88789,2,0,P|56:134|51:144,1,60,2|0,2:0|2:0,2:2:0:0:
95,202,89094,5,2,2:0:0:0:
109,272,89253,1,0,0:0:0:0:
181,272,89413,1,0,0:0:0:0:
220,332,89572,1,0,3:0:0:0:
292,332,89732,1,0,0:0:0:0:
331,272,89870,1,0,0:0:0:0:
403,272,90009,1,0,0:0:0:0:
417,202,90148,1,2,2:0:0:0:
480,164,90287,6,0,P|467:100|347:72,1,180,2|0,1:0|1:0,0:0:0:0:
330,123,90946,1,2,1:0:0:0:
263,95,91086,1,0,0:0:0:0:
206,138,91227,2,0,P|140:127|120:122,1,60,0|0,1:0|2:0,0:0:0:0:
0,36,91509,6,0,P|54:67|47:136,1,120,2|0,1:0|2:0,2:2:0:0:
33,193,91951,1,2,2:0:0:0:
101,231,92098,2,0,P|115:300|112:320,1,60,2|0,1:0|2:0,2:2:0:0:
76,350,92393,1,2,2:0:0:0:
287,276,92688,6,0,P|278:203|272:135,1,120,2|0,1:0|2:0,2:2:0:0:
278,84,93151,1,2,2:0:0:0:
244,20,93306,2,0,P|246:79|244:102,1,60,2|0,1:0|2:0,2:2:0:0:
202,137,93615,1,2,2:0:0:0:
374,192,93925,6,0,P|424:227|432:319,1,120,2|0,1:0|2:0,2:2:0:0:
401,342,94361,1,2,2:0:0:0:
346,294,94507,2,0,P|304:310|279:326,1,60,2|0,2:0|2:0,2:2:0:0:
219,307,94810,1,2,1:0:0:0:
76,146,95113,6,0,P|159:167|223:182,1,120,2|2,2:0|1:0,2:2:0:0:
251,133,95581,1,2,2:0:0:0:
319,155,95738,1,2,2:0:0:0:
383,122,95882,1,0,2:0:0:0:
453,138,96027,2,2,P|419:128|387:122,1,60,2|0,2:0|2:0,2:2:0:0:
242,20,96317,6,2,P|179:25|104:33,1,120,0|0,2:0|0:0,2:2:0:0:
52,44,96764,1,0,2:0:0:0:
95,101,96914,2,0,P|109:119|124:157,1,60,2|0,2:0|2:0,2:2:0:0:
65,196,97212,1,2,1:0:0:0:
316,367,97511,5,2,0:0:0:0:
316,367,97593,2,2,P|327:308|297:268,1,90,2|0,2:0|0:0,2:2:0:0:
247,249,98006,1,0,2:0:0:0:
205,315,98172,1,2,2:0:0:0:
379,180,98432,1,2,2:0:0:0:
182,67,98693,5,2,2:0:0:0:
251,48,98846,1,0,2:0:0:0:
289,109,99000,1,2,2:0:0:0:
247,167,99154,1,0,2:0:0:0:
178,143,99308,1,2,2:0:0:0:
206,134,99462,1,0,2:0:0:0:
197,162,99616,2,0,P|196:95|191:73,1,60,2|0,2:0|0:0,0:0:0:0:
184,174,99923,6,0,P|193:211|200:301,1,125.999996154785,2|0,2:0|0:0,0:0:0:0:
200,298,101173,1,2,0:0:0:0:
200,298,101337,1,0,0:0:0:0:
134,325,101832,2,0,P|89:307|87:266,1,90,2|0,0:0|0:0,0:0:0:0:
102,251,102248,2,0,P|83:163|78:124,1,120,2|2,0:0|0:0,0:0:0:0:
58,62,103272,2,0,P|144:83|195:94,2,120,2|0|0,2:0|2:0|2:0,2:2:0:0:
58,62,105066,5,0,2:0:0:0:
120,21,105284,2,0,P|181:48|208:67,1,90,2|0,2:0|0:0,0:0:0:0:
226,134,105941,2,0,P|276:125|354:98,1,107.999996704102,2|0,2:0|0:0,2:2:0:0:
397,46,107106,2,0,P|444:77|450:157,1,120,2|0,2:0|0:0,0:0:0:0:
456,136,109530,2,0,P|446:89|399:60,1,90,2|0,2:0|0:0,0:0:0:0:
349,98,110412,2,0,P|318:93|251:127,1,90,2|0,2:0|0:0,0:0:0:0:
161,272,111148,6,0,P|207:206|327:210,1,180,2|0,2:0|0:0,0:0:0:0:
328,226,112838,6,0,P|241:237|225:253,1,90,2|0,2:0|0:0,2:2:0:0:
216,304,113665,2,0,P|157:296|72:274,1,120,0|0,2:0|2:0,0:0:0:0:
98,282,114897,2,0,P|87:236|85:206,1,60,0|0,2:0|2:0,0:0:0:0:
71,199,116190,2,0,P|72:262|64:348,1,143.999995605469,2|0,2:0|2:0,2:2:0:0:
25,351,120306,6,0,P|31:295|30:271,1,60,0|0,2:0|2:0,0:0:0:0:
63,220,121054,2,0,P|59:176|51:138,1,60,2|0,0:0|0:0,0:0:0:0:
11,102,121679,1,2,2:0:0:0:
56,44,122044,2,0,P|102:61|242:85,1,180.000006866455,2|2,0:0|2:0,0:0:0:0:
319,55,124251,5,2,2:0:0:0:
331,63,124523,2,0,P|361:61|397:54,1,60
465,41,125133,2,0,P|492:90|495:119,1,60,2|0,2:0|0:0,2:2:0:0:
504,166,125751,2,0,P|494:216|483:257,1,60,0|0,2:0|0:0,0:0:0:0:
422,253,126311,2,0,P|429:292|438:326,1,60,2|0,2:0|0:0,0:0:0:0:
442,316,126940,2,0,P|435:286|430:257,1,60,0|0,2:0|0:0,0:0:0:0:
352,245,127629,2,0,P|340:192|269:61,1,180,2|0,2:0|2:0,2:2:0:0:
277,40,131944,6,0,P|220:55|202:121,1,120,2|0,2:0|2:0,0:0:0:0:
186,183,133291,2,0,P|181:135|196:109,1,60,2|0,2:0|0:0,0:0:0:0:
175,190,135087,2,0,P|152:229|146:302,1,120,2|0,2:0|2:0,0:0:0:0:
164,373,135969,2,0,P|215:354|289:318,1,120,2|0,2:0|2:0,2:2:0:0:
320,262,137309,1,2,2:0:0:0:
379,312,137897,1,2,2:0:0:0:
451,298,138535,2,0,P|449:255|441:166,1,120,2|2,2:0|2:0,2:2:0:0:
474,108,141140,1,0,2:0:0:0:
192,143,142473,6,0,P|139:153|75:157,1,90,2|0,2:0|0:0,0:0:0:0:
26,149,143425,2,0,P|1:180|14:240,1,90,2|0,2:0|0:0,0:0:0:0:
22,252,144019,2,0,P|82:253|138:276,1,120,2|0,2:0|0:0,2:2:0:0:
185,336,145648,2,0,P|228:325|262:321,1,60,0|0,2:0|0:0,0:0:0:0:
296,268,146160,2,0,P|355:302|369:311,1,60,2|0,2:0|0:0,0:0:0:0:
407,348,146547,2,0,P|442:313|437:241,1,120,2|0,2:0|2:0,2:2:0:0:
227,90,148260,5,0,2:0:0:0:
301,105,148679,2,0,P|280:179|278:190,1,60,0|0,2:0|2:0,0:0:0:0:
237,222,149462,2,0,P|183:212|150:149,1,120,2|0,2:0|2:0,2:2:0:0:
443,76,151312,6,0,P|456:129|460:153,1,60,2|0,2:0|0:0,0:0:0:0:
291,247,151872,1,2,2:0:0:0:
291,247,152000,2,2,B|276:278|333:322|426:267|488:-26|154:-65|60:251|246:330|289:275,1,544.500005192757,0|0,0:0|2:0,2:0:0:0:
131,305,154948,6,2,B|117:321|58:351|-165:225|57:-206|523:38|353:416|139:411|107:337,1,748.80002513672,2|0,2:0|0:0,2:1:0:0:
366,293,160599,6,2,B|388:318|481:365|833:166|482:-513|-252:-128|15:468|353:460|399:339,1,1208.40000184387,2|0,2:0|0:0,2:1:0:0:
270,11,163989,6,0,P|225:32|231:78,1,90,2|0,2:0|2:0,2:2:0:0:
364,179,164775,2,0,P|409:158|403:112,1,90,2|0,2:0|0:0,0:0:0:0:
270,164,165590,2,0,L|121:199,1,150,0|0,2:0|2:0,2:2:0:0:
150,189,169722,2,0,L|245:168,1,90,2|0,2:0|0:0,0:0:0:0:
255,93,170436,6,2,B|306:73|336:143|336:143|368:249|589:294|489:147|534:407|330:367|174:272|552:134|398:86,1,660,2|0,0:0|0:0,2:2:0:0:
255,93,174470,6,2,B|204:73|174:143|174:143|142:249|-79:294|21:147|-24:407|180:367|336:272|-42:134|114:82,1,661.500006308556,2|0,0:0|0:0,2:2:0:0:
35,52,176917,2,2,P|99:28|130:15,1,90,2|0,2:0|0:0,2:1:0:0:
146,86,177696,2,2,P|214:55|381:-4,1,247.500007553101,2|2,2:0|2:0,2:1:0:0:
424,53,179608,2,2,P|389:109|370:146,1,90,0|0,0:0|0:0,2:2:0:0:
263,234,181731,6,0,P|254:172|246:120,1,90,2|0,0:0|2:0,0:0:0:0:
240,106,182349,2,2,P|196:107|153:150,1,90,2|0,2:0|0:0,2:1:0:0:
128,206,183625,2,2,P|143:260|150:296,1,90,2|0,2:0|0:0,2:2:0:0:
207,349,184696,2,0,P|246:328|266:302,1,60,0|0,2:0|0:0,0:0:0:0:
277,240,185370,2,2,B|231:171|388:66|448:137|435:198,1,272.999987503052,2|0,2:0|0:0,2:2:0:0:
434,167,186815,2,0,B|397:142|367:195|302:178,1,120,0|0,2:0|0:0,0:0:0:0:
318,180,188806,6,0,P|256:182|209:174,1,90,0|0,2:0|2:0,2:2:0:0:
165,128,190043,2,0,P|131:138|68:154,1,90,2|0,2:0|2:0,2:2:0:0:
2,156,191529,2,0,P|5:192|13:296,1,132,2|0,2:0|2:0,2:2:0:0:
44,354,194176,6,0,P|81:344|98:314,1,60,2|0,2:0|0:0,0:0:0:0:
127,259,195128,2,0,P|160:246|230:244,1,90,0|0,2:0|0:0,0:0:0:0:
271,291,195928,2,0,P|339:298|422:103,1,300,2|0,2:0|0:0,2:2:0:0:
402,44,198275,6,0,P|334:37|269:131,1,190.800000291138,0|0,2:0|0:0,0:0:0:0:
195,155,200101,2,0,P|172:198|190:242,1,90,0|0,2:0|2:0,2:2:0:0:
157,310,200976,2,0,P|199:335|250:331,1,96,2|0,2:0|0:0,2:2:0:0:
312,365,201901,2,0,P|352:328|363:284,1,90
395,66,203443,6,0,P|347:52|299:42,1,90,0|0,2:0|0:0,0:0:0:0:
265,103,204037,2,0,P|227:105|201:106,1,45.0000017166138,0|0,2:0|0:0,0:0:0:0:
158,59,204363,2,0,P|108:79|92:113,1,90,0|0,2:0|0:0,0:0:0:0:
9,198,205113,5,0,1:0:0:0:
9,198,205794,1,0,1:0:0:0:
9,198,206446,1,0,1:0:0:0:
9,198,207098,1,0,1:0:0:0:
9,198,207750,1,0,1:0:0:0:
9,198,208416,1,0,1:0:0:0:
9,198,209075,1,0,1:0:0:0:
26,191,209734,1,0,1:0:0:0:
62,214,210365,5,0,2:0:0:0:
62,214,210527,1,0,2:0:0:0:
62,214,210689,1,2,2:0:0:0:
123,167,211013,1,4,2:3:0:0:
186,215,211325,1,2,2:0:0:0:
258,181,211638,1,0,2:0:0:0:
258,181,211790,1,0,2:0:0:0:
258,181,211942,1,2,2:0:0:0:
325,217,212247,1,4,2:3:0:0:
383,170,212551,1,2,2:0:0:0:
383,170,212703,1,0,0:0:0:0:
450,208,212856,1,0,2:0:0:0:
450,208,213011,1,0,2:0:0:0:
503,157,213166,6,0,P|490:239|485:293,2,120,2|2|2,2:0|2:0|2:0,2:2:0:0:
459,93,213941,1,0,0:0:0:0:
386,116,214096,2,0,P|381:47|379:31,1,60,0|2,2:0|2:0,0:0:0:0:
313,17,214404,2,0,P|308:81|298:153,2,120,2|2|2,2:0|2:0|2:0,2:2:0:0:
238,33,215175,1,0,2:0:0:0:
166,8,215329,5,4,2:3:0:0:
166,8,215484,1,0,2:0:0:0:
166,8,215639,1,2,2:0:0:0:
36,112,215949,2,0,P|54:180|68:238,1,120,4|4,2:3|2:3,2:2:0:0:
39,301,216402,1,0,1:0:0:0:
120,295,216553,5,4,2:3:0:0:
120,295,216706,1,0,2:0:0:0:
120,295,216859,1,2,2:0:0:0:
353,373,217166,2,0,P|367:314|382:256,1,120,0|4,1:0|2:3,0:0:0:0:
329,206,217616,1,0,2:0:0:0:
399,177,217766,1,4,2:3:0:0:
399,177,217919,1,0,2:0:0:0:
399,177,218072,1,2,2:0:0:0:
351,113,218225,1,0,2:0:0:0:
392,48,218378,2,0,P|426:56|473:74,1,60,0|2,1:0|2:0,2:2:0:0:
326,7,218684,6,0,P|260:22|187:49,1,120,2|4,2:0|2:3,0:0:0:0:
184,109,219131,1,0,2:0:0:0:
115,75,219272,2,0,P|120:33|121:0,1,60,2|0,2:0|1:0,2:2:0:0:
51,118,219553,2,0,P|17:170|21:192,1,60,0|8,1:0|2:1,0:0:0:0:
80,209,219834,5,8,2:1:0:0:
115,314,219974,5,8,2:1:0:0:
209,274,220115,5,4,2:3:0:0:
259,336,220262,1,0,2:0:0:0:
322,290,220409,1,6,2:0:0:0:
274,229,220557,1,0,2:0:0:0:
277,363,220704,6,0,P|331:325|351:307,1,60,12|6,1:0|2:0,2:2:0:0:
201,187,220999,2,0,P|176:204|152:221,1,60,6|4,2:0|2:3,2:2:0:0:
359,203,221293,5,4,2:3:0:0:
393,134,221438,1,0,2:0:0:0:
326,100,221584,1,6,2:0:0:0:
291,167,221729,1,0,2:0:0:0:
447,185,221875,6,0,P|482:133|486:117,1,60,8|6,1:0|2:0,0:0:0:0:
264,55,222172,2,0,P|250:81|230:103,1,60,6|4,2:0|2:3,0:0:0:0:
427,73,222470,5,4,2:3:0:0:
448,3,222613,1,0,2:0:0:0:
376,25,222757,1,6,2:0:0:0:
427,73,222900,1,0,2:0:0:0:
500,58,223044,5,8,1:0:0:0:
408,61,223194,1,0,2:0:0:0:
403,156,223344,1,6,2:0:0:0:
496,151,223494,1,0,1:0:0:0:
303,124,223644,5,4,2:3:0:0:
303,124,223790,1,0,2:0:0:0:
250,182,223937,2,0,P|215:227|206:245,1,60,6|8,2:0|1:0,2:2:0:0:
248,72,224230,2,0,P|226:19|215:2,1,60,8|6,1:0|2:0,2:2:0:0:
364,168,224524,2,0,P|420:175|440:174,1,60,6|4,2:0|2:3,0:0:0:0:
155,134,224817,5,4,2:3:0:0:
123,127,224966,1,0,2:0:0:0:
53,109,225116,1,6,2:0:0:0:
123,127,225265,1,0,2:0:0:0:
194,99,225415,2,0,P|245:69|270:60,1,60,8|6,1:0|2:0,2:2:0:0:
120,206,225714,2,0,P|97:236|75:268,1,60,6|4,2:0|2:3,0:0:0:0:
126,132,226014,5,4,2:3:0:0:
115,99,226163,1,0,2:0:0:0:
96,30,226313,1,6,2:0:0:0:
115,99,226462,1,0,2:0:0:0:
175,147,226612,2,0,P|226:176|246:193,1,60,8|6,1:0|2:0,2:2:0:0:
59,157,226911,2,0,P|21:152|-17:149,1,60,6|4,2:0|2:3,2:2:0:0:
281,77,227211,5,4,2:3:0:0:
349,103,227357,1,0,2:0:0:0:
420,128,227503,1,6,2:0:0:0:
420,128,227650,1,0,2:0:0:0:
489,86,227796,6,0,P|501:46|509:2,1,60,8|6,1:0|2:0,2:2:0:0:
460,193,228089,2,0,P|466:222|475:250,1,60,6|2,2:0|1:0,0:0:0:0:
311,74,228381,5,2,1:0:0:0:
242,39,228531,1,0,2:0:0:0:
184,89,228681,1,6,2:0:0:0:
242,39,228831,1,0,2:0:0:0:
311,74,228981,2,0,P|289:140|286:158,1,60,8|6,1:0|2:0,2:2:0:0:
211,222,229281,2,0,P|233:288|236:306,1,60,6|4,2:0|2:3,0:0:0:0:
242,357,229581,5,4,2:3:0:0:
314,317,229728,1,0,2:0:0:0:
305,236,229875,1,6,2:0:0:0:
337,300,230023,1,0,2:0:0:0:
156,258,230170,2,0,P|123:249|77:238,1,60,8|6,1:0|2:0,2:2:0:0:
259,168,230465,2,0,P|292:159|338:148,1,60,6|4,2:0|2:3,2:2:0:0:
197,120,230760,5,4,2:3:0:0:
130,89,230909,1,0,2:0:0:0:
153,13,231058,1,6,2:0:0:0:
60,117,231207,1,0,2:0:0:0:
201,94,231357,2,0,P|190:49|186:8,1,60,8|6,1:0|2:0,0:0:0:0:
123,165,231655,2,0,P|117:194|110:223,1,60,6|4,2:0|2:3,0:0:0:0:
286,143,231954,5,4,2:3:0:0:
328,208,232101,1,0,2:0:0:0:
397,184,232248,1,6,2:0:0:0:
263,241,232396,1,0,2:0:0:0:
375,339,232543,2,0,P|364:287|364:261,1,60,8|6,1:0|2:0,2:2:0:0:
215,148,232838,2,0,P|226:96|226:70,1,60,6|4,2:0|2:3,0:0:0:0:
351,21,233133,5,4,2:3:0:0:
376,96,233280,1,0,2:0:0:0:
351,21,233428,1,6,2:0:0:0:
116,211,233723,1,8,1:0:0:0:
376,338,234017,1,6,2:0:0:0:
492,187,234312,5,4,2:3:0:0:
423,158,234458,1,0,2:0:0:0:
401,227,234605,1,6,2:0:0:0:
470,263,234752,1,0,0:0:0:0:
501,158,234898,2,0,P|511:121|519:94,1,60,8|6,1:0|2:0,2:2:0:0:
322,214,235192,2,0,P|330:242|338:271,1,60,6|4,2:0|2:3,2:2:0:0:
306,128,235485,5,4,2:3:0:0:
233,83,235633,1,0,2:0:0:0:
212,172,235781,1,6,2:0:0:0:
240,179,235929,1,0,0:0:0:0:
309,112,236077,2,0,P|317:68|323:35,1,60,8|6,1:0|2:0,2:2:0:0:
171,154,236373,2,0,P|177:177|181:213,1,60,6|2,2:0|1:0,2:2:0:0:
104,358,236670,5,2,1:0:0:0:
31,379,236817,1,0,2:0:0:0:
16,308,236964,1,6,2:0:0:0:
31,379,237111,1,0,2:0:0:0:
109,319,237258,2,0,P|129:315|172:305,1,60,8|6,1:0|2:0,2:2:0:0:
69,248,237552,2,0,P|75:228|88:186,1,60,6|2,2:0|1:0,0:0:0:0:
225,79,237846,5,2,1:0:0:0:
298,58,237988,1,0,2:0:0:0:
313,129,238131,1,6,2:0:0:0:
298,58,238274,1,0,2:0:0:0:
146,31,238417,6,0,P|103:57|76:71,1,60,8|8,1:0|2:1,2:2:0:0:
226,131,238697,5,8,2:1:0:0:
253,267,238837,5,8,2:1:0:0:
381,293,238977,5,4,1:0:0:0:
452,278,239128,1,0,2:0:0:0:
395,223,239279,1,6,2:0:0:0:
381,293,239430,1,0,2:0:0:0:
488,216,239581,2,0,P|475:165|474:134,1,60,8|6,1:0|2:0,2:2:0:0:
301,219,239883,2,0,P|296:248|287:277,1,60,6|4,2:0|2:3,0:0:0:0:
386,128,240186,5,4,2:3:0:0:
331,75,240334,1,0,2:0:0:0:
389,25,240482,1,6,2:0:0:0:
331,75,240630,1,0,2:0:0:0:
210,43,240779,2,0,P|167:63|135:72,1,60,8|6,1:0|2:0,2:2:0:0:
260,126,241075,2,0,P|303:146|335:155,1,60,6|4,2:0|2:3,0:0:0:0:
154,243,241372,5,4,2:3:0:0:
96,195,241518,1,0,2:0:0:0:
153,139,241664,1,6,2:0:0:0:
212,184,241811,1,0,2:0:0:0:
196,306,241957,2,0,P|251:286|285:274,1,60,8|6,1:0|2:0,2:2:0:0:
83,206,242250,2,0,P|28:186|-4:174,1,60,6|4,2:0|2:3,0:0:0:0:
259,110,242542,5,4,2:3:0:0:
329,153,242689,1,0,2:0:0:0:
308,226,242835,1,6,2:0:0:0:
288,235,242981,1,0,2:0:0:0:
351,151,243128,1,8,1:0:0:0:
430,168,243272,1,0,2:0:0:0:
421,244,243416,1,6,2:0:0:0:
360,199,243560,1,0,1:0:0:0:
416,140,243704,6,0,P|424:98|428:63,1,60,4|6,2:3|2:0,2:2:0:0:
295,161,244004,2,0,P|287:119|283:84,1,60,6|8,2:0|1:0,2:2:0:0:
181,138,244305,2,0,P|189:96|193:61,1,60,8|6,1:0|2:0,2:2:0:0:
60,159,244606,2,0,P|52:117|48:82,1,60
257,203,244907,5,4,2:3:0:0:
207,263,245052,1,0,2:0:0:0:
275,289,245198,1,6,2:0:0:0:
224,251,245343,1,0,2:0:0:0:
200,333,245489,1,8,1:0:0:0:
272,356,245635,1,0,2:0:0:0:
226,321,245780,1,6,2:0:0:0:
206,379,245926,1,0,1:0:0:0:
254,381,246072,5,2,1:0:0:0:
309,328,246218,1,0,2:0:0:0:
244,288,246364,1,6,2:0:0:0:
182,339,246511,1,0,2:0:0:0:
268,268,246657,1,8,1:0:0:0:
166,205,246803,1,0,2:0:0:0:
131,286,246950,1,6,2:0:0:0:
206,214,247096,1,0,1:0:0:0:
101,167,247242,1,2,1:0:0:0:
78,237,247380,1,0,2:0:0:0:
154,211,247518,1,6,2:0:0:0:
129,110,247656,1,0,1:0:0:0:
20,155,247794,1,0,1:0:0:0:
67,214,247941,1,0,1:0:0:0:
144,165,248088,1,4,1:0:0:0:
95,38,248236,1,0,1:0:0:0:
8,109,248383,5,4,2:3:0:0:
28,122,248542,1,0,2:0:0:0:
21,106,248702,2,0,P|56:103|102:93,1,60,2|0,0:0|0:0,0:0:0:0:
135,152,249021,2,0,P|160:143|203:129,1,60,8|6,1:0|2:0,2:2:0:0:
229,64,249317,2,0,P|265:71|299:76,1,60,6|4,2:0|2:3,0:0:0:0:
365,66,249613,1,4,2:3:0:0:
422,132,249755,1,0,2:0:0:0:
355,170,249898,1,6,2:0:0:0:
313,127,250041,1,0,2:0:0:0:
494,98,250184,2,0,P|500:135|506:167,1,60,8|6,1:0|2:0,2:2:0:0:
448,211,250470,2,0,P|454:248|460:280,1,60,6|4,2:0|2:3,2:2:0:0:
406,351,250755,5,4,2:3:0:0:
330,328,250899,1,0,2:0:0:0:
343,249,251044,1,6,2:0:0:0:
326,237,251189,1,0,0:0:0:0:
258,273,251334,1,8,1:0:0:0:
198,217,251479,1,0,2:0:0:0:
238,138,251624,1,6,2:0:0:0:
214,123,251769,1,0,2:0:0:0:
254,52,251914,6,0,P|298:62|334:75,1,60,4|6,2:3|2:0,2:2:0:0:
184,16,252208,2,0,P|140:26|104:39,1,60,6|8,2:0|1:0,2:2:0:0:
49,28,252502,2,0,P|13:91|12:148,1,120,8|4,1:0|1:0,2:2:0:0:
81,175,252943,1,0,2:0:0:0:
26,260,253090,2,0,P|13:335|16:353,1,60,4|6,1:0|2:0,2:2:0:0:
112,359,253381,2,0,P|107:329|99:300,1,60,6|8,2:0|1:0,2:2:0:0:
74,383,253673,2,0,P|161:383|223:386,1,120,8|4,1:0|2:3,2:2:0:0:
231,322,254111,1,0,2:0:0:0:
295,361,254257,1,4,2:3:0:0:
363,321,254397,1,0,2:0:0:0:
361,245,254538,1,6,2:0:0:0:
294,212,254679,1,0,2:0:0:0:
231,255,254820,2,0,P|240:302|245:336,1,60,8|6,1:0|2:0,2:2:0:0:
435,274,255102,2,0,P|439:244|445:215,1,60,6|2,2:0|1:0,0:0:0:0:
327,127,255383,5,2,1:0:0:0:
265,77,255529,1,0,2:0:0:0:
327,127,255675,1,6,2:0:0:0:
385,78,255822,1,0,2:0:0:0:
318,200,255968,2,0,P|338:272|344:287,1,60,8|6,1:0|2:0,2:2:0:0:
298,117,256261,2,0,P|306:88|313:59,1,60,6|2,2:0|1:0,0:0:0:0:
239,165,256554,5,2,1:0:0:0:
170,198,256692,1,0,2:0:0:0:
99,182,256831,1,6,2:0:0:0:
48,134,256970,1,0,2:0:0:0:
83,204,257109,1,0,1:0:0:0:
151,168,257255,1,0,1:0:0:0:
206,216,257401,1,6,1:2:0:0:
256,159,257548,1,8,1:0:0:0:
328,192,257694,6,0,L|390:220,2,60,4|0|6,2:3|2:0|2:0,2:2:0:0:
320,113,258139,1,0,2:0:0:0:
250,149,258288,2,0,P|169:177|116:193,1,120,8|6,1:0|2:0,2:2:0:0:
60,174,258733,1,0,1:0:0:0:
123,222,258882,6,0,P|152:237|196:259,1,60,4|0,2:3|2:0,0:0:0:0:
76,166,259170,1,6,2:0:0:0:
105,96,259314,1,0,2:0:0:0:
69,159,259458,2,0,P|12:195|-2:203,1,60,8|0,1:0|2:0,2:2:0:0:
176,63,259747,2,0,P|205:91|233:113,1,60,6|0,2:0|1:0,0:0:0:0:
296,110,260035,5,4,2:3:0:0:
301,186,260179,1,0,2:0:0:0:
368,205,260324,1,6,2:0:0:0:
360,271,260469,1,0,2:0:0:0:
397,335,260614,2,0,P|409:263|410:250,1,60,8|0,1:0|2:0,2:2:0:0:
278,200,260904,2,0,P|282:229|288:259,1,60,6|0,2:0|1:0,0:0:0:0:
457,193,261194,5,4,2:3:0:0:
491,130,261339,1,0,2:0:0:0:
430,86,261484,1,6,2:0:0:0:
369,125,261629,1,0,0:0:0:0:
465,222,261774,2,0,P|449:162|446:139,1,60,8|0,1:0|2:0,2:2:0:0:
308,49,262063,2,0,P|301:78|292:106,1,60,6|0,2:0|1:0,0:0:0:0:
233,148,262353,5,4,2:3:0:0:
170,113,262498,1,0,2:0:0:0:
223,57,262644,2,0,P|213:28|207:0,1,60,6|0,2:0|2:0,2:2:0:0:
101,131,262935,2,0,P|82:187|50:252,1,120,8|6,1:0|2:0,2:2:0:0:
109,305,263372,1,0,1:0:0:0:
181,275,263518,1,4,2:3:0:0:
109,305,263665,1,0,2:0:0:0:
151,365,263812,1,6,2:0:0:0:
225,339,263959,1,0,2:0:0:0:
109,305,264106,2,0,P|54:334|33:343,1,60,8|0,1:0|2:0,2:2:0:0:
248,266,264400,2,0,P|291:283|319:293,1,60,6|0,2:0|2:0,2:2:0:0:
374,250,264694,5,4,2:3:0:0:
431,302,264838,1,0,0:0:0:0:
495,263,264983,2,0,P|459:283|425:299,1,60,6|0,2:0|2:0,0:0:0:0:
341,178,265273,2,0,P|262:161|204:139,1,120,8|6,1:0|2:0,2:2:0:0:
397,123,265707,1,0,1:0:0:0:
416,199,265852,2,0,P|480:182|500:174,1,60,4|0,2:3|2:0,0:0:0:0:
359,249,266121,2,0,P|351:312|351:332,1,60,6|0,2:0|2:0,2:2:0:0:
201,215,266390,5,8,1:0:0:0:
146,162,266534,1,0,2:0:0:0:
186,93,266678,1,6,2:0:0:0:
261,118,266822,1,0,1:0:0:0:
280,197,266966,2,0,P|257:264|254:281,1,60,4|0,1:0|2:0,0:0:0:0:
77,196,267262,1,6,2:0:0:0:
58,124,267410,1,2,2:1:0:0:
134,134,267558,2,0,P|157:201|161:216,1,60,8|0,1:0|0:0,0:0:0:0:
334,142,267854,2,0,P|342:113|354:85,1,60,6|0,2:0|1:0,0:0:0:0:
239,60,268151,5,4,2:3:0:0:
175,22,268297,1,0,2:0:0:0:
111,60,268444,1,6,2:0:0:0:
122,78,268591,1,2,2:1:0:0:
108,151,268737,2,0,P|131:218|134:236,1,60,8|0,1:0|2:0,2:2:0:0:
89,273,269031,1,6,2:0:0:0:
137,335,269177,1,0,2:0:0:0:
265,306,269324,6,0,P|273:277|285:249,2,60,4|0|6,2:3|2:0|2:0,0:0:0:0:
204,234,269756,1,2,2:1:0:0:
296,246,269900,2,0,P|356:275|387:287,1,60,8|0,1:0|2:0,2:2:0:0:
208,148,270189,2,0,P|268:177|298:190,1,60,6|0,2:0|1:0,0:0:0:0:
341,176,270477,5,4,2:3:0:0:
418,146,270615,1,0,2:0:0:0:
453,79,270753,1,6,2:0:0:0:
434,140,270891,1,2,2:1:0:0:
344,103,271029,2,0,P|279:87|264:84,1,60,4|8,1:3|1:3,0:0:0:0:
416,226,271306,2,0,P|445:218|474:211,1,60,4|8,1:3|1:3,0:0:0:0:
341,248,271582,5,4,1:0:0:0:
314,266,271731,1,0,2:0:0:0:
300,328,271880,1,6,2:0:0:0:
368,348,272029,1,0,2:0:0:0:
217,302,272179,2,2,P|223:239|225:217,1,60,14|0,1:0|0:0,2:2:0:0:
251,176,272477,1,6,2:0:0:0:
229,162,272626,1,0,1:0:0:0:
265,93,272776,6,0,P|255:33|254:16,1,60,4|0,1:0|2:0,0:0:0:0:
188,65,273066,1,6,2:0:0:0:
126,26,273211,1,0,2:0:0:0:
86,63,273357,2,0,P|82:92|76:122,1,60,14|0,1:0|2:0,2:2:0:0:
26,175,273647,2,0,P|29:204|35:234,1,60,6|0,2:0|1:0,0:0:0:0:
104,261,273938,1,8,1:3:0:0:
119,335,274084,1,0,0:0:0:0:
59,368,274231,1,6,2:0:0:0:
28,338,274378,1,0,1:0:0:0:
49,331,274524,6,0,P|121:344|133:348,1,60,4|0,1:0|0:0,0:0:0:0:
239,368,274818,2,0,P|311:360|331:353,1,60,6|0,2:0|1:0,0:0:0:0:
382,247,275111,5,2,1:0:0:0:
465,313,275251,1,0,2:0:0:0:
480,224,275392,1,2,1:0:0:0:
454,299,275533,1,0,2:0:0:0:
375,269,275674,2,2,P|365:199|365:187,1,60,6|0,1:0|0:0,2:2:0:0:
419,149,275956,1,8,1:0:0:0:
333,88,276096,1,4,2:3:0:0:
394,6,276237,6,0,P|384:88|382:101,1,60,2|0,1:0|2:0,2:2:0:0:
286,150,276542,1,6,1:2:0:0:
250,123,276695,1,0,2:0:0:0:
190,187,276847,2,2,P|154:180|115:177,1,60,12|0,1:0|0:0,2:2:0:0:
258,228,277153,2,0,P|287:231|317:237,1,60,6|0,2:0|1:0,0:0:0:0:
180,265,277458,5,4,2:3:0:0:
123,321,277602,1,4,2:0:0:0:
205,339,277747,1,6,2:0:0:0:
209,329,277892,1,0,2:0:0:0:
70,369,278037,2,0,P|57:332|45:302,1,60,10|0,1:0|2:0,2:2:0:0:
192,201,278327,2,0,P|181:228|171:257,1,60,2|0,2:0|1:0,0:0:0:0:
277,221,278617,5,4,2:3:0:0:
324,160,278761,1,0,2:0:0:0:
399,169,278906,1,6,2:0:0:0:
403,217,279050,1,0,2:0:0:0:
318,167,279195,2,2,P|258:144|241:137,1,60,14|0,1:0|0:0,2:2:0:0:
381,40,279484,2,0,P|386:76|390:115,1,60,6|0,2:0|1:0,0:0:0:0:
215,83,279773,5,2,1:0:0:0:
281,27,279913,1,4,2:3:0:0:
205,35,280053,1,6,2:0:0:0:
250,93,280193,1,0,1:0:0:0:
302,30,280333,2,0,P|297:66|293:105,1,60,14|10,1:0|1:0,0:0:0:0:
138,173,280614,2,0,P|143:209|147:248,1,60,10|8,1:0|1:0,0:0:0:0:
265,341,280894,5,6,1:0:0:0:
253,260,281187,1,6,2:0:0:0:
311,309,281334,1,0,2:0:0:0:
188,347,281481,2,2,P|196:299|200:269,1,60,14|0,1:0|0:0,2:2:0:0:
362,202,281775,2,0,P|366:231|371:261,1,60,6|0,2:0|1:0,0:0:0:0:
411,331,282069,1,4,2:3:0:0:
483,311,282212,1,0,2:0:0:0:
406,301,282355,1,6,2:0:0:0:
335,379,282499,1,0,2:0:0:0:
249,307,282642,2,2,P|261:227|262:214,1,60,14|0,1:0|0:0,2:2:0:0:
69,209,282929,2,0,P|73:238|83:282,1,60,6|0,2:0|2:0,0:0:0:0:
186,177,283215,5,4,2:3:0:0:
249,118,283356,1,0,2:0:0:0:
204,55,283498,1,6,2:0:0:0:
213,20,283639,1,0,2:0:0:0:
151,129,283781,2,2,P|160:195|163:225,1,60,14|0,1:0|0:0,2:2:0:0:
326,97,284064,2,0,P|317:163|312:194,1,60,6|0,2:0|1:0,0:0:0:0:
486,52,284347,5,2,1:0:0:0:
421,22,284491,1,0,2:0:0:0:
372,77,284636,1,2,2:1:0:0:
405,146,284781,1,0,2:0:0:0:
506,228,284926,6,0,P|491:288|483:311,1,60,6|0,1:0|2:0,2:2:0:0:
296,350,285216,2,0,P|287:321|281:291,1,60,6|0,2:0|1:0,0:0:0:0:
247,222,285506,5,2,1:0:0:0:
286,193,285646,1,2,2:0:0:0:
218,146,285786,1,6,2:0:0:0:
283,108,285926,1,4,2:3:0:0:
237,37,286066,2,0,P|228:104|223:121,1,60,14|0,1:0|2:0,2:2:0:0:
155,192,286347,1,8,1:0:0:0:
216,268,286487,1,8,1:0:0:0:
277,315,286627,6,0,P|286:382|290:404,1,60,2|2,1:0|2:0,0:0:0:0:
347,310,286910,1,6,2:0:0:0:
302,244,287051,1,4,2:3:0:0:
392,149,287193,2,0,P|399:79|403:53,1,60,14|0,1:0|2:0,2:2:0:0:
309,151,287476,1,8,1:0:0:0:
438,217,287617,1,8,1:0:0:0:
372,54,287759,2,0,P|375:83|377:113,1,60,2|2,1:0|2:0,0:0:0:0:
461,207,288043,1,6,2:0:0:0:
289,169,288185,1,4,2:3:0:0:
395,31,288327,2,0,P|391:60|389:90,1,60,14|0,1:0|2:0,2:2:0:0:
369,246,288612,2,0,P|372:275|374:305,1,60,10|10,1:0|1:0,0:0:0:0:
320,358,288896,5,2,1:2:0:0:
250,325,289041,1,4,2:3:0:0:
275,258,289186,1,6,2:0:0:0:
351,267,289331,1,2,2:1:0:0:
419,364,289477,2,0,P|491:341|504:339,1,60,14|0,1:0|2:0,2:2:0:0:
246,342,289767,2,0,P|218:330|189:322,1,60,6|0,2:0|2:0,2:2:0:0:
141,258,290058,5,2,1:2:0:0:
76,313,290201,1,4,2:3:0:0:
151,331,290345,1,6,2:0:0:0:
76,313,290488,1,2,2:1:0:0:
150,253,290632,2,0,P|139:187|141:166,1,60,12|0,1:0|2:0,2:2:0:0:
18,134,290919,2,0,P|14:163|7:192,1,60,6|0,2:0|2:0,2:2:0:0:
143,98,291206,5,8,1:0:0:0:
211,121,291344,1,8,1:0:0:0:
211,198,291483,1,4,1:2:0:0:
181,198,291621,1,4,1:2:0:0:
109,111,291760,5,8,1:3:0:0:
186,51,291898,1,4,1:3:0:0:
257,116,292037,1,6,1:2:0:0:
203,165,292175,1,4,2:3:0:0:
146,245,292314,5,0,1:0:0:0:
228,316,292457,1,8,2:3:0:0:
331,274,292601,1,6,2:0:0:0:
304,194,292745,1,8,2:3:0:0:
406,116,292889,6,0,P|465:135|499:142,1,60,14|0,1:0|2:0,2:2:0:0:
198,206,293177,2,0,P|139:225|105:231,1,60,6|0,2:0|2:0,2:2:0:0:
89,164,293465,1,4,2:3:0:0:
137,103,293608,1,0,2:0:0:0:
202,133,293752,1,6,2:0:0:0:
199,149,293896,1,0,1:0:0:0:
262,338,294040,6,0,P|331:313|349:308,1,60,14|0,1:0|2:0,2:2:0:0:
438,244,294317,1,8,1:0:0:0:
333,243,294456,1,8,1:0:0:0:
412,353,294595,1,4,2:3:0:0:
396,281,294738,1,0,2:0:0:0:
426,211,294882,1,6,2:0:0:0:
400,175,295026,1,0,2:0:0:0:
478,261,295170,2,0,P|506:335|510:350,1,60,12|0,1:0|0:0,0:0:0:0:
406,284,295458,5,8,1:0:0:0:
346,222,295602,1,8,1:0:0:0:
431,175,295746,1,4,2:3:0:0:
423,197,295888,1,0,0:0:0:0:
341,86,296030,2,0,P|369:160|372:169,1,60,4|0,2:1|2:0,0:0:0:0:
260,90,296314,2,0,P|181:77|171:75,1,60,12|0,1:0|0:0,0:0:0:0:
414,58,296581,2,0,P|464:-3|470:-11,1,60,8|8,1:0|1:0,3:3:0:0:
315,2,296849,5,4,2:3:0:0:
315,2,296991,1,0,2:0:0:0:
315,2,297134,1,4,1:0:0:0:
315,2,297277,1,8,2:3:0:0:
338,72,297420,1,4,2:3:0:0:
