osu file format v14

[General]
AudioFilename: audio.mp3
AudioLeadIn: 0
PreviewTime: 85922
Countdown: 0
SampleSet: Normal
StackLeniency: 0.2
Mode: 1
LetterboxInBreaks: 0
WidescreenStoryboard: 1

[Editor]
Bookmarks: 8910,49063,56447,69831,78538,85922,113640,127448
DistanceSpacing: 1.4
BeatDivisor: 4
GridSize: 32
TimelineZoom: 1.796831

[Metadata]
Title:Niji Bishou x1 Hadairo Senjou Senjou
TitleUnicode:虹微笑x1肌色扇情扇情
Artist:The Lovers
ArtistUnicode:The Lovers
Creator:Genjuro
Version:Ulqui's Kantan
Source:Toy Musical 2
Tags:electronic instrumental bms 2ジ 2d nyanmi-1828 _dusk_ hirok ulqui
BeatmapID:2470830
BeatmapSetID:1178487

[Difficulty]
HPDrainRate:7
CircleSize:5
OverallDifficulty:3
ApproachRate:9
SliderMultiplier:1.4
SliderTickRate:1

[Events]
//Background and Video events
0,0,"bg.jpg",0,-150
//Break Periods
2,49263,54924
//Storyboard Layer 0 (Background)
//Storyboard Layer 1 (Fail)
//Storyboard Layer 2 (Pass)
//Storyboard Layer 3 (Foreground)
//Storyboard Layer 4 (Overlay)
//Storyboard Sound Samples

[TimingPoints]
166,230.769230769231,8,1,0,5,1,8
1832,208.333333333333,4,1,0,50,1,0
1832,-222.222222222222,4,1,0,50,0,0
2040,245.901639344262,4,1,0,50,1,8
2285,294.117647058824,4,1,0,50,1,8
2579,312.5,4,1,0,50,1,8
2891,340.909090909091,4,1,0,50,1,0
2891,-135.135135135135,4,1,0,50,0,0
3231,375,4,1,0,50,1,8
3606,461.538461538462,4,1,0,50,1,8
4529,461.538461538462,4,1,0,50,1,0
8221,461.538461538462,4,1,0,5,1,8
8855,-100,4,1,0,20,0,8
8910,461.538461538462,4,1,0,20,1,0
9660,-100,4,1,0,60,0,0
9775,-100,4,1,0,20,0,0
10929,-100,4,1,0,40,0,0
11275,-100,4,1,0,20,0,0
13006,-100,4,1,0,40,0,0
13467,-100,4,1,0,20,0,0
13929,-100,4,1,0,40,0,0
14390,-100,4,1,0,20,0,0
14852,-100,4,1,0,40,0,0
15313,-100,4,1,0,20,0,0
17852,-100,4,1,0,60,0,0
18083,-100,4,1,0,40,0,0
19006,-100,4,1,0,20,0,0
20390,-100,4,1,0,40,0,0
20852,-100,4,1,0,20,0,0
21313,-100,4,1,0,40,0,0
23736,-100,4,1,0,30,0,0
29160,-100,4,1,0,40,0,0
31006,-100,4,1,0,60,0,0
35160,-100,4,1,0,80,0,0
35621,-100,4,1,0,60,0,0
36083,-100,4,1,0,80,0,0
38506,-100,4,1,0,60,0,0
42313,-100,4,1,0,30,0,0
45313,-100,4,1,0,70,0,0
46006,-100,4,1,0,40,0,0
46236,-100,4,1,0,70,0,0
47390,-100,4,1,0,40,0,0
49005,-100,4,1,0,80,0,0
49063,461.538461538462,14,1,0,80,1,0
49236,-100,14,1,0,30,0,0
55466,-100,14,1,0,80,0,0
56447,230.769230769231,4,1,0,80,1,0
56447,-200,14,1,0,80,0,0
69370,230.769230769231,4,1,0,80,1,8
69831,208.333333333333,4,1,0,80,1,0
69831,-221.538461538505,4,1,0,80,0,0
70039,245.901639344262,4,1,0,80,1,8
70284,294.117647058824,4,1,0,80,1,8
70578,312.5,4,1,0,80,1,8
70890,340.909090909091,4,1,0,80,1,0
70890,-135.385781785197,4,1,0,80,0,0
71230,375,4,1,0,80,1,8
71605,461.538461538462,4,1,0,80,1,8
72528,461.538461538462,4,1,0,80,1,0
78066,461.538461538462,4,1,0,80,1,8
78538,461.538461538462,4,1,0,80,1,0
78653,-100,4,1,0,60,0,0
82172,-100,4,1,0,40,0,0
84018,-100,4,1,0,60,0,0
84062,465.116279069768,4,1,0,60,1,0
84062,-99.230772971006,4,1,0,60,0,0
85864,-99.230772971006,4,1,0,100,0,0
85922,230.769230769231,4,1,0,100,1,1
85922,-200,4,1,0,100,0,1
108075,-200,4,1,0,100,0,0
108537,-200,4,1,0,80,0,0
113640,461.538461538462,4,1,0,80,1,8
113640,-66.6666666666667,4,1,0,80,0,0
113755,-100,4,1,0,30,0,0
120274,-100,4,1,0,40,0,0
120563,459.066564651875,16,1,0,40,1,8
120563,-100.538888442049,16,1,0,40,0,8
120964,-101.010101010101,16,1,0,5,0,8
122743,-101.010101010101,16,1,0,10,0,8
123432,-101.010101010101,16,1,0,15,0,8
124120,-101.010101010101,16,1,0,20,0,8
124694,-101.010101010101,16,1,0,30,0,8
125383,-101.010101010101,16,1,0,40,0,8
125727,-101.010101010101,16,1,0,50,0,8
126416,-101.010101010101,16,1,0,60,0,8
127334,-101.010101010101,16,1,0,70,0,8

[HitObjects]
184,123,8910,5,0,0:0:0:0:
184,123,9833,1,0,0:0:0:0:
178,98,10294,1,8,0:0:0:0:
186,57,11217,1,8,0:0:0:0:
164,99,11679,1,8,0:0:0:0:
164,66,13063,1,8,0:0:0:0:
163,45,13986,1,8,0:0:0:0:
203,49,14910,1,8,0:0:0:0:
171,45,15833,1,8,0:0:0:0:
170,77,16294,1,0,0:0:0:0:
202,99,17217,1,8,0:0:0:0:
173,103,17910,1,8,0:0:0:0:
162,89,19294,1,8,0:0:0:0:
166,104,20448,1,8,0:0:0:0:
166,104,21371,1,8,0:0:0:0:
160,90,21833,1,0,0:0:0:0:
155,103,22756,1,0,0:0:0:0:
167,125,23679,1,0,0:0:0:0:
94,171,24602,1,0,0:0:0:0:
94,171,25063,1,8,0:0:0:0:
102,112,25525,1,8,0:0:0:0:
165,91,26448,1,8,0:0:0:0:
189,122,27371,1,0,0:0:0:0:
184,126,28294,1,0,0:0:0:0:
181,88,28756,1,8,0:0:0:0:
174,82,29217,1,8,0:0:0:0:
174,82,31063,1,8,0:0:0:0:
163,71,31525,1,8,0:0:0:0:
181,98,31986,1,8,0:0:0:0:
181,98,32910,1,8,0:0:0:0:
181,98,33371,1,8,0:0:0:0:
181,98,33833,1,8,0:0:0:0:
172,58,34756,1,0,0:0:0:0:
172,58,35217,1,0,0:0:0:0:
172,58,35679,1,0,0:0:0:0:
166,63,36140,1,0,0:0:0:0:
166,63,36602,1,8,0:0:0:0:
165,72,37525,1,8,0:0:0:0:
165,72,38448,1,0,0:0:0:0:
177,102,39371,1,0,0:0:0:0:
177,102,39833,1,8,0:0:0:0:
177,102,40294,1,8,0:0:0:0:
175,111,41217,1,8,0:0:0:0:
177,102,41679,1,0,0:0:0:0:
177,102,42140,1,0,0:0:0:0:
168,103,45371,1,8,0:0:0:0:
168,103,45833,1,0,0:0:0:0:
185,136,46756,1,0,0:0:0:0:
185,136,47679,1,0,0:0:0:0:
185,136,48140,1,0,0:0:0:0:
185,136,48602,1,0,0:0:0:0:
190,70,49063,1,12,0:0:0:0:
267,115,55524,5,12,0:0:0:0:
189,82,56447,5,0,0:0:0:0:
144,107,56677,1,8,0:0:0:0:
197,43,57139,1,8,0:0:0:0:
178,62,57600,1,8,0:0:0:0:
144,107,58293,1,0,0:0:0:0:
144,107,58523,1,8,0:0:0:0:
191,44,58985,1,8,0:0:0:0:
144,107,59447,1,8,0:0:0:0:
157,75,60139,1,0,0:0:0:0:
168,68,60370,1,8,0:0:0:0:
170,72,60831,1,8,0:0:0:0:
165,74,61523,1,12,0:0:0:0:
167,64,61985,1,0,0:0:0:0:
184,99,62908,1,0,0:0:0:0:
185,63,63370,1,0,0:0:0:0:
171,120,63831,1,8,0:0:0:0:
160,56,64062,1,8,0:0:0:0:
171,120,64293,1,8,0:0:0:0:
133,82,64754,1,8,0:0:0:0:
171,120,65677,1,0,0:0:0:0:
155,72,66600,1,0,0:0:0:0:
191,83,67062,1,0,0:0:0:0:
155,72,67523,1,8,0:0:0:0:
172,63,67754,1,8,0:0:0:0:
172,63,67985,1,8,0:0:0:0:
172,63,68447,1,8,0:0:0:0:
172,92,68908,1,8,0:0:0:0:
256,192,69831,12,0,72066,0:0:0:0:
159,100,72528,5,0,0:0:0:0:
95,92,72989,1,8,0:0:0:0:
140,144,73451,1,8,0:0:0:0:
196,73,74143,1,0,0:0:0:0:
160,155,74374,1,0,0:0:0:0:
79,93,74835,1,8,0:0:0:0:
149,147,75297,1,0,0:0:0:0:
164,141,76220,1,8,0:0:0:0:
82,104,76451,1,8,0:0:0:0:
112,124,76681,1,8,0:0:0:0:
175,107,77143,1,0,0:0:0:0:
176,73,78538,1,12,0:0:0:0:
95,134,80384,1,4,0:0:0:0:
95,134,81307,1,0,0:0:0:0:
179,72,81768,1,8,0:0:0:0:
165,97,82230,1,0,0:0:0:0:
84,74,83153,1,0,0:0:0:0:
84,92,84062,1,8,0:0:0:0:
125,78,85922,1,0,0:0:0:0:
185,70,86614,1,0,0:0:0:0:
169,90,86845,1,0,0:0:0:0:
182,60,87306,1,8,0:0:0:0:
169,90,87768,1,8,0:0:0:0:
169,90,88691,1,0,0:0:0:0:
172,43,89152,1,8,0:0:0:0:
169,90,89614,1,0,0:0:0:0:
169,90,90537,1,8,0:0:0:0:
200,40,90998,1,8,0:0:0:0:
155,106,91460,1,0,0:0:0:0:
155,106,92383,1,8,0:0:0:0:
186,98,93306,1,0,0:0:0:0:
183,73,93768,1,0,0:0:0:0:
183,73,94229,1,0,0:0:0:0:
183,73,95152,1,8,0:0:0:0:
203,68,95383,1,8,0:0:0:0:
183,73,95614,1,8,0:0:0:0:
183,73,96075,1,8,0:0:0:0:
192,96,96998,1,0,0:0:0:0:
180,102,97460,1,0,0:0:0:0:
169,108,97922,1,0,0:0:0:0:
177,108,98845,1,8,0:0:0:0:
177,108,99306,1,8,0:0:0:0:
177,108,99537,1,8,0:0:0:0:
177,108,99768,1,8,0:0:0:0:
202,128,100691,1,0,0:0:0:0:
202,128,101152,1,0,0:0:0:0:
190,119,101614,1,0,0:0:0:0:
192,146,102537,1,8,0:0:0:0:
172,141,102768,1,8,0:0:0:0:
172,141,102998,1,8,0:0:0:0:
172,141,103460,1,8,0:0:0:0:
192,136,104383,1,0,0:0:0:0:
192,136,104845,1,0,0:0:0:0:
139,75,105075,1,0,0:0:0:0:
192,136,105306,1,0,0:0:0:0:
183,93,105768,1,8,0:0:0:0:
183,93,106229,1,8,0:0:0:0:
85,90,106922,1,8,0:0:0:0:
183,93,107152,1,8,0:0:0:0:
171,119,107614,5,8,0:0:0:0:
212,98,108998,1,8,0:0:0:0:
177,122,109460,1,8,0:0:0:0:
172,62,109922,1,0,0:0:0:0:
183,91,110152,1,0,0:0:0:0:
194,87,110614,1,0,0:0:0:0:
153,110,110845,1,8,0:0:0:0:
153,110,111306,1,8,0:0:0:0:
153,110,111768,1,0,0:0:0:0:
185,91,112460,1,8,0:0:0:0:
181,95,112691,1,8,0:0:0:0:
169,106,113152,1,12,0:0:0:0:
169,104,113614,1,0,0:0:0:0:
120,109,114563,1,0,0:0:0:0:
120,109,115024,1,8,0:0:0:0:
120,109,115486,1,8,0:0:0:0:
120,109,116409,1,8,0:0:0:0:
120,109,116870,1,0,0:0:0:0:
120,109,117332,1,0,0:0:0:0:
120,109,118255,1,8,0:0:0:0:
120,109,119178,1,0,0:0:0:0:
120,109,119640,1,0,0:0:0:0:
91,108,120563,1,8,0:0:0:0:
256,192,121022,12,0,127448,0:0:0:0:
