osu file format v14

[General]
AudioFilename: audio.mp3
AudioLeadIn: 0
PreviewTime: 85922
Countdown: 0
SampleSet: Normal
StackLeniency: 0.2
Mode: 1
LetterboxInBreaks: 0
WidescreenStoryboard: 0

[Editor]
Bookmarks: 8910,49063,56447,69831,78538,85922,113640,127448
DistanceSpacing: 1.4
BeatDivisor: 4
GridSize: 32
TimelineZoom: 3.59683

[Metadata]
Title:Niji Bishou x1 Hadairo Senjou Senjou
TitleUnicode:虹微笑x1肌色扇情扇情
Artist:The Lovers
ArtistUnicode:The Lovers
Creator:Genjuro
Version:Oni
Source:Toy Musical 2
Tags:electronic instrumental bms 2ジ 2d nyanmi-1828 _dusk_ hirok ulqui
BeatmapID:2463384
BeatmapSetID:1178487

[Difficulty]
HPDrainRate:5.5
CircleSize:2
OverallDifficulty:5.5
ApproachRate:10
SliderMultiplier:1.4
SliderTickRate:1

[Events]
//Background and Video events
0,0,"bg.jpg",0,-150
//Break Periods
//Storyboard Layer 0 (Background)
//Storyboard Layer 1 (Fail)
//Storyboard Layer 2 (Pass)
//Storyboard Layer 3 (Foreground)
//Storyboard Layer 4 (Overlay)
//Storyboard Sound Samples

[TimingPoints]
166,230.769230769231,8,1,0,5,1,8
1832,208.333333333333,4,1,0,50,1,0
1832,-110.770185096979,4,1,0,50,0,0
2040,245.901639344262,4,1,0,50,1,8
2285,294.117647058824,4,1,0,50,1,8
2579,312.5,4,1,0,50,1,8
2891,340.909090909091,4,1,0,50,1,0
2891,-90.2575211182085,4,1,0,50,0,0
3231,375,4,1,0,50,1,8
3606,461.538461538462,4,1,0,50,1,8
4529,461.538461538462,4,1,0,50,1,0
8221,461.538461538462,4,1,0,5,1,8
8855,-100,4,1,0,20,0,8
8910,461.538461538462,4,1,0,20,1,0
9660,-100,4,1,0,60,0,0
9775,-100,4,1,0,20,0,0
10929,-100,4,1,0,40,0,0
11275,-100,4,1,0,20,0,0
13006,-100,4,1,0,40,0,0
13467,-100,4,1,0,20,0,0
13929,-100,4,1,0,40,0,0
14390,-100,4,1,0,20,0,0
14852,-100,4,1,0,40,0,0
15313,-100,4,1,0,20,0,0
15775,-100,4,1,0,40,0,0
16236,-100,4,1,0,20,0,0
17852,-100,4,1,0,60,0,0
18083,-100,4,1,0,40,0,0
19006,-100,4,1,0,20,0,0
20390,-100,4,1,0,40,0,0
20852,-100,4,1,0,20,0,0
21313,-100,4,1,0,40,0,0
23736,-100,4,1,0,30,0,0
29160,-100,4,1,0,40,0,0
31006,-100,4,1,0,60,0,0
35160,-100,4,1,0,80,0,0
35621,-100,4,1,0,60,0,0
36083,-100,4,1,0,80,0,0
38506,-100,4,1,0,60,0,0
42313,-100,4,1,0,30,0,0
45313,-100,4,1,0,70,0,0
46006,-100,4,1,0,40,0,0
46236,-100,4,1,0,70,0,0
47044,-100,4,1,0,40,0,0
47160,-100,4,1,0,70,0,0
47390,-100,4,1,0,40,0,0
49005,-100,4,1,0,80,0,0
49063,461.538461538462,14,1,0,80,1,0
49063,-100,14,1,0,80,0,0
49236,-100,14,1,0,30,0,0
54486,-100,14,1,0,20,0,0
55466,-100,14,1,0,80,0,0
56447,230.769230769231,4,1,0,80,1,0
56447,-100,14,1,0,80,0,0
69370,230.769230769231,4,1,0,80,1,8
69831,208.333333333333,4,1,0,80,1,0
69831,-110.769326201266,4,1,0,80,0,0
70039,245.901639344262,4,1,0,80,1,8
70039,-96.8735568222169,4,1,0,80,0,0
70161,-98.4616608370905,4,1,0,80,0,0
70284,294.117647058824,4,1,0,80,1,8
70284,-83.6923241732575,4,1,0,80,0,0
70431,-85.1108483689155,4,1,0,80,0,0
70504,-85.8382968066132,4,1,0,80,0,0
70578,312.5,4,1,0,80,1,8
70578,-81.4854471065739,4,1,0,80,0,0
70734,-82.9150270220072,4,1,0,80,0,0
70812,-83.6487938471292,4,1,0,80,0,0
70890,340.909090909091,4,1,0,80,1,0
70890,-77.3626917715633,4,1,0,80,0,0
71060,-78.769297045607,4,1,0,80,0,0
71230,375,4,1,0,80,1,8
71230,-72.9345447469477,4,1,0,80,0,0
71323,-73.6161814256067,4,1,0,80,0,0
71417,-74.3106792768916,4,1,0,80,0,0
71511,-75.0184057658545,4,1,0,80,0,0
71605,461.538461538462,4,1,0,80,1,8
71605,-61.5385407738844,4,1,0,80,0,0
71835,-62.745101673321,4,1,0,80,0,0
71951,-63.3663446642495,4,1,0,80,0,0
72066,-64.0000126030793,4,1,0,80,0,0
72181,-64.6464820060793,4,1,0,80,0,0
72297,-65.3061447576406,4,1,0,80,0,0
72528,461.538461538462,4,1,0,80,1,0
72528,-66.6666994871955,4,1,0,80,0,0
78066,461.538461538462,4,1,0,80,1,8
78066,-66.6666666666667,4,1,0,80,0,8
78538,461.538461538462,4,1,0,80,1,0
78538,-66.6666666666667,4,1,0,80,0,0
78653,-100,4,1,0,60,0,0
82172,-100,4,1,0,40,0,0
84018,-100,4,1,0,60,0,0
84062,465.116279069768,4,1,0,60,1,0
84062,-99.230772971006,4,1,0,60,0,0
85864,-99.230772971006,4,1,0,100,0,0
85922,230.769230769231,4,1,0,100,1,1
108075,-100,4,1,0,100,0,0
108162,-100,4,1,0,80,0,0
108537,-132.876768755888,4,1,0,80,0,0
113640,461.538461538462,4,1,0,80,1,8
113640,-66.6666666666667,4,1,0,80,0,0
113755,-100,4,1,0,30,0,0
120274,-100,4,1,0,40,0,0
120563,459.066564651875,16,1,0,40,1,8
120563,-100.538888442049,16,1,0,40,0,8
120964,-133.333333333333,16,1,0,5,0,8
122743,-133.333333333333,16,1,0,10,0,8
123432,-133.333333333333,16,1,0,15,0,8
124120,-133.333333333333,16,1,0,20,0,8
124694,-133.333333333333,16,1,0,30,0,8
125383,-133.333333333333,16,1,0,40,0,8
125727,-133.333333333333,16,1,0,50,0,8
126416,-133.333333333333,16,1,0,60,0,8
127334,-133.333333333333,16,1,0,70,0,8

[HitObjects]
256,192,8910,5,0,0:0:0:0:
256,192,9140,1,0,0:0:0:0:
256,192,9371,1,8,0:0:0:0:
256,192,9717,1,8,0:0:0:0:
256,192,9833,1,0,0:0:0:0:
256,192,10063,1,0,0:0:0:0:
256,192,10294,1,8,0:0:0:0:
256,192,10756,1,0,0:0:0:0:
256,192,10986,1,8,0:0:0:0:
256,192,11102,1,8,0:0:0:0:
256,192,11217,1,8,0:0:0:0:
256,192,11333,1,0,0:0:0:0:
256,192,11679,1,8,0:0:0:0:
256,192,12140,1,8,0:0:0:0:
256,192,12602,1,0,0:0:0:0:
256,192,12948,1,0,0:0:0:0:
256,192,13063,1,8,0:0:0:0:
256,192,13525,1,0,0:0:0:0:
256,192,13871,1,0,0:0:0:0:
256,192,13986,1,8,0:0:0:0:
256,192,14448,1,0,0:0:0:0:
256,192,14794,1,0,0:0:0:0:
256,192,14910,1,8,0:0:0:0:
256,192,15371,1,0,0:0:0:0:
256,192,15717,1,0,0:0:0:0:
256,192,15833,1,8,0:0:0:0:
256,192,16294,1,0,0:0:0:0:
256,192,16640,1,8,0:0:0:0:
256,192,16756,1,8,0:0:0:0:
256,192,16986,1,0,0:0:0:0:
256,192,17217,1,8,0:0:0:0:
256,192,17448,1,0,0:0:0:0:
256,192,17563,1,8,0:0:0:0:
256,192,17679,1,8,0:0:0:0:
256,192,17910,1,8,0:0:0:0:
256,192,18140,1,0,0:0:0:0:
256,192,18256,1,0,0:0:0:0:
256,192,18371,1,0,0:0:0:0:
256,192,18486,1,0,0:0:0:0:
256,192,18602,1,8,0:0:0:0:
256,192,18833,1,8,0:0:0:0:
256,192,19063,1,0,0:0:0:0:
256,192,19294,1,0,0:0:0:0:
256,192,19410,1,8,0:0:0:0:
256,192,19525,1,8,0:0:0:0:
256,192,19756,1,0,0:0:0:0:
256,192,19986,1,0,0:0:0:0:
256,192,20333,1,0,0:0:0:0:
256,192,20448,1,8,0:0:0:0:
256,192,20910,1,0,0:0:0:0:
256,192,21256,1,0,0:0:0:0:
256,192,21371,1,8,0:0:0:0:
256,192,21833,1,0,0:0:0:0:
256,192,22063,1,0,0:0:0:0:
256,192,22179,1,0,0:0:0:0:
256,192,22294,1,8,0:0:0:0:
256,192,22525,1,8,0:0:0:0:
256,192,22640,1,8,0:0:0:0:
256,192,22756,1,0,0:0:0:0:
256,192,22986,1,0,0:0:0:0:
256,192,23102,1,0,0:0:0:0:
256,192,23217,1,8,0:0:0:0:
256,192,23448,1,8,0:0:0:0:
256,192,23563,1,8,0:0:0:0:
256,192,23679,1,0,0:0:0:0:
256,192,24140,1,8,0:0:0:0:
256,192,24602,1,0,0:0:0:0:
256,192,24833,1,0,0:0:0:0:
256,192,25063,1,8,0:0:0:0:
256,192,25525,1,0,0:0:0:0:
256,192,26217,1,8,0:0:0:0:
256,192,26448,1,0,0:0:0:0:
256,192,26679,1,8,0:0:0:0:
256,192,27371,1,0,0:0:0:0:
256,192,27833,1,8,0:0:0:0:
256,192,28294,1,0,0:0:0:0:
256,192,28525,1,0,0:0:0:0:
256,192,28756,1,8,0:0:0:0:
256,192,29217,1,8,0:0:0:0:
256,192,29448,1,0,0:0:0:0:
256,192,29679,1,8,0:0:0:0:
256,192,29910,1,0,0:0:0:0:
256,192,30025,1,0,0:0:0:0:
256,192,30140,1,8,0:0:0:0:
256,192,30371,1,0,0:0:0:0:
256,192,30486,1,8,0:0:0:0:
256,192,30717,1,0,0:0:0:0:
256,192,30833,1,8,0:0:0:0:
256,192,31063,1,2,0:0:0:0:
256,192,31525,1,2,0:0:0:0:
256,192,31986,1,2,0:0:0:0:
256,192,32448,1,2,0:0:0:0:
256,192,32910,1,2,0:0:0:0:
256,192,33256,1,2,0:0:0:0:
256,192,33371,1,2,0:0:0:0:
256,192,33833,1,2,0:0:0:0:
256,192,34179,1,2,0:0:0:0:
256,192,34294,1,2,0:0:0:0:
256,192,34525,1,2,0:0:0:0:
256,192,34756,1,0,0:0:0:0:
256,192,35102,1,0,0:0:0:0:
256,192,35217,1,8,0:0:0:0:
256,192,35679,1,0,0:0:0:0:
256,192,36025,1,0,0:0:0:0:
256,192,36140,1,8,0:0:0:0:
256,192,36602,1,0,0:0:0:0:
256,192,36833,1,0,0:0:0:0:
256,192,36948,1,0,0:0:0:0:
256,192,37063,1,8,0:0:0:0:
256,192,37294,1,8,0:0:0:0:
256,192,37410,1,8,0:0:0:0:
256,192,37525,1,0,0:0:0:0:
256,192,37756,1,0,0:0:0:0:
256,192,37871,1,0,0:0:0:0:
256,192,37986,1,8,0:0:0:0:
256,192,38217,1,8,0:0:0:0:
256,192,38333,1,8,0:0:0:0:
256,192,38448,1,0,0:0:0:0:
256,192,39140,1,8,0:0:0:0:
256,192,39371,1,0,0:0:0:0:
256,192,39833,1,8,0:0:0:0:
256,192,40294,1,0,0:0:0:0:
256,192,40525,1,8,0:0:0:0:
256,192,40640,1,8,0:0:0:0:
256,192,40871,1,0,0:0:0:0:
256,192,40986,1,0,0:0:0:0:
256,192,41102,1,8,0:0:0:0:
256,192,41448,1,8,0:0:0:0:
256,192,41563,1,8,0:0:0:0:
256,192,41679,1,0,0:0:0:0:
256,192,42140,1,0,0:0:0:0:
256,192,42371,1,8,0:0:0:0:
256,192,42602,1,8,0:0:0:0:
256,192,43063,1,8,0:0:0:0:
256,192,43410,1,8,0:0:0:0:
256,192,43756,1,8,0:0:0:0:
256,192,44217,1,8,0:0:0:0:
256,192,44448,1,8,0:0:0:0:
256,192,44910,1,8,0:0:0:0:
256,192,45256,1,8,0:0:0:0:
256,192,45371,1,0,0:0:0:0:
256,192,45833,1,0,0:0:0:0:
256,192,46063,1,8,0:0:0:0:
256,192,46294,1,0,0:0:0:0:
256,192,46756,1,8,0:0:0:0:
256,192,47102,1,8,0:0:0:0:
256,192,47217,1,0,0:0:0:0:
256,192,47448,1,8,0:0:0:0:
256,192,47679,1,0,0:0:0:0:
256,192,47910,1,8,0:0:0:0:
256,192,48025,1,0,0:0:0:0:
256,192,48140,1,8,0:0:0:0:
256,192,48371,1,0,0:0:0:0:
256,192,48602,1,8,0:0:0:0:
256,192,48717,1,0,0:0:0:0:
256,192,49063,1,12,0:0:0:0:
256,192,49293,1,8,0:0:0:0:
256,192,49409,1,0,0:0:0:0:
256,192,49870,1,0,0:0:0:0:
256,192,49986,1,8,0:0:0:0:
256,192,50293,1,0,0:0:0:0:
256,192,50563,1,8,0:0:0:0:
256,192,50966,1,8,0:0:0:0:
256,192,51111,1,8,0:0:0:0:
256,192,51457,1,0,0:0:0:0:
256,192,51572,1,8,0:0:0:0:
256,192,51755,1,0,0:0:0:0:
256,192,51976,1,8,0:0:0:0:
256,192,52293,1,8,0:0:0:0:
256,192,52957,1,0,0:0:0:0:
256,192,53101,1,0,0:0:0:0:
256,192,53563,1,8,0:0:0:0:
256,192,54082,1,8,0:0:0:0:
256,192,54524,1,0,0:0:0:0:
256,192,55524,1,12,0:0:0:0:
256,192,55986,1,8,0:0:0:0:
256,192,56101,1,8,0:0:0:0:
256,192,56216,1,8,0:0:0:0:
256,192,56447,1,4,0:0:0:0:
256,192,56677,1,8,0:0:0:0:
256,192,56793,1,0,0:0:0:0:
256,192,56908,1,0,0:0:0:0:
256,192,57023,1,8,0:0:0:0:
256,192,57139,1,8,0:0:0:0:
256,192,57370,1,0,0:0:0:0:
256,192,57600,1,8,0:0:0:0:
256,192,57716,1,0,0:0:0:0:
256,192,57831,1,0,0:0:0:0:
256,192,57947,1,0,0:0:0:0:
256,192,58062,1,8,0:0:0:0:
256,192,58293,1,0,0:0:0:0:
256,192,58523,1,8,0:0:0:0:
256,192,58639,1,0,0:0:0:0:
256,192,58754,1,0,0:0:0:0:
256,192,58870,1,8,0:0:0:0:
256,192,58985,1,8,0:0:0:0:
256,192,59216,1,0,0:0:0:0:
256,192,59447,1,8,0:0:0:0:
256,192,59562,1,0,0:0:0:0:
256,192,59677,1,0,0:0:0:0:
256,192,59793,1,0,0:0:0:0:
256,192,59908,1,8,0:0:0:0:
256,192,60023,1,0,0:0:0:0:
256,192,60139,1,0,0:0:0:0:
256,192,60370,1,8,0:0:0:0:
256,192,60485,1,0,0:0:0:0:
256,192,60600,1,0,0:0:0:0:
256,192,60716,1,8,0:0:0:0:
256,192,60831,1,8,0:0:0:0:
256,192,61062,1,0,0:0:0:0:
256,192,61293,1,8,0:0:0:0:
256,192,61408,1,0,0:0:0:0:
256,192,61523,1,8,0:0:0:0:
256,192,61754,1,8,0:0:0:0:
256,192,61985,1,0,0:0:0:0:
256,192,62043,1,0,0:0:0:0:
256,192,62100,1,0,0:0:0:0:
256,192,62216,1,8,0:0:0:0:
256,192,62331,1,0,0:0:0:0:
256,192,62447,1,8,0:0:0:0:
256,192,62562,1,0,0:0:0:0:
256,192,62677,1,8,0:0:0:0:
256,192,62908,1,0,0:0:0:0:
256,192,63023,1,0,0:0:0:0:
256,192,63139,1,8,0:0:0:0:
256,192,63197,1,8,0:0:0:0:
256,192,63254,1,8,0:0:0:0:
256,192,63370,1,0,0:0:0:0:
256,192,63485,1,8,0:0:0:0:
256,192,63658,1,0,0:0:0:0:
256,192,63831,1,8,0:0:0:0:
256,192,63889,1,8,0:0:0:0:
256,192,64004,1,8,0:0:0:0:
256,192,64120,1,8,0:0:0:0:
256,192,64177,1,8,0:0:0:0:
256,192,64293,1,0,0:0:0:0:
256,192,64408,1,8,0:0:0:0:
256,192,64523,1,0,0:0:0:0:
256,192,64581,1,0,0:0:0:0:
256,192,64639,1,0,0:0:0:0:
256,192,64754,1,8,0:0:0:0:
256,192,64870,1,0,0:0:0:0:
256,192,64927,1,0,0:0:0:0:
256,192,64985,1,0,0:0:0:0:
256,192,65100,1,8,0:0:0:0:
256,192,65216,1,0,0:0:0:0:
256,192,65331,1,8,0:0:0:0:
256,192,65677,1,0,0:0:0:0:
256,192,65735,1,0,0:0:0:0:
256,192,65793,1,0,0:0:0:0:
256,192,65908,1,8,0:0:0:0:
256,192,66023,1,0,0:0:0:0:
256,192,66139,1,8,0:0:0:0:
256,192,66254,1,0,0:0:0:0:
256,192,66370,1,8,0:0:0:0:
256,192,66600,1,0,0:0:0:0:
256,192,66716,1,0,0:0:0:0:
256,192,66831,1,8,0:0:0:0:
256,192,66889,1,8,0:0:0:0:
256,192,66947,1,8,0:0:0:0:
256,192,67062,1,0,0:0:0:0:
256,192,67177,1,8,0:0:0:0:
256,192,67293,1,0,0:0:0:0:
256,192,67408,1,0,0:0:0:0:
256,192,67523,1,8,0:0:0:0:
256,192,67581,1,8,0:0:0:0:
256,192,67697,1,8,0:0:0:0:
256,192,67812,1,8,0:0:0:0:
256,192,67870,1,8,0:0:0:0:
256,192,67985,1,0,0:0:0:0:
256,192,68100,1,8,0:0:0:0:
256,192,68216,1,0,0:0:0:0:
256,192,68273,1,0,0:0:0:0:
256,192,68331,1,0,0:0:0:0:
256,192,68447,1,8,0:0:0:0:
256,192,68562,1,8,0:0:0:0:
256,192,68620,1,8,0:0:0:0:
256,192,68677,1,8,0:0:0:0:
256,192,68793,1,0,0:0:0:0:
256,192,68908,1,8,0:0:0:0:
256,192,69139,1,8,0:0:0:0:
256,192,69312,1,8,0:0:0:0:
256,192,69370,1,8,0:0:0:0:
256,192,69523,1,0,0:0:0:0:
256,192,69677,1,0,0:0:0:0:
256,192,69831,1,8,0:0:0:0:
256,192,70039,1,8,0:0:0:0:
256,192,70161,1,0,0:0:0:0:
256,192,70284,1,8,0:0:0:0:
256,192,70431,1,0,0:0:0:0:
256,192,70504,1,0,0:0:0:0:
256,192,70578,1,8,0:0:0:0:
256,192,70734,1,8,0:0:0:0:
256,192,70812,1,8,0:0:0:0:
256,192,70890,1,0,0:0:0:0:
256,192,71060,1,0,0:0:0:0:
256,192,71230,1,8,0:0:0:0:
256,192,71323,1,8,0:0:0:0:
256,192,71417,1,0,0:0:0:0:
256,192,71511,1,8,0:0:0:0:
256,192,71605,1,8,0:0:0:0:
256,192,71835,1,8,0:0:0:0:
256,192,71951,1,8,0:0:0:0:
256,192,72066,1,0,0:0:0:0:
256,192,72181,1,0,0:0:0:0:
256,192,72297,1,8,0:0:0:0:
256,192,72528,1,0,0:0:0:0:
256,192,72643,1,8,0:0:0:0:
256,192,72758,1,0,0:0:0:0:
256,192,72989,1,8,0:0:0:0:
256,192,73220,1,0,0:0:0:0:
256,192,73335,1,8,0:0:0:0:
256,192,73451,1,0,0:0:0:0:
256,192,73566,1,0,0:0:0:0:
256,192,73681,1,8,0:0:0:0:
256,192,73912,1,0,0:0:0:0:
256,192,74258,1,8,0:0:0:0:
256,192,74374,1,0,0:0:0:0:
256,192,74604,1,8,0:0:0:0:
256,192,74835,1,8,0:0:0:0:
256,192,75066,1,0,0:0:0:0:
256,192,75181,1,8,0:0:0:0:
256,192,75297,1,0,0:0:0:0:
256,192,75528,1,8,0:0:0:0:
256,192,75643,1,0,0:0:0:0:
256,192,75758,1,8,0:0:0:0:
256,192,75874,1,0,0:0:0:0:
256,192,76104,1,8,0:0:0:0:
256,192,76278,1,8,0:0:0:0:
256,192,76451,1,8,0:0:0:0:
256,192,76566,1,0,0:0:0:0:
256,192,76681,1,8,0:0:0:0:
256,192,76854,1,0,0:0:0:0:
256,192,77028,1,8,0:0:0:0:
256,192,77143,1,0,0:0:0:0:
256,192,77258,1,0,0:0:0:0:
256,192,77374,1,0,0:0:0:0:
256,192,77489,1,0,0:0:0:0:
256,192,77604,1,0,0:0:0:0:
256,192,77720,1,0,0:0:0:0:
256,192,77835,1,0,0:0:0:0:
256,192,77951,1,0,0:0:0:0:
256,192,78066,1,0,0:0:0:0:
256,192,78538,5,12,0:0:0:0:
256,192,79230,1,8,0:0:0:0:
256,192,79461,1,0,0:0:0:0:
256,192,79922,1,8,0:0:0:0:
256,192,80268,1,0,0:0:0:0:
256,192,80384,1,0,0:0:0:0:
256,192,80614,1,8,0:0:0:0:
256,192,80730,1,0,0:0:0:0:
256,192,80845,1,0,0:0:0:0:
256,192,81191,1,8,0:0:0:0:
256,192,81307,1,0,0:0:0:0:
256,192,81538,1,8,0:0:0:0:
256,192,81768,1,0,0:0:0:0:
256,192,81884,1,0,0:0:0:0:
256,192,81999,1,8,0:0:0:0:
256,192,82114,1,0,0:0:0:0:
256,192,82230,1,8,0:0:0:0:
256,192,82461,1,8,0:0:0:0:
256,192,82691,1,8,0:0:0:0:
256,192,82922,1,8,0:0:0:0:
256,192,83153,1,8,0:0:0:0:
256,192,83384,1,8,0:0:0:0:
256,192,83614,1,8,0:0:0:0:
256,192,83845,1,8,0:0:0:0:
256,192,84062,1,2,0:0:0:0:
256,192,84527,1,2,0:0:0:0:
256,192,84992,1,2,0:0:0:0:
256,192,85457,1,2,0:0:0:0:
256,192,85922,1,4,0:0:0:0:
256,192,86152,1,8,0:0:0:0:
256,192,86268,1,0,0:0:0:0:
256,192,86383,1,0,0:0:0:0:
256,192,86498,1,8,0:0:0:0:
256,192,86614,1,8,0:0:0:0:
256,192,86845,1,0,0:0:0:0:
256,192,87075,1,8,0:0:0:0:
256,192,87191,1,0,0:0:0:0:
256,192,87306,1,0,0:0:0:0:
256,192,87422,1,0,0:0:0:0:
256,192,87537,1,8,0:0:0:0:
256,192,87768,1,0,0:0:0:0:
256,192,87998,1,8,0:0:0:0:
256,192,88114,1,0,0:0:0:0:
256,192,88229,1,0,0:0:0:0:
256,192,88345,1,8,0:0:0:0:
256,192,88460,1,8,0:0:0:0:
256,192,88691,1,0,0:0:0:0:
256,192,88922,1,8,0:0:0:0:
256,192,89037,1,0,0:0:0:0:
256,192,89152,1,0,0:0:0:0:
256,192,89268,1,0,0:0:0:0:
256,192,89383,1,8,0:0:0:0:
256,192,89498,1,8,0:0:0:0:
256,192,89614,1,0,0:0:0:0:
256,192,89845,1,8,0:0:0:0:
256,192,89960,1,0,0:0:0:0:
256,192,90075,1,0,0:0:0:0:
256,192,90191,1,8,0:0:0:0:
256,192,90306,1,8,0:0:0:0:
256,192,90537,1,0,0:0:0:0:
256,192,90768,1,8,0:0:0:0:
256,192,90883,1,0,0:0:0:0:
256,192,90998,1,0,0:0:0:0:
256,192,91114,1,0,0:0:0:0:
256,192,91229,1,8,0:0:0:0:
256,192,91460,1,0,0:0:0:0:
256,192,91691,1,8,0:0:0:0:
256,192,91806,1,0,0:0:0:0:
256,192,91922,1,0,0:0:0:0:
256,192,92037,1,8,0:0:0:0:
256,192,92152,1,8,0:0:0:0:
256,192,92383,1,8,0:0:0:0:
256,192,92614,1,8,0:0:0:0:
256,192,92729,1,0,0:0:0:0:
256,192,92845,1,0,0:0:0:0:
256,192,92960,1,0,0:0:0:0:
256,192,93075,1,8,0:0:0:0:
256,192,93306,1,0,0:0:0:0:
256,192,93460,1,8,0:0:0:0:
256,192,93537,1,0,0:0:0:0:
256,192,93614,1,8,0:0:0:0:
256,192,93768,1,0,0:0:0:0:
256,192,93922,1,8,0:0:0:0:
256,192,93998,1,8,0:0:0:0:
256,192,94075,1,0,0:0:0:0:
256,192,94229,1,0,0:0:0:0:
256,192,94383,1,8,0:0:0:0:
256,192,94460,1,0,0:0:0:0:
256,192,94537,1,8,0:0:0:0:
256,192,94691,1,0,0:0:0:0:
256,192,94845,1,8,0:0:0:0:
256,192,94922,1,8,0:0:0:0:
256,192,94998,1,0,0:0:0:0:
256,192,95075,1,0,0:0:0:0:
256,192,95152,1,8,0:0:0:0:
256,192,95383,1,0,0:0:0:0:
256,192,95498,1,8,0:0:0:0:
256,192,95614,1,0,0:0:0:0:
256,192,95729,1,8,0:0:0:0:
256,192,95845,1,8,0:0:0:0:
256,192,95960,1,0,0:0:0:0:
256,192,96075,1,8,0:0:0:0:
256,192,96133,1,8,0:0:0:0:
256,192,96191,1,8,0:0:0:0:
256,192,96306,1,0,0:0:0:0:
256,192,96364,1,0,0:0:0:0:
256,192,96422,1,0,0:0:0:0:
256,192,96537,1,8,0:0:0:0:
256,192,96768,1,8,0:0:0:0:
256,192,96998,1,0,0:0:0:0:
256,192,97152,1,8,0:0:0:0:
256,192,97229,1,0,0:0:0:0:
256,192,97306,1,8,0:0:0:0:
256,192,97460,1,0,0:0:0:0:
256,192,97614,1,8,0:0:0:0:
256,192,97691,1,8,0:0:0:0:
256,192,97768,1,0,0:0:0:0:
256,192,97922,1,8,0:0:0:0:
256,192,98152,1,8,0:0:0:0:
256,192,98268,1,0,0:0:0:0:
256,192,98383,1,8,0:0:0:0:
256,192,98498,1,8,0:0:0:0:
256,192,98614,1,0,0:0:0:0:
256,192,98672,1,0,0:0:0:0:
256,192,98729,1,0,0:0:0:0:
256,192,98845,1,8,0:0:0:0:
256,192,98998,1,8,0:0:0:0:
256,192,99152,1,0,0:0:0:0:
256,192,99306,1,8,0:0:0:0:
256,192,99383,1,8,0:0:0:0:
256,192,99460,1,0,0:0:0:0:
256,192,99614,1,8,0:0:0:0:
256,192,99768,1,8,0:0:0:0:
256,192,99825,1,8,0:0:0:0:
256,192,99883,1,8,0:0:0:0:
256,192,99998,1,0,0:0:0:0:
256,192,100056,1,0,0:0:0:0:
256,192,100114,1,0,0:0:0:0:
256,192,100229,1,8,0:0:0:0:
256,192,100460,1,8,0:0:0:0:
256,192,100691,1,0,0:0:0:0:
256,192,100845,1,8,0:0:0:0:
256,192,100922,1,0,0:0:0:0:
256,192,100998,1,8,0:0:0:0:
256,192,101152,1,0,0:0:0:0:
256,192,101306,1,8,0:0:0:0:
256,192,101383,1,8,0:0:0:0:
256,192,101460,1,0,0:0:0:0:
256,192,101614,1,0,0:0:0:0:
256,192,101768,1,8,0:0:0:0:
256,192,101845,1,0,0:0:0:0:
256,192,101922,1,8,0:0:0:0:
256,192,102075,1,0,0:0:0:0:
256,192,102229,1,8,0:0:0:0:
256,192,102306,1,8,0:0:0:0:
256,192,102383,1,0,0:0:0:0:
256,192,102460,1,0,0:0:0:0:
256,192,102537,1,8,0:0:0:0:
256,192,102768,1,0,0:0:0:0:
256,192,102883,1,8,0:0:0:0:
256,192,102998,1,0,0:0:0:0:
256,192,103114,1,8,0:0:0:0:
256,192,103229,1,8,0:0:0:0:
256,192,103345,1,0,0:0:0:0:
256,192,103460,1,8,0:0:0:0:
256,192,103518,1,8,0:0:0:0:
256,192,103575,1,8,0:0:0:0:
256,192,103691,1,0,0:0:0:0:
256,192,103748,1,0,0:0:0:0:
256,192,103806,1,0,0:0:0:0:
256,192,103922,1,8,0:0:0:0:
256,192,104152,1,8,0:0:0:0:
256,192,104383,1,0,0:0:0:0:
256,192,104537,1,8,0:0:0:0:
256,192,104614,1,0,0:0:0:0:
256,192,104691,1,8,0:0:0:0:
256,192,104845,1,8,0:0:0:0:
256,192,104960,1,0,0:0:0:0:
256,192,105075,1,8,0:0:0:0:
256,192,105191,1,0,0:0:0:0:
256,192,105306,1,8,0:0:0:0:
256,192,105537,1,8,0:0:0:0:
256,192,105595,1,8,0:0:0:0:
256,192,105652,1,8,0:0:0:0:
256,192,105768,1,0,0:0:0:0:
256,192,105883,1,8,0:0:0:0:
256,192,105998,1,0,0:0:0:0:
256,192,106114,1,0,0:0:0:0:
256,192,106229,1,8,0:0:0:0:
256,192,106287,1,8,0:0:0:0:
256,192,106402,1,8,0:0:0:0:
256,192,106518,1,8,0:0:0:0:
256,192,106575,1,8,0:0:0:0:
256,192,106691,1,0,0:0:0:0:
256,192,106845,1,8,0:0:0:0:
256,192,106998,1,8,0:0:0:0:
256,192,107152,1,0,0:0:0:0:
256,192,107268,1,8,0:0:0:0:
256,192,107325,1,8,0:0:0:0:
256,192,107383,1,8,0:0:0:0:
256,192,107498,1,0,0:0:0:0:
256,192,107614,1,8,0:0:0:0:
256,192,107845,1,8,0:0:0:0:
256,192,108075,1,0,0:0:0:0:
256,192,108191,1,0,0:0:0:0:
256,192,108537,1,8,0:0:0:0:
256,192,108652,1,0,0:0:0:0:
256,192,108768,1,0,0:0:0:0:
256,192,108883,1,8,0:0:0:0:
256,192,109114,1,0,0:0:0:0:
256,192,109229,1,8,0:0:0:0:
256,192,109460,1,8,0:0:0:0:
256,192,109691,1,0,0:0:0:0:
256,192,109864,1,8,0:0:0:0:
256,192,110037,1,8,0:0:0:0:
256,192,110152,1,0,0:0:0:0:
256,192,110383,1,0,0:0:0:0:
256,192,110537,1,8,0:0:0:0:
256,192,110691,1,8,0:0:0:0:
256,192,110845,1,8,0:0:0:0:
256,192,111152,1,8,0:0:0:0:
256,192,111422,1,0,0:0:0:0:
256,192,111768,1,0,0:0:0:0:
256,192,111883,1,0,0:0:0:0:
256,192,112229,1,8,0:0:0:0:
256,192,112345,1,0,0:0:0:0:
256,192,112460,1,0,0:0:0:0:
256,192,112575,1,8,0:0:0:0:
256,192,112806,1,0,0:0:0:0:
256,192,112922,1,8,0:0:0:0:
256,192,113152,1,8,0:0:0:0:
256,192,113383,1,0,0:0:0:0:
256,192,113556,1,8,0:0:0:0:
256,192,114332,1,8,0:0:0:0:
256,192,114563,1,0,0:0:0:0:
256,192,115024,1,8,0:0:0:0:
256,192,115486,1,0,0:0:0:0:
256,192,115716,1,8,0:0:0:0:
256,192,115832,1,8,0:0:0:0:
256,192,116063,1,0,0:0:0:0:
256,192,116178,1,0,0:0:0:0:
256,192,116293,1,8,0:0:0:0:
256,192,116640,1,8,0:0:0:0:
256,192,116755,1,8,0:0:0:0:
256,192,116870,1,0,0:0:0:0:
256,192,117332,1,0,0:0:0:0:
256,192,117793,1,0,0:0:0:0:
256,192,117909,1,0,0:0:0:0:
256,192,118024,1,8,0:0:0:0:
256,192,118255,1,8,0:0:0:0:
256,192,118716,1,0,0:0:0:0:
256,192,118832,1,8,0:0:0:0:
256,192,118947,1,8,0:0:0:0:
256,192,119063,1,0,0:0:0:0:
256,192,119178,1,0,0:0:0:0:
256,192,119409,1,8,0:0:0:0:
256,192,119640,1,0,0:0:0:0:
256,192,119870,1,8,0:0:0:0:
256,192,119986,1,8,0:0:0:0:
256,192,120332,1,0,0:0:0:0:
256,192,120447,1,0,0:0:0:0:
256,192,120563,1,8,0:0:0:0:
256,192,121022,8,0,127448,0:0:0:0:
