osu file format v14

[General]
AudioFilename: audio.mp3
AudioLeadIn: 0
PreviewTime: 85922
Countdown: 0
SampleSet: Normal
StackLeniency: 0.2
Mode: 1
LetterboxInBreaks: 0
WidescreenStoryboard: 0

[Editor]
Bookmarks: 8910,49063,56447,69831,78538,85922,113640,127448
DistanceSpacing: 1.4
BeatDivisor: 4
GridSize: 32
TimelineZoom: 3.596831

[Metadata]
Title:Niji Bishou x1 Hadairo Senjou Senjou
TitleUnicode:虹微笑x1肌色扇情扇情
Artist:The Lovers
ArtistUnicode:The Lovers
Creator:Genjuro
Version:23-'s Inner Oni
Source:Toy Musical 2
Tags:electronic instrumental bms 2ジ 2d nyanmi-1828 _dusk_ hirok ulqui
BeatmapID:2462826
BeatmapSetID:1178487

[Difficulty]
HPDrainRate:6
CircleSize:2
OverallDifficulty:6
ApproachRate:10
SliderMultiplier:1.4
SliderTickRate:1

[Events]
//Background and Video events
0,0,"bg.jpg",0,-150
//Break Periods
//Storyboard Layer 0 (Background)
//Storyboard Layer 1 (Fail)
//Storyboard Layer 2 (Pass)
//Storyboard Layer 3 (Foreground)
//Storyboard Layer 4 (Overlay)
//Storyboard Sound Samples

[TimingPoints]
166,230.769230769231,8,1,0,5,1,8
1832,208.333333333333,4,1,0,50,1,0
1832,-110.770185096979,4,1,0,50,0,0
2040,245.901639344262,4,1,0,50,1,8
2285,294.117647058824,4,1,0,50,1,8
2579,312.5,4,1,0,50,1,8
2891,340.909090909091,4,1,0,50,1,0
2891,-90.2575211182085,4,1,0,50,0,0
3231,375,4,1,0,50,1,8
3606,461.538461538462,4,1,0,50,1,8
4529,461.538461538462,4,1,0,50,1,0
8221,461.538461538462,4,1,0,5,1,8
8855,-100,4,1,0,20,0,8
8910,461.538461538462,4,1,0,20,1,0
9660,-100,4,1,0,60,0,0
9775,-100,4,1,0,20,0,0
10929,-100,4,1,0,40,0,0
11275,-100,4,1,0,20,0,0
13006,-100,4,1,0,40,0,0
13467,-100,4,1,0,20,0,0
13929,-100,4,1,0,40,0,0
14390,-100,4,1,0,20,0,0
14852,-100,4,1,0,40,0,0
15313,-100,4,1,0,20,0,0
15775,-100,4,1,0,40,0,0
16236,-100,4,1,0,20,0,0
17852,-100,4,1,0,60,0,0
18083,-100,4,1,0,40,0,0
19006,-100,4,1,0,20,0,0
20390,-100,4,1,0,40,0,0
20852,-100,4,1,0,20,0,0
21313,-100,4,1,0,40,0,0
23736,-100,4,1,0,30,0,0
29160,-100,4,1,0,40,0,0
31006,-100,4,1,0,60,0,0
35160,-100,4,1,0,80,0,0
35621,-100,4,1,0,60,0,0
36083,-100,4,1,0,80,0,0
38506,-100,4,1,0,60,0,0
42313,-100,4,1,0,30,0,0
45313,-100,4,1,0,70,0,0
47044,-100,4,1,0,40,0,0
47160,-100,4,1,0,70,0,0
47390,-100,4,1,0,40,0,0
49005,-100,4,1,0,80,0,0
49063,461.538461538462,14,1,0,80,1,0
49063,-50,14,1,0,80,0,0
49236,-51.0791491848279,14,1,0,30,0,0
49870,-53.9923859937272,14,1,0,30,0,0
49986,-54.6153820946747,14,1,0,30,0,0
50293,-56.3492027714792,14,1,0,30,0,0
50370,-56.8000122688026,14,1,0,30,0,0
50563,-57.9591874585592,14,1,0,30,0,0
50966,-60.5543875287028,14,1,0,30,0,0
51111,-61.5384615384615,14,1,0,30,0,0
51370,-63.2911392405063,14,1,0,30,0,0
51457,-64.036065111871,14,1,0,30,0,0
51572,-64.9142839337796,14,1,0,30,0,0
51755,-66.3551513494647,14,1,0,30,0,0
51976,-68.1872886620222,14,1,0,30,0,0
52236,-70.4714682166631,14,1,0,30,0,0
52293,-70.9999850900031,14,1,0,30,0,0
52957,-77.7017681814367,14,1,0,30,0,0
53101,-79.329632870392,14,1,0,30,0,0
53563,-85.0299645595108,14,1,0,30,0,0
54082,-92.5081360905692,14,1,0,30,0,0
55466,-50,14,1,0,80,0,0
56447,230.769230769231,4,1,0,80,1,0
56447,-100,14,1,0,80,0,0
69370,230.769230769231,4,1,0,80,1,8
69831,208.333333333333,4,1,0,80,1,0
69831,-110.769326201266,4,1,0,80,0,0
69935,-112.527583323862,4,1,0,80,0,0
70039,245.901639344262,4,1,0,80,1,8
70039,-96.8735568222169,4,1,0,80,0,0
70100,-97.6611530701847,4,1,0,80,0,0
70161,-98.4616608370905,4,1,0,80,0,0
70284,294.117647058824,4,1,0,80,1,8
70284,-83.6923241732575,4,1,0,80,0,0
70431,-85.1108483689155,4,1,0,80,0,0
70504,-85.8382968066132,4,1,0,80,0,0
70578,312.5,4,1,0,80,1,8
70578,-81.4854471065739,4,1,0,80,0,0
70656,-82.1940214534614,4,1,0,80,0,0
70734,-82.9150270220072,4,1,0,80,0,0
70890,340.909090909091,4,1,0,80,1,0
70890,-77.3626917715633,4,1,0,80,0,0
70975,-78.0596583002324,4,1,0,80,0,0
71060,-78.769297045607,4,1,0,80,0,0
71230,375,4,1,0,80,1,8
71230,-72.9345447469477,4,1,0,80,0,0
71323,-73.6161814256067,4,1,0,80,0,0
71417,-74.3106792768916,4,1,0,80,0,0
71511,-75.0184057658545,4,1,0,80,0,0
71605,461.538461538462,4,1,0,80,1,8
71605,-61.5385407738844,4,1,0,80,0,0
71835,-62.745101673321,4,1,0,80,0,0
71951,-63.3663446642495,4,1,0,80,0,0
72181,-64.6464820060793,4,1,0,80,0,0
72297,-65.3061447576406,4,1,0,80,0,0
72528,461.538461538462,4,1,0,80,1,0
72528,-66.6666994871955,4,1,0,80,0,0
77143,-57.1428571428571,4,1,0,80,0,0
78066,461.538461538462,4,1,0,80,1,8
78066,-66.6666666666667,4,1,0,80,0,8
78538,461.538461538462,4,1,0,80,1,0
78538,-66.6666666666667,4,1,0,80,0,0
78653,-100,4,1,0,60,0,0
82172,-100,4,1,0,40,0,0
84018,-100,4,1,0,60,0,0
84062,465.116279069768,4,1,0,60,1,0
84062,-99.230772971006,4,1,0,60,0,0
85864,-99.230772971006,4,1,0,100,0,0
85922,230.769230769231,4,1,0,100,1,1
108075,-100,4,1,0,100,0,0
108162,-100,4,1,0,80,0,0
108537,-132.876768755888,4,1,0,80,0,0
113640,461.538461538462,4,1,0,80,1,8
113640,-66.6666666666667,4,1,0,80,0,0
113755,-100,4,1,0,30,0,0
120274,-100,4,1,0,40,0,0
120563,459.066564651875,16,1,0,40,1,8
120563,-100.538888442049,16,1,0,40,0,8
120964,-133.333333333333,16,1,0,5,0,8
122743,-133.333333333333,16,1,0,10,0,8
123432,-133.333333333333,16,1,0,15,0,8
124120,-133.333333333333,16,1,0,20,0,8
124694,-133.333333333333,16,1,0,30,0,8
125383,-133.333333333333,16,1,0,40,0,8
125727,-133.333333333333,16,1,0,50,0,8
126416,-133.333333333333,16,1,0,60,0,8
127334,-133.333333333333,16,1,0,70,0,8

[HitObjects]
389,204,8910,5,0,0:0:0:0:
389,204,9371,1,8,0:0:0:0:
412,223,9717,1,8,0:0:0:0:
428,226,10063,1,0,0:0:0:0:
428,226,10294,1,8,0:0:0:0:
435,225,10986,5,8,0:0:0:0:
437,227,11217,1,8,0:0:0:0:
437,227,11333,1,0,0:0:0:0:
408,211,11679,1,8,0:0:0:0:
437,227,12140,1,0,0:0:0:0:
408,211,12602,1,8,0:0:0:0:
422,224,12948,1,8,0:0:0:0:
417,207,13063,1,8,0:0:0:0:
409,219,13525,1,8,0:0:0:0:
422,224,13871,1,8,0:0:0:0:
407,215,13986,1,8,0:0:0:0:
409,219,14448,1,8,0:0:0:0:
422,224,14794,1,8,0:0:0:0:
409,222,14910,1,8,0:0:0:0:
409,219,15371,1,8,0:0:0:0:
424,231,15717,1,8,0:0:0:0:
409,222,15833,1,8,0:0:0:0:
401,211,16294,1,0,0:0:0:0:
401,211,16525,1,0,0:0:0:0:
401,211,16640,1,0,0:0:0:0:
401,211,16756,1,8,0:0:0:0:
416,232,16986,1,8,0:0:0:0:
416,232,17217,1,0,0:0:0:0:
408,229,17563,1,8,0:0:0:0:
408,229,17679,1,8,0:0:0:0:
408,229,17910,1,8,0:0:0:0:
408,230,18140,1,0,0:0:0:0:
429,223,18256,1,8,0:0:0:0:
406,221,18371,1,8,0:0:0:0:
406,221,18486,1,8,0:0:0:0:
406,221,18602,1,0,0:0:0:0:
406,221,18717,1,8,0:0:0:0:
408,230,19063,1,0,0:0:0:0:
431,241,19294,1,8,0:0:0:0:
413,231,19410,1,8,0:0:0:0:
412,231,19525,1,8,0:0:0:0:
421,241,19756,1,0,0:0:0:0:
421,241,19986,1,8,0:0:0:0:
426,246,20333,1,8,0:0:0:0:
426,246,20448,1,8,0:0:0:0:
426,249,20910,1,8,0:0:0:0:
426,246,21256,1,8,0:0:0:0:
426,246,21371,1,8,0:0:0:0:
415,233,21833,1,0,0:0:0:0:
437,227,22063,1,8,0:0:0:0:
435,223,22140,1,0,0:0:0:0:
435,223,22217,1,0,0:0:0:0:
435,221,22294,1,8,0:0:0:0:
428,229,22525,1,8,0:0:0:0:
428,229,22602,1,8,0:0:0:0:
452,246,22679,1,0,0:0:0:0:
428,229,22756,1,0,0:0:0:0:
431,222,22986,1,8,0:0:0:0:
431,222,23063,1,0,0:0:0:0:
435,223,23140,1,0,0:0:0:0:
435,223,23217,1,8,0:0:0:0:
431,222,23448,1,8,0:0:0:0:
431,222,23525,1,8,0:0:0:0:
452,246,23602,1,0,0:0:0:0:
431,222,23679,1,0,0:0:0:0:
437,233,24140,1,8,0:0:0:0:
437,228,24602,1,0,0:0:0:0:
437,233,24833,1,0,0:0:0:0:
437,233,25063,1,8,0:0:0:0:
440,236,25525,1,0,0:0:0:0:
414,220,26217,1,8,0:0:0:0:
417,238,26448,1,8,0:0:0:0:
417,238,26679,1,0,0:0:0:0:
441,229,27371,1,0,0:0:0:0:
441,230,27833,1,8,0:0:0:0:
441,229,28294,1,0,0:0:0:0:
441,230,28525,1,0,0:0:0:0:
441,230,28756,1,8,0:0:0:0:
442,240,29217,1,8,0:0:0:0:
431,234,29448,1,0,0:0:0:0:
431,234,29679,1,8,0:0:0:0:
431,234,29910,1,8,0:0:0:0:
449,223,30140,1,8,0:0:0:0:
448,223,30371,1,0,0:0:0:0:
431,234,31063,1,8,0:0:0:0:
447,242,31525,1,8,0:0:0:0:
447,242,31986,1,8,0:0:0:0:
447,242,32448,1,8,0:0:0:0:
447,242,32910,1,8,0:0:0:0:
447,242,33256,1,8,0:0:0:0:
447,242,33371,1,8,0:0:0:0:
447,242,33833,1,8,0:0:0:0:
447,242,34179,1,8,0:0:0:0:
447,242,34294,1,8,0:0:0:0:
437,244,34525,1,0,0:0:0:0:
442,247,34756,1,8,0:0:0:0:
460,253,35102,1,8,0:0:0:0:
425,235,35217,1,8,0:0:0:0:
432,254,35679,1,8,0:0:0:0:
460,253,36025,1,8,0:0:0:0:
432,254,36140,1,8,0:0:0:0:
432,254,36602,1,0,0:0:0:0:
444,259,36833,1,8,0:0:0:0:
473,250,36910,1,0,0:0:0:0:
473,250,36986,1,0,0:0:0:0:
471,250,37063,1,8,0:0:0:0:
471,250,37294,1,8,0:0:0:0:
471,250,37371,1,8,0:0:0:0:
462,254,37448,1,0,0:0:0:0:
471,250,37525,1,0,0:0:0:0:
464,251,37756,1,8,0:0:0:0:
464,251,37833,1,0,0:0:0:0:
464,251,37910,1,0,0:0:0:0:
464,251,37986,1,8,0:0:0:0:
464,251,38217,1,8,0:0:0:0:
464,251,38294,1,8,0:0:0:0:
464,251,38371,1,0,0:0:0:0:
464,251,38448,1,0,0:0:0:0:
462,209,39140,1,8,0:0:0:0:
453,239,39371,1,0,0:0:0:0:
451,229,39833,1,8,0:0:0:0:
456,235,40294,1,0,0:0:0:0:
423,250,40525,1,8,0:0:0:0:
423,250,40640,1,8,0:0:0:0:
423,250,40871,1,8,0:0:0:0:
423,250,40986,1,0,0:0:0:0:
425,258,41102,1,8,0:0:0:0:
430,238,41448,1,8,0:0:0:0:
430,238,41563,1,8,0:0:0:0:
431,240,41679,1,0,0:0:0:0:
444,255,42140,1,0,0:0:0:0:
430,238,42602,1,0,0:0:0:0:
424,243,42717,1,8,0:0:0:0:
430,244,42833,1,8,0:0:0:0:
430,244,43063,1,8,0:0:0:0:
439,247,43525,1,8,0:0:0:0:
439,247,43640,1,8,0:0:0:0:
440,248,43756,1,0,0:0:0:0:
440,248,43871,1,8,0:0:0:0:
441,249,43986,1,0,0:0:0:0:
448,231,44217,1,8,0:0:0:0:
434,235,44448,1,8,0:0:0:0:
431,259,44679,1,8,0:0:0:0:
435,234,44794,1,0,0:0:0:0:
430,242,44910,1,8,0:0:0:0:
436,243,45140,1,8,0:0:0:0:
457,243,45217,1,0,0:0:0:0:
436,243,45294,1,0,0:0:0:0:
456,241,45371,1,8,0:0:0:0:
440,238,45602,1,8,0:0:0:0:
440,238,45679,1,8,0:0:0:0:
441,238,45756,1,0,0:0:0:0:
441,238,45833,1,0,0:0:0:0:
452,240,46294,1,8,0:0:0:0:
441,238,46756,1,0,0:0:0:0:
438,241,47102,1,0,0:0:0:0:
452,240,47217,1,8,0:0:0:0:
450,234,47448,1,8,0:0:0:0:
450,234,47679,1,0,0:0:0:0:
449,234,48025,1,8,0:0:0:0:
476,228,48083,1,8,0:0:0:0:
449,235,48140,1,8,0:0:0:0:
476,229,48371,1,8,0:0:0:0:
450,234,48602,1,0,0:0:0:0:
450,234,48717,1,0,0:0:0:0:
449,234,48948,1,0,0:0:0:0:
464,223,49063,1,12,0:0:0:0:
432,230,49293,1,8,0:0:0:0:
436,243,49870,1,8,0:0:0:0:
436,243,49986,1,8,0:0:0:0:
443,252,50293,1,0,0:0:0:0:
444,254,50370,1,8,0:0:0:0:
449,240,50563,1,0,0:0:0:0:
436,243,50966,1,8,0:0:0:0:
436,231,51111,1,0,0:0:0:0:
438,224,51370,1,0,0:0:0:0:
451,247,51457,1,0,0:0:0:0:
440,236,51572,1,8,0:0:0:0:
453,228,51755,1,8,0:0:0:0:
468,210,51976,1,0,0:0:0:0:
451,232,52236,1,0,0:0:0:0:
451,232,52293,1,8,0:0:0:0:
256,192,52957,5,0,0:0:0:0:
256,192,53101,1,0,0:0:0:0:
256,192,53563,1,8,0:0:0:0:
431,227,53620,1,8,0:0:0:0:
256,192,54082,1,8,0:0:0:0:
256,192,55524,1,12,0:0:0:0:
435,203,55986,1,8,0:0:0:0:
438,214,56043,1,8,0:0:0:0:
438,214,56101,1,8,0:0:0:0:
438,214,56159,1,8,0:0:0:0:
438,214,56216,1,8,0:0:0:0:
438,214,56274,1,8,0:0:0:0:
438,214,56332,1,8,0:0:0:0:
438,214,56447,1,4,0:0:0:0:
443,214,56677,1,8,0:0:0:0:
443,214,56793,1,0,0:0:0:0:
443,214,56908,1,0,0:0:0:0:
443,214,57023,1,8,0:0:0:0:
438,214,57139,1,0,0:0:0:0:
446,222,57370,1,0,0:0:0:0:
446,222,57485,1,0,0:0:0:0:
446,222,57600,1,8,0:0:0:0:
446,222,57716,1,8,0:0:0:0:
446,222,57831,1,0,0:0:0:0:
443,232,57947,1,8,0:0:0:0:
447,222,58062,1,8,0:0:0:0:
446,222,58293,1,0,0:0:0:0:
446,222,58523,1,8,0:0:0:0:
446,222,58639,1,0,0:0:0:0:
446,222,58754,1,0,0:0:0:0:
446,222,58870,1,8,0:0:0:0:
447,222,58985,1,0,0:0:0:0:
435,235,59216,1,0,0:0:0:0:
452,219,59331,1,8,0:0:0:0:
452,220,59447,1,8,0:0:0:0:
452,220,59562,1,0,0:0:0:0:
452,220,59677,1,8,0:0:0:0:
428,236,59908,1,8,0:0:0:0:
428,236,59966,1,8,0:0:0:0:
429,236,60023,1,8,0:0:0:0:
435,235,60139,1,0,0:0:0:0:
439,244,60370,1,8,0:0:0:0:
439,244,60485,1,0,0:0:0:0:
439,244,60600,1,0,0:0:0:0:
440,239,60716,1,8,0:0:0:0:
440,239,60773,1,8,0:0:0:0:
440,239,60831,1,0,0:0:0:0:
440,239,61062,1,0,0:0:0:0:
459,228,61177,1,8,0:0:0:0:
459,228,61293,1,8,0:0:0:0:
460,229,61408,1,0,0:0:0:0:
460,229,61523,1,12,0:0:0:0:
457,247,61754,1,8,0:0:0:0:
457,247,61870,1,8,0:0:0:0:
457,255,61985,1,0,0:0:0:0:
456,255,62043,1,0,0:0:0:0:
456,255,62100,1,0,0:0:0:0:
456,255,62158,1,0,0:0:0:0:
456,255,62216,1,8,0:0:0:0:
464,260,62331,1,0,0:0:0:0:
467,262,62447,1,8,0:0:0:0:
467,262,62504,1,8,0:0:0:0:
467,262,62562,1,0,0:0:0:0:
467,262,62677,1,8,0:0:0:0:
467,262,62735,1,8,0:0:0:0:
467,262,62793,1,0,0:0:0:0:
467,262,62908,1,0,0:0:0:0:
474,258,63139,1,0,0:0:0:0:
474,258,63197,1,0,0:0:0:0:
474,258,63254,1,8,0:0:0:0:
470,251,63370,1,0,0:0:0:0:
470,252,63485,1,8,0:0:0:0:
470,252,63600,1,0,0:0:0:0:
470,252,63658,1,8,0:0:0:0:
470,252,63716,1,0,0:0:0:0:
456,271,63831,1,8,0:0:0:0:
447,264,63889,1,8,0:0:0:0:
447,264,63947,1,8,0:0:0:0:
447,264,64004,1,8,0:0:0:0:
447,264,64120,1,0,0:0:0:0:
447,264,64177,1,8,0:0:0:0:
468,247,64293,1,0,0:0:0:0:
459,243,64408,1,8,0:0:0:0:
463,279,64523,1,0,0:0:0:0:
457,261,64581,1,8,0:0:0:0:
457,261,64639,1,0,0:0:0:0:
451,255,64754,1,12,0:0:0:0:
452,241,64870,1,0,0:0:0:0:
452,244,64927,1,0,0:0:0:0:
452,244,64985,1,0,0:0:0:0:
452,245,65100,1,8,0:0:0:0:
453,258,65216,1,8,0:0:0:0:
453,258,65273,1,8,0:0:0:0:
468,247,65331,1,8,0:0:0:0:
453,258,65389,1,8,0:0:0:0:
459,243,65447,1,8,0:0:0:0:
467,247,65562,1,8,0:0:0:0:
444,235,65677,1,0,0:0:0:0:
447,241,65735,1,0,0:0:0:0:
447,241,65793,1,0,0:0:0:0:
452,241,65850,1,0,0:0:0:0:
452,241,65908,1,8,0:0:0:0:
467,238,66023,1,0,0:0:0:0:
467,238,66139,1,8,0:0:0:0:
467,238,66197,1,8,0:0:0:0:
467,238,66254,1,0,0:0:0:0:
467,238,66370,1,8,0:0:0:0:
467,238,66427,1,8,0:0:0:0:
467,238,66485,1,0,0:0:0:0:
467,247,66600,1,0,0:0:0:0:
456,244,66831,1,0,0:0:0:0:
452,241,66889,1,0,0:0:0:0:
452,241,66947,1,8,0:0:0:0:
457,244,67062,1,0,0:0:0:0:
456,238,67177,1,8,0:0:0:0:
456,238,67235,1,8,0:0:0:0:
456,238,67293,1,0,0:0:0:0:
430,246,67408,1,0,0:0:0:0:
430,246,67523,1,8,0:0:0:0:
430,246,67581,1,8,0:0:0:0:
430,246,67639,1,8,0:0:0:0:
430,246,67697,1,8,0:0:0:0:
430,246,67812,1,0,0:0:0:0:
430,246,67870,1,8,0:0:0:0:
468,247,67985,1,0,0:0:0:0:
459,243,68100,1,8,0:0:0:0:
463,279,68216,1,0,0:0:0:0:
457,261,68273,1,0,0:0:0:0:
457,261,68331,1,0,0:0:0:0:
451,255,68447,1,12,0:0:0:0:
452,241,68562,1,0,0:0:0:0:
452,244,68620,1,8,0:0:0:0:
452,244,68677,1,0,0:0:0:0:
452,245,68793,1,8,0:0:0:0:
453,258,68908,1,8,0:0:0:0:
468,247,69023,1,0,0:0:0:0:
459,243,69139,1,8,0:0:0:0:
467,247,69254,1,0,0:0:0:0:
452,241,69312,1,8,0:0:0:0:
444,235,69370,1,0,0:0:0:0:
256,192,69528,1,0,0:0:0:0:
256,192,69677,1,0,0:0:0:0:
256,192,69831,1,8,0:0:0:0:
256,192,69935,1,0,0:0:0:0:
256,192,70039,1,8,0:0:0:0:
256,192,70100,1,0,0:0:0:0:
256,192,70161,1,0,0:0:0:0:
256,192,70284,1,8,0:0:0:0:
256,192,70431,1,0,0:0:0:0:
256,192,70504,1,0,0:0:0:0:
256,192,70578,1,8,0:0:0:0:
256,192,70656,1,8,0:0:0:0:
256,192,70734,1,8,0:0:0:0:
256,192,70890,1,0,0:0:0:0:
351,220,70975,1,0,0:0:0:0:
256,192,71060,1,0,0:0:0:0:
385,211,71230,1,8,0:0:0:0:
385,211,71323,1,8,0:0:0:0:
385,211,71417,1,0,0:0:0:0:
385,211,71511,1,8,0:0:0:0:
385,211,71605,1,0,0:0:0:0:
406,238,71835,1,8,0:0:0:0:
406,238,71951,1,0,0:0:0:0:
406,238,72181,1,0,0:0:0:0:
406,238,72297,1,8,0:0:0:0:
418,247,72528,1,0,0:0:0:0:
352,256,72643,1,0,0:0:0:0:
418,249,72758,1,0,0:0:0:0:
414,239,72989,1,8,0:0:0:0:
414,239,73220,1,0,0:0:0:0:
414,239,73335,1,8,0:0:0:0:
414,239,73451,1,0,0:0:0:0:
414,239,73681,1,0,0:0:0:0:
424,238,73912,1,8,0:0:0:0:
439,245,73970,1,8,0:0:0:0:
424,240,74028,1,0,0:0:0:0:
431,253,74143,1,0,0:0:0:0:
424,240,74258,1,8,0:0:0:0:
448,258,74316,1,8,0:0:0:0:
424,240,74374,1,0,0:0:0:0:
423,231,74604,1,8,0:0:0:0:
423,231,74835,1,8,0:0:0:0:
423,231,75066,1,0,0:0:0:0:
423,231,75181,1,8,0:0:0:0:
423,231,75297,1,0,0:0:0:0:
425,245,75528,1,8,0:0:0:0:
425,245,75643,1,0,0:0:0:0:
425,245,75758,1,8,0:0:0:0:
425,252,75874,1,8,0:0:0:0:
425,252,75989,1,0,0:0:0:0:
425,252,76104,1,8,0:0:0:0:
425,252,76220,1,0,0:0:0:0:
436,237,76278,1,0,0:0:0:0:
436,237,76335,1,0,0:0:0:0:
425,245,76451,1,8,0:0:0:0:
425,245,76508,1,8,0:0:0:0:
425,245,76566,1,0,0:0:0:0:
425,245,76681,1,8,0:0:0:0:
425,245,76797,1,0,0:0:0:0:
425,252,76854,1,8,0:0:0:0:
425,252,76912,1,0,0:0:0:0:
425,252,77028,1,8,0:0:0:0:
256,192,77143,12,0,78066,0:0:0:0:
397,215,78538,5,4,0:0:0:0:
386,207,80384,1,4,0:0:0:0:
256,192,80614,1,8,0:0:0:0:
256,192,80730,1,0,0:0:0:0:
256,192,80845,1,0,0:0:0:0:
256,192,81191,1,8,0:0:0:0:
256,192,81307,1,0,0:0:0:0:
256,192,81422,1,0,0:0:0:0:
256,192,81538,1,8,0:0:0:0:
256,192,81653,1,0,0:0:0:0:
256,192,81768,1,0,0:0:0:0:
256,192,81884,1,0,0:0:0:0:
256,192,81999,1,8,0:0:0:0:
256,192,82114,1,0,0:0:0:0:
256,192,82230,1,0,0:0:0:0:
441,241,82691,1,0,0:0:0:0:
441,241,82807,1,0,0:0:0:0:
441,241,82922,1,8,0:0:0:0:
441,241,83153,1,8,0:0:0:0:
441,260,83614,1,8,0:0:0:0:
441,263,83730,1,0,0:0:0:0:
442,266,83845,1,0,0:0:0:0:
442,266,83961,1,0,0:0:0:0:
442,266,84062,1,8,0:0:0:0:
458,240,84527,1,8,0:0:0:0:
458,240,84992,1,8,0:0:0:0:
458,240,85457,1,8,0:0:0:0:
256,192,85922,5,4,0:0:0:0:
256,192,86152,1,8,0:0:0:0:
256,192,86383,1,0,0:0:0:0:
256,192,86498,1,8,0:0:0:0:
256,192,86614,1,8,0:0:0:0:
256,192,86845,1,0,0:0:0:0:
256,192,86960,1,0,0:0:0:0:
256,192,87075,1,8,0:0:0:0:
256,192,87191,1,0,0:0:0:0:
256,192,87306,1,0,0:0:0:0:
256,192,87422,1,0,0:0:0:0:
256,192,87537,1,8,0:0:0:0:
256,192,87768,1,0,0:0:0:0:
256,192,87998,1,8,0:0:0:0:
256,192,88114,1,0,0:0:0:0:
256,192,88345,1,8,0:0:0:0:
256,192,88460,1,0,0:0:0:0:
256,192,88575,1,8,0:0:0:0:
256,192,88691,1,0,0:0:0:0:
256,192,88806,1,0,0:0:0:0:
256,192,88922,1,8,0:0:0:0:
256,192,89037,1,0,0:0:0:0:
256,192,89152,1,0,0:0:0:0:
256,192,89383,1,8,0:0:0:0:
256,192,89498,1,8,0:0:0:0:
256,192,89614,1,0,0:0:0:0:
405,219,89845,1,8,0:0:0:0:
405,219,90075,1,0,0:0:0:0:
405,219,90191,1,8,0:0:0:0:
418,232,90422,1,8,0:0:0:0:
418,232,90537,1,0,0:0:0:0:
419,228,90652,1,0,0:0:0:0:
419,228,90768,1,8,0:0:0:0:
414,232,90998,1,0,0:0:0:0:
414,232,91114,1,8,0:0:0:0:
414,232,91229,1,8,0:0:0:0:
418,232,91460,1,0,0:0:0:0:
440,235,91691,1,8,0:0:0:0:
440,235,91806,1,0,0:0:0:0:
440,235,91922,1,0,0:0:0:0:
440,235,92037,1,8,0:0:0:0:
436,247,92268,1,8,0:0:0:0:
436,247,92383,1,0,0:0:0:0:
436,247,92498,1,0,0:0:0:0:
436,247,92614,1,8,0:0:0:0:
440,252,92729,1,8,0:0:0:0:
440,252,92845,1,0,0:0:0:0:
451,264,92960,1,8,0:0:0:0:
451,264,93075,1,8,0:0:0:0:
256,192,93306,1,0,0:0:0:0:
256,192,93460,1,0,0:0:0:0:
256,192,93537,1,8,0:0:0:0:
413,264,93691,1,8,0:0:0:0:
256,192,93768,1,0,0:0:0:0:
256,192,93845,1,0,0:0:0:0:
256,192,93922,1,0,0:0:0:0:
256,192,93998,1,8,0:0:0:0:
413,264,94152,1,8,0:0:0:0:
256,192,94229,1,0,0:0:0:0:
256,192,94306,1,0,0:0:0:0:
256,192,94383,1,8,0:0:0:0:
256,192,94460,1,8,0:0:0:0:
413,264,94614,1,8,0:0:0:0:
256,192,94691,1,0,0:0:0:0:
256,192,94768,1,8,0:0:0:0:
256,192,94845,1,8,0:0:0:0:
256,192,94922,1,0,0:0:0:0:
256,192,94998,1,8,0:0:0:0:
256,192,95075,1,8,0:0:0:0:
256,192,95152,1,0,0:0:0:0:
256,192,95325,1,8,0:0:0:0:
256,192,95498,1,8,0:0:0:0:
256,192,95614,1,0,0:0:0:0:
256,192,95729,1,8,0:0:0:0:
256,192,95787,1,8,0:0:0:0:
256,192,95845,1,0,0:0:0:0:
256,192,95960,1,8,0:0:0:0:
256,192,96075,1,8,0:0:0:0:
256,192,96133,1,8,0:0:0:0:
256,192,96191,1,8,0:0:0:0:
256,192,96306,1,0,0:0:0:0:
256,192,96364,1,0,0:0:0:0:
256,192,96422,1,0,0:0:0:0:
256,192,96537,1,0,0:0:0:0:
256,192,96998,1,0,0:0:0:0:
256,192,97152,1,0,0:0:0:0:
256,192,97229,1,8,0:0:0:0:
256,192,97383,1,8,0:0:0:0:
256,192,97460,1,0,0:0:0:0:
256,192,97537,1,0,0:0:0:0:
256,192,97614,1,0,0:0:0:0:
256,192,97691,1,8,0:0:0:0:
256,192,97845,1,8,0:0:0:0:
256,192,97922,1,0,0:0:0:0:
256,192,98037,1,8,0:0:0:0:
256,192,98152,1,0,0:0:0:0:
256,192,98268,1,8,0:0:0:0:
256,192,98383,1,8,0:0:0:0:
256,192,98498,1,0,0:0:0:0:
256,192,98614,1,8,0:0:0:0:
256,192,98672,1,8,0:0:0:0:
256,192,98729,1,0,0:0:0:0:
256,192,98845,1,8,0:0:0:0:
256,192,98998,1,8,0:0:0:0:
256,192,99191,1,8,0:0:0:0:
256,192,99248,1,0,0:0:0:0:
256,192,99306,1,8,0:0:0:0:
256,192,99364,1,8,0:0:0:0:
256,192,99450,1,8,0:0:0:0:
256,192,99614,1,8,0:0:0:0:
256,192,99768,1,8,0:0:0:0:
256,192,99825,1,8,0:0:0:0:
256,192,99883,1,8,0:0:0:0:
256,192,99998,1,0,0:0:0:0:
256,192,100056,1,0,0:0:0:0:
256,192,100114,1,0,0:0:0:0:
256,192,100229,1,0,0:0:0:0:
256,192,100691,1,0,0:0:0:0:
256,192,100845,1,0,0:0:0:0:
256,192,100922,1,8,0:0:0:0:
256,192,101075,1,8,0:0:0:0:
256,192,101152,1,0,0:0:0:0:
256,192,101229,1,0,0:0:0:0:
256,192,101306,1,0,0:0:0:0:
256,192,101383,1,8,0:0:0:0:
256,192,101537,1,8,0:0:0:0:
256,192,101614,1,0,0:0:0:0:
256,192,101691,1,0,0:0:0:0:
256,192,101768,1,8,0:0:0:0:
256,192,101845,1,8,0:0:0:0:
256,192,101998,1,8,0:0:0:0:
256,192,102075,1,0,0:0:0:0:
256,192,102152,1,8,0:0:0:0:
256,192,102229,1,8,0:0:0:0:
256,192,102306,1,0,0:0:0:0:
256,192,102383,1,8,0:0:0:0:
256,192,102460,1,8,0:0:0:0:
256,192,102537,1,0,0:0:0:0:
256,192,102710,1,8,0:0:0:0:
256,192,102883,1,8,0:0:0:0:
256,192,102998,1,0,0:0:0:0:
256,192,103114,1,8,0:0:0:0:
256,192,103172,1,8,0:0:0:0:
256,192,103229,1,0,0:0:0:0:
256,192,103345,1,8,0:0:0:0:
256,192,103460,1,8,0:0:0:0:
256,192,103518,1,8,0:0:0:0:
256,192,103575,1,8,0:0:0:0:
256,192,103691,1,0,0:0:0:0:
256,192,103748,1,0,0:0:0:0:
256,192,103806,1,0,0:0:0:0:
256,192,103922,1,0,0:0:0:0:
256,192,104383,1,0,0:0:0:0:
256,192,104537,1,0,0:0:0:0:
256,192,104614,1,8,0:0:0:0:
256,192,104768,1,8,0:0:0:0:
256,192,104845,1,0,0:0:0:0:
256,192,104922,1,0,0:0:0:0:
256,192,104998,1,0,0:0:0:0:
256,192,105075,1,8,0:0:0:0:
256,192,105229,1,8,0:0:0:0:
373,197,105306,1,0,0:0:0:0:
410,220,105383,1,0,0:0:0:0:
410,220,105460,1,8,0:0:0:0:
410,220,105537,1,8,0:0:0:0:
256,192,105768,1,0,0:0:0:0:
256,192,105883,1,8,0:0:0:0:
256,192,105998,1,8,0:0:0:0:
256,192,106056,1,8,0:0:0:0:
256,192,106114,1,8,0:0:0:0:
256,192,106229,1,8,0:0:0:0:
256,192,106402,1,8,0:0:0:0:
256,192,106575,1,8,0:0:0:0:
401,209,106633,1,0,0:0:0:0:
256,192,106691,1,0,0:0:0:0:
256,192,106748,1,8,0:0:0:0:
424,207,106835,1,8,0:0:0:0:
256,192,106998,1,8,0:0:0:0:
379,221,107152,1,8,0:0:0:0:
379,221,107210,1,8,0:0:0:0:
256,192,107268,1,8,0:0:0:0:
396,247,107383,1,0,0:0:0:0:
396,247,107441,1,0,0:0:0:0:
256,192,107498,1,0,0:0:0:0:
396,247,107614,1,0,0:0:0:0:
256,192,107845,1,8,0:0:0:0:
256,192,107960,1,0,0:0:0:0:
397,247,108018,1,8,0:0:0:0:
256,192,108075,1,0,0:0:0:0:
256,192,108191,1,0,0:0:0:0:
256,192,108537,1,8,0:0:0:0:
256,192,108652,1,0,0:0:0:0:
256,192,108768,1,0,0:0:0:0:
256,192,108883,1,8,0:0:0:0:
391,217,108998,1,12,0:0:0:0:
399,234,109114,1,0,0:0:0:0:
256,192,109229,1,8,0:0:0:0:
256,192,109460,1,8,0:0:0:0:
256,192,109691,1,0,0:0:0:0:
396,223,109748,1,0,0:0:0:0:
396,223,109864,1,0,0:0:0:0:
256,192,109922,1,0,0:0:0:0:
256,192,110037,1,8,0:0:0:0:
256,192,110152,1,0,0:0:0:0:
256,192,110383,1,0,0:0:0:0:
256,192,110537,1,8,0:0:0:0:
256,192,110691,1,8,0:0:0:0:
256,192,110845,1,8,0:0:0:0:
256,192,111152,1,8,0:0:0:0:
256,192,111422,1,0,0:0:0:0:
386,228,111537,1,0,0:0:0:0:
256,192,111768,1,0,0:0:0:0:
386,228,111883,1,8,0:0:0:0:
256,192,112229,1,8,0:0:0:0:
256,192,112345,1,0,0:0:0:0:
256,192,112460,1,0,0:0:0:0:
256,192,112575,1,8,0:0:0:0:
256,192,112806,1,0,0:0:0:0:
256,192,112922,1,8,0:0:0:0:
397,234,113152,1,12,0:0:0:0:
256,192,113383,1,0,0:0:0:0:
372,223,113441,1,0,0:0:0:0:
372,223,113556,1,0,0:0:0:0:
400,220,113614,1,8,0:0:0:0:
389,217,114332,1,0,0:0:0:0:
389,217,114563,1,0,0:0:0:0:
389,217,115024,1,8,0:0:0:0:
413,237,115486,1,8,0:0:0:0:
419,230,115716,1,8,0:0:0:0:
419,230,115832,1,0,0:0:0:0:
419,240,116063,1,8,0:0:0:0:
419,240,116178,1,0,0:0:0:0:
419,240,116293,1,8,0:0:0:0:
419,240,116640,1,8,0:0:0:0:
419,240,116755,1,8,0:0:0:0:
419,240,116870,1,0,0:0:0:0:
419,240,117332,1,0,0:0:0:0:
419,240,117793,1,0,0:0:0:0:
419,240,117909,1,0,0:0:0:0:
419,240,118024,1,8,0:0:0:0:
436,240,118255,1,8,0:0:0:0:
419,240,118716,1,8,0:0:0:0:
419,240,118832,1,0,0:0:0:0:
419,240,118947,1,8,0:0:0:0:
428,241,119063,1,0,0:0:0:0:
423,238,119178,1,0,0:0:0:0:
441,227,119409,1,8,0:0:0:0:
441,227,119640,1,8,0:0:0:0:
432,240,119870,1,0,0:0:0:0:
432,240,119986,1,8,0:0:0:0:
414,224,120332,1,0,0:0:0:0:
451,216,120390,1,0,0:0:0:0:
451,216,120447,1,0,0:0:0:0:
451,216,120505,1,0,0:0:0:0:
451,216,120563,1,8,0:0:0:0:
256,192,124694,12,8,127448,0:0:0:0:
