osu file format v14

[General]
AudioFilename: audio.mp3
AudioLeadIn: 0
PreviewTime: 135757
Countdown: 0
SampleSet: Soft
StackLeniency: 0.7
Mode: 3
LetterboxInBreaks: 0
SpecialStyle: 0
WidescreenStoryboard: 0

[Editor]
DistanceSpacing: 1.1
BeatDivisor: 4
GridSize: 32
TimelineZoom: 2.3

[Metadata]
Title:The Shire
TitleUnicode:The Shire
Artist:The Lord of the Rings
ArtistUnicode:The Lord of the Rings
Creator:X_Devil
Version:Normal
Source:The Lord of the Rings
Tags:The Lord of the Rings The Shire
BeatmapID:1945406
BeatmapSetID:931711

[Difficulty]
HPDrainRate:7
CircleSize:9
OverallDifficulty:5
ApproachRate:5
SliderMultiplier:1.4
SliderTickRate:1

[Events]
//Background and Video events
0,0,"LOTR-Fellowship-of-the-Ring-059-1478875698.jpg",0,0
//Break Periods
//Storyboard Layer 0 (Background)
//Storyboard Layer 1 (Fail)
//Storyboard Layer 2 (Pass)
//Storyboard Layer 3 (Foreground)
//Storyboard Sound Samples

[TimingPoints]
420,576.923076923077,4,2,0,5,1,0
78150,576.073076923077,4,2,0,5,1,0

[HitObjects]
28,192,420,5,0,0:0:0:0:
85,192,996,1,0,0:0:0:0:
142,192,1573,1,0,0:0:0:0:
85,192,2150,1,0,0:0:0:0:
28,192,2727,1,0,0:0:0:0:
85,192,3304,1,0,0:0:0:0:
142,192,3881,1,0,0:0:0:0:
85,192,5035,128,0,5179:0:0:0:0:
142,192,5179,128,0,5371:0:0:0:0:
199,192,5371,128,0,5900:0:0:0:0:
256,192,5900,128,0,6525:0:0:0:0:
199,192,6525,128,0,7054:0:0:0:0:
142,192,7054,128,0,7198:0:0:0:0:
85,192,7198,128,0,7343:0:0:0:0:
28,192,7343,128,0,8881:0:0:0:0:
142,192,8881,128,0,9410:0:0:0:0:
199,192,9410,128,0,10083:0:0:0:0:
256,192,10083,128,0,10804:0:0:0:0:
483,192,10804,128,0,11093:0:0:0:0:
426,192,11093,128,0,11766:0:0:0:0:
312,192,11766,128,0,12102:0:0:0:0:
256,192,12102,128,0,12871:0:0:0:0:
312,192,12871,128,0,13064:0:0:0:0:
256,192,13064,128,0,13256:0:0:0:0:
199,192,13256,128,0,14218:0:0:0:0:
85,192,14218,128,0,14362:0:0:0:0:
142,192,14362,128,0,14554:0:0:0:0:
199,192,14554,128,0,15131:0:0:0:0:
256,192,15131,128,0,15564:0:0:0:0:
369,192,15564,128,0,15660:0:0:0:0:
312,192,15660,128,0,15852:0:0:0:0:
256,192,15852,128,0,16189:0:0:0:0:
199,192,16189,128,0,16573:0:0:0:0:
256,192,16573,128,0,16718:0:0:0:0:
199,192,16718,128,0,18016:0:0:0:0:
256,192,18160,128,0,18737:0:0:0:0:
312,192,18737,128,0,19458:0:0:0:0:
369,192,19458,128,0,20179:0:0:0:0:
312,192,20179,128,0,20804:0:0:0:0:
256,192,20804,128,0,21333:0:0:0:0:
312,192,21333,1,0,0:0:0:0:
256,192,21429,128,0,22391:0:0:0:0:
199,192,22391,128,0,23352:0:0:0:0:
142,192,23593,1,0,0:0:0:0:
85,192,23689,1,0,0:0:0:0:
142,192,23785,128,0,27463:0:0:0:0:
312,192,24001,1,0,0:0:0:0:
369,192,24578,1,0,0:0:0:0:
312,192,25155,1,0,0:0:0:0:
256,192,25732,1,0,0:0:0:0:
312,192,26309,1,0,0:0:0:0:
369,192,26886,1,0,0:0:0:0:
312,192,27463,1,0,0:0:0:0:
199,192,28112,128,0,28256:0:0:0:0:
256,192,28256,128,0,28400:0:0:0:0:
312,192,28400,128,0,28545:0:0:0:0:
199,192,28689,1,0,0:0:0:0:
85,192,28977,1,0,0:0:0:0:
199,192,29266,1,0,0:0:0:0:
312,192,29554,128,0,29698:0:0:0:0:
85,192,29554,1,0,0:0:0:0:
199,192,29843,1,0,0:0:0:0:
312,192,30131,128,0,30275:0:0:0:0:
85,192,30131,1,0,0:0:0:0:
483,192,30420,1,0,0:0:0:0:
426,192,30492,1,0,0:0:0:0:
483,192,30564,1,0,0:0:0:0:
369,192,30708,128,0,30996:0:0:0:0:
142,192,30996,1,0,0:0:0:0:
312,192,30996,128,0,31285:0:0:0:0:
28,192,31285,1,0,0:0:0:0:
369,192,31285,128,0,31573:0:0:0:0:
142,192,31573,1,0,0:0:0:0:
28,192,31862,1,0,0:0:0:0:
199,192,32150,1,0,0:0:0:0:
142,192,32439,1,0,0:0:0:0:
199,192,32727,128,0,32871:0:0:0:0:
256,192,32871,128,0,33016:0:0:0:0:
312,192,33016,128,0,33160:0:0:0:0:
199,192,33304,1,0,0:0:0:0:
312,192,33593,128,0,34170:0:0:0:0:
85,192,33593,1,0,0:0:0:0:
199,192,33881,1,0,0:0:0:0:
369,192,34170,128,0,34314:0:0:0:0:
85,192,34170,1,0,0:0:0:0:
199,192,34458,1,0,0:0:0:0:
426,192,34746,1,0,0:0:0:0:
369,192,35035,128,0,35612:0:0:0:0:
142,192,35612,1,0,0:0:0:0:
312,192,35900,1,0,0:0:0:0:
28,192,35900,1,0,0:0:0:0:
256,192,36189,128,0,36766:0:0:0:0:
142,192,36189,1,0,0:0:0:0:
28,192,36477,1,0,0:0:0:0:
142,192,36766,1,0,0:0:0:0:
28,192,37054,1,0,0:0:0:0:
142,192,37343,128,0,37631:0:0:0:0:
28,192,37631,128,0,37920:0:0:0:0:
256,192,37920,128,0,38208:0:0:0:0:
142,192,37920,128,0,38208:0:0:0:0:
312,192,38208,128,0,38496:0:0:0:0:
28,192,38208,128,0,38496:0:0:0:0:
199,192,38496,128,0,38641:0:0:0:0:
256,192,38641,128,0,38785:0:0:0:0:
312,192,38785,128,0,38929:0:0:0:0:
199,192,39073,1,0,0:0:0:0:
312,192,39362,128,0,39506:0:0:0:0:
85,192,39362,1,0,0:0:0:0:
199,192,39650,1,0,0:0:0:0:
85,192,39939,1,0,0:0:0:0:
199,192,40227,1,0,0:0:0:0:
85,192,40516,1,0,0:0:0:0:
426,192,40516,128,0,40660:0:0:0:0:
483,192,40804,1,0,0:0:0:0:
426,192,40876,1,0,0:0:0:0:
369,192,40948,1,0,0:0:0:0:
312,192,41093,128,0,41237:0:0:0:0:
142,192,41381,1,0,0:0:0:0:
28,192,41670,1,0,0:0:0:0:
256,192,41670,128,0,41958:0:0:0:0:
369,192,41958,128,0,42246:0:0:0:0:
142,192,41958,1,0,0:0:0:0:
312,192,42246,128,0,42535:0:0:0:0:
28,192,42246,1,0,0:0:0:0:
142,192,42535,1,0,0:0:0:0:
28,192,42823,1,0,0:0:0:0:
483,192,42823,128,0,42968:0:0:0:0:
426,192,42968,128,0,43112:0:0:0:0:
369,192,43112,128,0,43400:0:0:0:0:
142,192,43112,128,0,44987:0:0:0:0:
199,192,43256,128,0,44987:0:0:0:0:
256,192,43400,128,0,44987:0:0:0:0:
28,192,44987,128,0,49746:0:0:0:0:
85,192,45131,128,0,48304:0:0:0:0:
312,192,45275,128,0,46285:0:0:0:0:
426,192,45420,128,0,49746:0:0:0:0:
256,192,46285,128,0,47439:0:0:0:0:
199,192,47439,128,0,47727:0:0:0:0:
142,192,47727,128,0,48304:0:0:0:0:
199,192,48593,128,0,49458:0:0:0:0:
142,192,48737,128,0,49458:0:0:0:0:
85,192,48881,128,0,49746:0:0:0:0:
142,192,49746,128,0,51766:0:0:0:0:
199,192,49891,128,0,51766:0:0:0:0:
256,192,50035,128,0,52054:0:0:0:0:
199,192,52054,128,0,54073:0:0:0:0:
256,192,52198,128,0,52920:0:0:0:0:
312,192,52343,128,0,53496:0:0:0:0:
256,192,53496,128,0,54650:0:0:0:0:
199,192,54650,128,0,54795:0:0:0:0:
256,192,54795,128,0,54939:0:0:0:0:
312,192,54939,128,0,55083:0:0:0:0:
199,192,55227,1,0,0:0:0:0:
85,192,55516,1,0,0:0:0:0:
199,192,55804,1,0,0:0:0:0:
312,192,56093,128,0,56237:0:0:0:0:
85,192,56093,1,0,0:0:0:0:
199,192,56381,1,0,0:0:0:0:
312,192,56670,128,0,56814:0:0:0:0:
426,192,56670,128,0,56814:0:0:0:0:
85,192,56670,1,0,0:0:0:0:
256,192,56958,128,0,57102:0:0:0:0:
312,192,57102,128,0,57246:0:0:0:0:
369,192,57246,128,0,57391:0:0:0:0:
142,192,57535,1,0,0:0:0:0:
369,192,57823,128,0,57968:0:0:0:0:
28,192,57823,1,0,0:0:0:0:
142,192,58112,1,0,0:0:0:0:
369,192,58400,128,0,58545:0:0:0:0:
28,192,58400,1,0,0:0:0:0:
199,192,58689,1,0,0:0:0:0:
369,192,58977,128,0,59121:0:0:0:0:
142,192,58977,1,0,0:0:0:0:
369,192,59266,128,0,59410:0:0:0:0:
426,192,59410,128,0,59554:0:0:0:0:
483,192,59554,128,0,60275:0:0:0:0:
426,192,59843,128,0,60275:0:0:0:0:
256,192,59843,128,0,60275:0:0:0:0:
256,192,60420,128,0,60564:0:0:0:0:
483,192,60420,128,0,60564:0:0:0:0:
426,192,60420,128,0,60564:0:0:0:0:
256,192,60708,128,0,60996:0:0:0:0:
483,192,60708,128,0,60996:0:0:0:0:
426,192,60708,128,0,60996:0:0:0:0:
256,192,61285,1,0,0:0:0:0:
426,192,61285,1,0,0:0:0:0:
483,192,61285,1,0,0:0:0:0:
199,192,61381,1,0,0:0:0:0:
256,192,61573,1,0,0:0:0:0:
483,192,61573,1,0,0:0:0:0:
426,192,61573,1,0,0:0:0:0:
199,192,61670,1,0,0:0:0:0:
483,192,61862,128,0,63304:0:0:0:0:
426,192,61862,128,0,63593:0:0:0:0:
256,192,61862,128,0,63881:0:0:0:0:
199,192,63881,128,0,68496:0:0:0:0:
85,192,63881,128,0,67920:0:0:0:0:
28,192,63881,128,0,67343:0:0:0:0:
483,192,68496,128,0,71958:0:0:0:0:
426,192,68496,128,0,72535:0:0:0:0:
312,192,68496,128,0,73112:0:0:0:0:
256,192,73112,128,0,77727:0:0:0:0:
312,192,74266,128,0,77727:0:0:0:0:
369,192,74554,128,0,77727:0:0:0:0:
199,192,74843,128,0,77727:0:0:0:0:
142,192,75420,128,0,77727:0:0:0:0:
312,192,78150,1,0,0:0:0:0:
426,192,78150,1,0,0:0:0:0:
256,192,78438,1,0,0:0:0:0:
426,192,78726,128,0,78870:0:0:0:0:
483,192,78726,128,0,78870:0:0:0:0:
199,192,79014,1,0,0:0:0:0:
426,192,79302,128,0,79446:0:0:0:0:
483,192,79302,128,0,79446:0:0:0:0:
199,192,79590,1,0,0:0:0:0:
369,192,79878,1,0,0:0:0:0:
312,192,80166,1,0,0:0:0:0:
256,192,80454,1,0,0:0:0:0:
369,192,80454,1,0,0:0:0:0:
199,192,80742,1,0,0:0:0:0:
369,192,81030,128,0,81174:0:0:0:0:
426,192,81030,128,0,81174:0:0:0:0:
142,192,81318,1,0,0:0:0:0:
369,192,81606,128,0,81750:0:0:0:0:
426,192,81606,128,0,81750:0:0:0:0:
142,192,81894,1,0,0:0:0:0:
312,192,82182,1,0,0:0:0:0:
256,192,82470,1,0,0:0:0:0:
199,192,82758,1,0,0:0:0:0:
312,192,82758,1,0,0:0:0:0:
142,192,83046,1,0,0:0:0:0:
312,192,83334,128,0,83478:0:0:0:0:
369,192,83334,128,0,83478:0:0:0:0:
85,192,83622,1,0,0:0:0:0:
312,192,83910,128,0,84054:0:0:0:0:
369,192,83910,128,0,84054:0:0:0:0:
85,192,84198,1,0,0:0:0:0:
256,192,84486,1,0,0:0:0:0:
199,192,84774,1,0,0:0:0:0:
256,192,85062,1,0,0:0:0:0:
142,192,85062,1,0,0:0:0:0:
85,192,85350,1,0,0:0:0:0:
369,192,85638,128,0,85782:0:0:0:0:
426,192,85638,128,0,85782:0:0:0:0:
85,192,85926,1,0,0:0:0:0:
256,192,86215,128,0,86359:0:0:0:0:
312,192,86215,128,0,86359:0:0:0:0:
142,192,86503,1,0,0:0:0:0:
256,192,86791,1,0,0:0:0:0:
142,192,87079,1,0,0:0:0:0:
312,192,87367,1,0,0:0:0:0:
426,192,87367,1,0,0:0:0:0:
483,192,87367,1,0,0:0:0:0:
256,192,87655,1,0,0:0:0:0:
426,192,87943,128,0,88087:0:0:0:0:
483,192,87943,128,0,88087:0:0:0:0:
199,192,88231,1,0,0:0:0:0:
426,192,88519,128,0,88663:0:0:0:0:
483,192,88519,128,0,88663:0:0:0:0:
199,192,88807,1,0,0:0:0:0:
369,192,89095,1,0,0:0:0:0:
312,192,89383,1,0,0:0:0:0:
256,192,89671,1,0,0:0:0:0:
369,192,89671,1,0,0:0:0:0:
426,192,89671,1,0,0:0:0:0:
199,192,89959,1,0,0:0:0:0:
369,192,90247,128,0,90391:0:0:0:0:
426,192,90247,128,0,90391:0:0:0:0:
142,192,90535,1,0,0:0:0:0:
369,192,90823,128,0,90967:0:0:0:0:
426,192,90823,128,0,90967:0:0:0:0:
142,192,91111,1,0,0:0:0:0:
312,192,91399,1,0,0:0:0:0:
256,192,91687,1,0,0:0:0:0:
199,192,91975,1,0,0:0:0:0:
312,192,91975,1,0,0:0:0:0:
369,192,91975,1,0,0:0:0:0:
142,192,92263,1,0,0:0:0:0:
312,192,92551,128,0,92695:0:0:0:0:
369,192,92551,128,0,92695:0:0:0:0:
85,192,92839,1,0,0:0:0:0:
312,192,93127,128,0,93271:0:0:0:0:
369,192,93127,128,0,93271:0:0:0:0:
85,192,93415,1,0,0:0:0:0:
256,192,93703,1,0,0:0:0:0:
199,192,93992,1,0,0:0:0:0:
256,192,94280,1,0,0:0:0:0:
142,192,94280,1,0,0:0:0:0:
312,192,94280,1,0,0:0:0:0:
85,192,94568,1,0,0:0:0:0:
369,192,94856,128,0,95000:0:0:0:0:
426,192,94856,128,0,95000:0:0:0:0:
85,192,95144,1,0,0:0:0:0:
199,192,95432,1,0,0:0:0:0:
312,192,95432,1,0,0:0:0:0:
369,192,95432,1,0,0:0:0:0:
142,192,95720,1,0,0:0:0:0:
312,192,96008,128,0,96152:0:0:0:0:
256,192,96008,128,0,96152:0:0:0:0:
142,192,96296,1,0,0:0:0:0:
369,192,96584,128,0,96728:0:0:0:0:
256,192,96872,1,0,0:0:0:0:
426,192,97160,128,0,97304:0:0:0:0:
199,192,97448,1,0,0:0:0:0:
369,192,97736,128,0,97880:0:0:0:0:
426,192,98024,128,0,98168:0:0:0:0:
369,192,98312,1,0,0:0:0:0:
312,192,98600,1,0,0:0:0:0:
483,192,98888,128,0,99032:0:0:0:0:
199,192,99176,1,0,0:0:0:0:
426,192,99464,1,0,0:0:0:0:
369,192,99464,1,0,0:0:0:0:
142,192,99752,1,0,0:0:0:0:
426,192,100040,1,0,0:0:0:0:
369,192,100040,1,0,0:0:0:0:
142,192,100328,128,0,100472:0:0:0:0:
199,192,100616,128,0,100760:0:0:0:0:
256,192,100904,128,0,101048:0:0:0:0:
312,192,101192,128,0,101336:0:0:0:0:
142,192,101480,1,0,0:0:0:0:
256,192,101768,128,0,101913:0:0:0:0:
85,192,102057,1,0,0:0:0:0:
312,192,102345,128,0,102489:0:0:0:0:
85,192,102633,1,0,0:0:0:0:
256,192,102921,128,0,103065:0:0:0:0:
199,192,103209,1,0,0:0:0:0:
256,192,103497,128,0,103641:0:0:0:0:
312,192,103497,128,0,103641:0:0:0:0:
85,192,103785,1,0,0:0:0:0:
312,192,104073,1,0,0:0:0:0:
256,192,104073,1,0,0:0:0:0:
85,192,104361,1,0,0:0:0:0:
312,192,104649,128,0,105801:0:0:0:0:
369,192,104793,128,0,105801:0:0:0:0:
426,192,104937,128,0,105801:0:0:0:0:
85,192,105801,128,0,107889:0:0:0:0:
142,192,105945,128,0,107889:0:0:0:0:
199,192,106089,128,0,107889:0:0:0:0:
256,192,107025,128,0,109545:0:0:0:0:
312,192,107889,128,0,109545:0:0:0:0:
369,192,108033,128,0,109545:0:0:0:0:
426,192,108177,128,0,109545:0:0:0:0:
312,192,110050,128,0,110194:0:0:0:0:
28,192,110050,128,0,110194:0:0:0:0:
369,192,110194,128,0,110338:0:0:0:0:
85,192,110194,128,0,110338:0:0:0:0:
426,192,110338,128,0,110482:0:0:0:0:
142,192,110338,128,0,110482:0:0:0:0:
483,192,110482,128,0,111418:0:0:0:0:
199,192,110482,128,0,111418:0:0:0:0:
369,192,111418,128,0,112426:0:0:0:0:
85,192,111418,128,0,112426:0:0:0:0:
142,192,112426,128,0,112858:0:0:0:0:
426,192,112426,128,0,112858:0:0:0:0:
369,192,112858,128,0,113722:0:0:0:0:
199,192,112858,128,0,113722:0:0:0:0:
142,192,113722,128,0,113866:0:0:0:0:
426,192,113722,128,0,113866:0:0:0:0:
85,192,113866,128,0,114010:0:0:0:0:
369,192,113866,128,0,114010:0:0:0:0:
28,192,114010,128,0,114874:0:0:0:0:
312,192,114010,128,0,114874:0:0:0:0:
256,192,114874,1,0,0:0:0:0:
199,192,115018,1,0,0:0:0:0:
142,192,115162,1,0,0:0:0:0:
28,192,115162,1,0,0:0:0:0:
142,192,115666,1,0,0:0:0:0:
28,192,115666,1,0,0:0:0:0:
199,192,117322,128,0,117466:0:0:0:0:
256,192,117466,128,0,117611:0:0:0:0:
312,192,117611,128,0,117755:0:0:0:0:
199,192,117899,1,0,0:0:0:0:
85,192,118187,1,0,0:0:0:0:
199,192,118475,1,0,0:0:0:0:
312,192,118763,128,0,118907:0:0:0:0:
85,192,118763,1,0,0:0:0:0:
199,192,119051,1,0,0:0:0:0:
312,192,119339,128,0,119483:0:0:0:0:
85,192,119339,1,0,0:0:0:0:
483,192,119627,1,0,0:0:0:0:
426,192,119699,1,0,0:0:0:0:
483,192,119771,1,0,0:0:0:0:
369,192,119915,128,0,120203:0:0:0:0:
142,192,120203,1,0,0:0:0:0:
312,192,120203,128,0,120491:0:0:0:0:
28,192,120491,1,0,0:0:0:0:
369,192,120491,128,0,120779:0:0:0:0:
142,192,120779,1,0,0:0:0:0:
28,192,121067,1,0,0:0:0:0:
199,192,121355,1,0,0:0:0:0:
142,192,121643,1,0,0:0:0:0:
199,192,121931,128,0,122075:0:0:0:0:
256,192,122075,128,0,122219:0:0:0:0:
312,192,122219,128,0,122363:0:0:0:0:
199,192,122507,1,0,0:0:0:0:
312,192,122795,128,0,123371:0:0:0:0:
85,192,122795,1,0,0:0:0:0:
199,192,123083,1,0,0:0:0:0:
369,192,123371,128,0,123515:0:0:0:0:
85,192,123371,1,0,0:0:0:0:
199,192,123659,1,0,0:0:0:0:
426,192,123947,128,0,124091:0:0:0:0:
369,192,124235,128,0,124811:0:0:0:0:
142,192,124811,1,0,0:0:0:0:
28,192,125099,1,0,0:0:0:0:
312,192,125099,128,0,125243:0:0:0:0:
256,192,125387,128,0,125964:0:0:0:0:
142,192,125387,1,0,0:0:0:0:
28,192,125676,1,0,0:0:0:0:
142,192,125964,1,0,0:0:0:0:
28,192,126252,1,0,0:0:0:0:
199,192,126252,1,0,0:0:0:0:
142,192,126540,128,0,126684:0:0:0:0:
142,192,127116,128,0,127260:0:0:0:0:
369,192,128268,128,0,128556:0:0:0:0:
426,192,128556,128,0,128844:0:0:0:0:
483,192,128844,128,0,128988:0:0:0:0:
312,192,128844,1,0,0:0:0:0:
256,192,129132,1,0,0:0:0:0:
426,192,129420,128,0,129564:0:0:0:0:
483,192,129420,128,0,129564:0:0:0:0:
199,192,129708,1,0,0:0:0:0:
426,192,129996,128,0,130140:0:0:0:0:
483,192,129996,128,0,130140:0:0:0:0:
199,192,130284,1,0,0:0:0:0:
369,192,130572,1,0,0:0:0:0:
312,192,130860,1,0,0:0:0:0:
256,192,131148,1,0,0:0:0:0:
369,192,131148,1,0,0:0:0:0:
426,192,131148,1,0,0:0:0:0:
199,192,131436,1,0,0:0:0:0:
369,192,131724,128,0,131868:0:0:0:0:
426,192,131724,128,0,131868:0:0:0:0:
142,192,132012,1,0,0:0:0:0:
369,192,132300,128,0,132444:0:0:0:0:
426,192,132300,128,0,132444:0:0:0:0:
142,192,132588,1,0,0:0:0:0:
312,192,132876,1,0,0:0:0:0:
256,192,133164,1,0,0:0:0:0:
199,192,133453,1,0,0:0:0:0:
312,192,133453,1,0,0:0:0:0:
369,192,133453,1,0,0:0:0:0:
142,192,133741,1,0,0:0:0:0:
369,192,134029,128,0,134173:0:0:0:0:
426,192,134029,128,0,134173:0:0:0:0:
85,192,134317,1,0,0:0:0:0:
369,192,134605,1,0,0:0:0:0:
256,192,134605,1,0,0:0:0:0:
426,192,134605,1,0,0:0:0:0:
85,192,134893,1,0,0:0:0:0:
256,192,135181,128,0,135325:0:0:0:0:
312,192,135181,128,0,135325:0:0:0:0:
199,192,135469,1,0,0:0:0:0:
85,192,135853,128,0,135997:0:0:0:0:
142,192,135997,128,0,136237:0:0:0:0:
199,192,136237,128,0,137005:0:0:0:0:
256,192,137005,128,0,137917:0:0:0:0:
199,192,137917,128,0,138781:0:0:0:0:
142,192,138781,128,0,138925:0:0:0:0:
85,192,138925,128,0,139117:0:0:0:0:
28,192,139117,128,0,140941:0:0:0:0:
142,192,140941,128,0,141758:0:0:0:0:
199,192,141758,128,0,142718:0:0:0:0:
256,192,142718,128,0,143726:0:0:0:0:
312,192,143726,128,0,144254:0:0:0:0:
256,192,144254,128,0,144974:0:0:0:0:
199,192,144974,128,0,145310:0:0:0:0:
142,192,145310,128,0,146510:0:0:0:0:
199,192,146510,128,0,146702:0:0:0:0:
142,192,146702,128,0,146894:0:0:0:0:
85,192,146894,128,0,148142:0:0:0:0:
28,192,148142,128,0,148286:0:0:0:0:
85,192,148286,128,0,148526:0:0:0:0:
142,192,148526,128,0,149343:0:0:0:0:
199,192,149343,128,0,150015:0:0:0:0:
142,192,150015,128,0,150303:0:0:0:0:
85,192,150303,128,0,150975:0:0:0:0:
28,192,150975,128,0,151503:0:0:0:0:
85,192,151503,128,0,151743:0:0:0:0:
28,192,151743,128,0,153615:0:0:0:0:
256,192,153615,128,0,154335:0:0:0:0:
312,192,154335,128,0,155247:0:0:0:0:
369,192,155247,128,0,156399:0:0:0:0:
312,192,156399,128,0,157264:0:0:0:0:
256,192,157264,128,0,157936:0:0:0:0:
312,192,157936,1,0,0:0:0:0:
256,192,158032,128,0,159280:0:0:0:0:
312,192,159280,128,0,159520:0:0:0:0:
199,192,159520,128,0,161104:0:0:0:0:
142,192,161200,1,0,0:0:0:0:
85,192,161296,1,0,0:0:0:0:
142,192,161440,128,0,167729:0:0:0:0:
483,192,161968,128,0,162400:0:0:0:0:
369,192,161968,128,0,162400:0:0:0:0:
483,192,162688,128,0,163120:0:0:0:0:
369,192,162688,128,0,163120:0:0:0:0:
483,192,163552,128,0,163984:0:0:0:0:
369,192,163552,128,0,163984:0:0:0:0:
312,192,164416,128,0,164848:0:0:0:0:
483,192,164993,128,0,165569:0:0:0:0:
369,192,164993,128,0,165569:0:0:0:0:
483,192,165857,128,0,167729:0:0:0:0:
369,192,165857,128,0,167729:0:0:0:0:
