osu file format v14

[General]
AudioFilename: audio.mp3
AudioLeadIn: 0
PreviewTime: -1
Countdown: 1
SampleSet: Normal
StackLeniency: 0.2
Mode: 0
LetterboxInBreaks: 0
WidescreenStoryboard: 0

[Editor]
Bookmarks: 24861
DistanceSpacing: 1.8
BeatDivisor: 8
GridSize: 4
TimelineZoom: 2.2

[Metadata]
Title:Super Smash Mouth Bros.
TitleUnicode:Super Smash Mouth Bros.
Artist:The Living Tombstone
ArtistUnicode:The Living Tombstone
Creator:Bacwux
Version:Super Smash!
Source:
Tags:
BeatmapID:1050479
BeatmapSetID:493213

[Difficulty]
HPDrainRate:8
CircleSize:4.8
OverallDifficulty:9
ApproachRate:10
SliderMultiplier:2.1
SliderTickRate:1

[Events]
//Background and Video events
//Break Periods
//Storyboard Layer 0 (Background)
//Storyboard Layer 1 (Fail)
//Storyboard Layer 2 (Pass)
//Storyboard Layer 3 (Foreground)
//Storyboard Sound Samples

[TimingPoints]
0,555.555555555556,4,1,0,100,1,0
8611,-200,4,1,0,100,0,0
8888,-83.3333333333333,4,1,0,100,0,0
13333,-142.857142857143,4,1,0,100,0,0
14444,-125,4,1,0,100,0,0
15555,-111.111111111111,4,1,0,100,0,0
16111,-83.3333333333333,4,1,0,100,0,0
16666,-50,4,1,0,100,0,0
17222,-200,4,1,0,100,0,0
17777,-76.9230769230769,4,1,0,100,0,0
21111,-133.333333333333,4,1,0,100,0,0
22222,-76.9230769230769,4,1,0,100,0,0
25555,-200,4,1,0,100,0,0
26388,-76.9230769230769,4,1,0,100,0,0
29861,-153.846153846154,4,1,0,100,0,0
31111,-76.9230769230769,4,1,0,100,0,0
33611,-50,4,1,0,100,0,0
34444,-200,4,1,0,100,0,0
35555,-100,4,1,0,100,0,0
42222,-200,4,1,0,100,0,0
44444,-76.9230769230769,4,1,0,100,0,0
47638,-133.333333333333,4,1,0,100,0,0
48888,-76.9230769230769,4,1,0,100,0,0
55277,-50,4,1,0,100,0,0
55416,-76.9230769230769,4,1,0,100,0,0
60277,-50,4,1,0,100,0,0
60972,-133.333333333333,4,1,0,100,0,0
62222,-83.3333333333333,4,1,0,100,0,0
68888,-200,4,1,0,100,0,0
71111,-76.9230769230769,4,1,0,100,0,0

[Colours]
Combo1 : 0,0,0
Combo2 : 255,0,0
Combo3 : 0,255,0

[HitObjects]
112,244,0,6,0,L|132:136,1,105
148,56,555,1,0,0:0:0:0:
112,244,833,2,0,L|127:153,1,52.5
148,56,1111,5,0,0:0:0:0:
196,284,1388,1,0,0:0:0:0:
328,196,1666,2,0,L|318:144,1,52.5
304,72,1944,2,0,L|294:20,1,52.5
352,320,2222,5,0,0:0:0:0:
328,196,2500,2,0,L|302:60,1,105
228,256,2916,1,0,0:0:0:0:
208,359,3055,2,0,L|233:223,1,105
232,231,3611,6,0,L|241:179,1,52.5
256,103,3888,2,0,L|265:51,1,52.5
208,359,4166,2,0,L|225:265,1,52.5
385,267,4444,6,0,L|359:131,1,105
404,352,5000,1,0,0:0:0:0:
376,216,5277,2,0,L|363:147,1,52.5
404,352,5555,1,0,0:0:0:0:
208,359,5833,6,0,L|234:223,1,105
312,320,6250,1,0,0:0:0:0:
132,276,6388,2,0,L|145:207,1,52.5
188,172,6666,6,0,L|207:68,1,105
100,136,7083,1,0,0:0:0:0:
276,208,7222,2,0,L|263:139,1,52.5
248,88,7500,2,0,L|261:19,1,52.5
324,88,7777,5,0,0:0:0:0:
372,332,8055,1,0,0:0:0:0:
324,88,8333,1,0,0:0:0:0:
372,332,8611,2,0,L|363:288,1,26.25
272,372,8888,6,0,L|298:236,1,125.999996154785
448,320,9444,1,0,0:0:0:0:
212,284,9722,2,0,L|199:215,1,62.9999980773926
244,164,10000,5,0,0:0:0:0:
327,368,10277,2,0,L|340:299,1,62.9999980773926
295,248,10555,2,0,L|282:179,1,62.9999980773926
327,368,10833,2,0,L|340:299,1,62.9999980773926
136,360,11111,6,0,L|110:224,1,125.999996154785
48,280,11527,1,0,0:0:0:0:
216,304,11666,1,0,0:0:0:0:
48,280,11944,1,0,0:0:0:0:
216,304,12222,6,0,L|203:235,1,62.9999980773926
212,376,12500,1,0,0:0:0:0:
328,148,12777,2,0,L|341:79,1,62.9999980773926
216,304,13055,2,0,L|204:242,1,62.9999980773926
432,344,13333,6,0,L|445:275,1,36.749998878479,8|0,0:0|0:0,0:0:0:0:
292,280,13611,2,0,L|279:211,1,36.749998878479,8|0,0:0|0:0,0:0:0:0:
376,248,13888,2,0,L|389:179,1,36.749998878479,8|0,0:0|0:0,0:0:0:0:
236,184,14166,2,0,L|223:115,1,36.749998878479,8|0,0:0|0:0,0:0:0:0:
52,348,14444,6,0,L|65:279,1,42,8|0,0:0|0:0,0:0:0:0:
208,288,14722,2,0,L|195:219,1,42,8|0,0:0|0:0,0:0:0:0:
116,244,15000,2,0,L|129:175,1,42,8|0,0:0|0:0,0:0:0:0:
272,188,15277,2,0,L|259:119,1,42,8|0,0:0|0:0,0:0:0:0:
56,84,15555,6,8,L|69:15,1,47.2499985580445
280,234,15833,2,8,L|267:165,1,47.2499985580445
136,352,16111,6,8,L|149:283,1,62.9999980773926
432,164,16388,2,8,L|419:95,1,62.9999980773926
270,285,16666,6,8,L|283:216,1,52.5
152,184,16805,6,8,L|139:115,1,52.5
324,92,16944,6,8,L|337:23,1,52.5
142,235,17083,6,8,L|155:166,1,52.5
260,336,17222,6,0,L|273:267,1,52.5,8|0,0:0|0:0,0:0:0:0:
336,159,17777,6,0,L|323:90,1,68.2499968757631
248,180,18055,1,0,0:0:0:0:
432,220,18194,1,0,0:0:0:0:
151,286,18333,2,0,L|138:217,1,68.2499968757631
248,180,18611,1,0,0:0:0:0:
151,286,18750,2,0,L|124:147,1,136.499993751526
248,180,19166,5,0,0:0:0:0:
376,276,19305,1,0,0:0:0:0:
224,268,19444,1,0,0:0:0:0:
432,220,19583,1,0,0:0:0:0:
328,352,19722,6,0,L|319:305,1,34.1249984378815
248,180,19861,2,0,L|256:133,1,34.1249984378815
457,354,20000,6,0,L|423:176,1,136.499993751526
512,260,20416,1,0,0:0:0:0:
120,360,20555,2,0,L|142:242,1,68.2499968757631
260,247,20833,2,0,L|237:129,1,68.2499968757631
120,360,21111,6,0,L|136:271,1,78.7500030040742
48,304,21527,1,0,0:0:0:0:
320,188,21666,2,0,L|303:99,1,78.7500030040742
76,232,22083,1,0,0:0:0:0:
307,255,22222,6,0,L|324:166,1,68.2499968757631
160,208,22500,1,0,0:0:0:0:
356,312,22638,1,0,0:0:0:0:
252,344,22777,2,0,L|235:255,1,68.2499968757631
392,240,23055,1,0,0:0:0:0:
252,344,23194,6,0,L|225:207,1,136.499993751526
316,172,23611,1,0,0:0:0:0:
408,324,23750,1,0,0:0:0:0:
226,209,23888,2,0,L|243:120,1,68.2499968757631
308,68,24166,5,0,0:0:0:0:
336,292,24305,1,0,0:0:0:0:
108,264,24583,6,0,L|116:219,1,34.1249984378815
314,101,24722,2,0,L|305:56,1,34.1249984378815
336,292,24861,2,0,L|327:247,1,34.1249984378815
280,336,25138,5,0,0:0:0:0:
360,192,25277,2,0,L|368:147,1,34.1249984378815
108,264,25416,2,0,L|99:219,1,34.1249984378815
416,308,25555,6,0,L|405:255,2,52.5
175,320,26388,5,0,0:0:0:0:
188,112,26527,1,0,0:0:0:0:
108,256,26666,2,0,L|94:187,1,68.2499968757631
264,176,26944,5,0,0:0:0:0:
104,108,27083,1,0,0:0:0:0:
188,320,27222,2,0,L|201:251,1,68.2499968757631
188,156,27500,1,0,0:0:0:0:
188,320,27638,6,0,L|217:165,1,136.499993751526
268,352,28055,2,0,L|259:304,1,34.1249984378815
456,272,28194,2,0,L|464:224,1,34.1249984378815
328,264,28333,5,0,0:0:0:0:
108,304,28472,1,0,0:0:0:0:
396,336,28611,1,0,0:0:0:0:
272,208,28750,6,0,L|285:139,1,68.2499968757631
404,256,29027,1,0,0:0:0:0:
272,208,29166,1,0,0:0:0:0:
404,256,29305,6,0,L|390:187,1,68.2499968757631
272,208,29583,2,0,L|285:139,1,68.2499968757631
404,256,29861,6,0,L|390:187,1,68.2499968757631
332,128,30277,5,0,0:0:0:0:
240,112,30416,1,0,0:0:0:0:
344,140,30555,5,0,0:0:0:0:
240,112,30694,1,0,0:0:0:0:
356,176,30833,5,0,0:0:0:0:
128,184,30972,1,0,0:0:0:0:
226,178,31111,6,0,L|240:109,1,68.2499968757631
128,184,31388,1,0,0:0:0:0:
172,328,31527,1,0,0:0:0:0:
388,284,31666,6,0,L|366:177,1,102.374995313645
356,168,31944,1,0,0:0:0:0:
172,328,32083,2,0,L|178:293,1,34.1249984378815
324,356,32222,1,0,0:0:0:0:
112,240,32361,5,0,0:0:0:0:
248,348,32500,1,0,0:0:0:0:
176,124,32638,2,0,L|190:55,1,68.2499968757631
356,168,32916,5,0,0:0:0:0:
178,294,33055,1,0,0:0:0:0:
72,72,33194,2,0,L|86:3,1,68.2499968757631
232,204,33472,5,0,0:0:0:0:
344,324,33611,6,0,L|330:255,1,52.5
165,175,33750,2,0,L|179:106,1,52.5
400,106,33888,2,0,L|389:54,1,52.5
221,255,34027,6,0,L|231:203,1,52.5
410,352,34166,2,0,L|396:283,1,52.5
230,203,34305,1,0,0:0:0:0:
344,324,34444,6,0,L|330:255,1,52.5
154,226,35000,2,0,L|168:157,1,52.5
320,124,35555,6,0,L|306:55,1,52.5
164,174,35833,1,0,0:0:0:0:
164,174,36111,6,0,L|178:105,1,52.5
320,224,36389,1,0,0:0:0:0:
320,224,36666,6,0,L|306:155,1,52.5
164,274,36944,1,0,0:0:0:0:
164,274,37222,6,0,L|178:205,1,52.5
320,324,37500,1,0,0:0:0:0:
36,280,37638,1,0,0:0:0:0:
108,160,37777,6,0,L|122:91,1,52.5
236,188,38055,1,0,0:0:0:0:
204,348,38194,1,0,0:0:0:0:
416,120,38333,6,0,L|402:51,1,52.5
288,148,38611,1,0,0:0:0:0:
320,308,38750,1,0,0:0:0:0:
108,80,38888,6,0,L|122:11,1,52.5
236,108,39166,1,0,0:0:0:0:
204,268,39305,1,0,0:0:0:0:
396,176,39444,5,0,0:0:0:0:
128,208,39583,1,0,0:0:0:0:
330,359,39722,2,0,L|316:290,1,52.5
220,116,40000,5,0,0:0:0:0:
196,340,40138,1,0,0:0:0:0:
348,160,40277,1,0,0:0:0:0:
168,24,40416,1,0,0:0:0:0:
92,264,40694,5,0,0:0:0:0:
384,312,40833,1,0,0:0:0:0:
144,180,40972,1,0,0:0:0:0:
328,48,41250,5,0,0:0:0:0:
196,340,41388,1,0,0:0:0:0:
196,120,41527,1,0,0:0:0:0:
400,172,41805,5,0,0:0:0:0:
48,240,41944,1,0,0:0:0:0:
456,48,42083,1,0,0:0:0:0:
330,359,42222,6,0,L|293:178,1,183.75
56,96,43333,6,0,L|67:37,3,52.5
372,220,44444,6,0,L|355:140,1,68.2499968757631
136,216,44722,1,0,0:0:0:0:
432,288,44861,1,0,0:0:0:0:
64,324,45000,6,0,L|80:244,1,68.2499968757631
124,56,45277,1,0,0:0:0:0:
320,268,45416,6,0,L|288:110,1,136.499993751526
136,216,45833,6,0,L|146:161,1,34.1249984378815
360,100,45972,2,0,L|349:45,1,34.1249984378815
200,24,46111,1,0,0:0:0:0:
240,308,46250,1,0,0:0:0:0:
320,268,46388,1,0,0:0:0:0:
136,216,46527,6,0,L|168:58,1,136.499993751526
272,180,46944,1,0,0:0:0:0:
204,304,47083,1,0,0:0:0:0:
52,300,47222,6,0,L|68:220,1,68.2499968757631
272,180,47500,1,0,0:0:0:0:
80,168,47638,2,0,L|91:111,1,39.3750015020371
208,232,47916,1,0,0:0:0:0:
299,313,48055,6,0,L|288:259,1,39.3750015020371
204,160,48333,2,0,L|222:68,1,78.7500030040742
300,192,48750,1,0,0:0:0:0:
116,124,48888,5,0,0:0:0:0:
304,104,49027,1,0,0:0:0:0:
236,232,49166,1,0,0:0:0:0:
48,212,49305,1,0,0:0:0:0:
136,32,49444,5,0,0:0:0:0:
222,298,49583,2,0,L|236:228,1,68.2499968757631
424,160,49861,6,0,L|391:-1,1,136.499993751526
188,140,50277,1,0,0:0:0:0:
340,256,50416,1,0,0:0:0:0:
174,206,50555,2,0,L|188:136,1,68.2499968757631
268,44,50833,5,0,0:0:0:0:
212,320,50972,1,0,0:0:0:0:
124,104,51250,6,0,L|131:65,1,34.1249984378815
312,188,51388,2,0,L|304:149,1,34.1249984378815
32,144,51527,1,0,0:0:0:0:
312,188,51805,6,0,L|304:149,1,34.1249984378815
124,272,51943,2,0,L|131:233,1,34.1249984378815
404,228,52082,1,0,0:0:0:0:
312,188,52222,6,0,L|280:30,1,136.499993751526
168,152,52638,1,0,0:0:0:0:
300,328,52777,1,0,0:0:0:0:
284,54,53055,1,0,0:0:0:0:
195,285,53333,6,0,L|177:200,1,68.2499968757631
154,351,53611,2,0,L|186:193,1,136.499993751526
116,92,54027,1,0,0:0:0:0:
236,328,54166,1,0,0:0:0:0:
328,144,54305,6,0,L|296:-14,1,136.499993751526
181,217,54722,6,0,L|189:174,1,34.1249984378815
364,308,54861,2,0,L|355:265,1,34.1249984378815
204,108,55000,1,0,0:0:0:0:
240,332,55138,1,0,0:0:0:0:
408,176,55277,6,0,L|396:118,1,52.5
304,36,55416,1,0,0:0:0:0:
176,241,55555,2,0,L|208:83,1,136.499993751526
296,220,55972,5,0,0:0:0:0:
96,308,56111,1,0,0:0:0:0:
124,57,56250,1,0,0:0:0:0:
176,241,56388,5,0,0:0:0:0:
76,172,56527,1,0,0:0:0:0:
323,353,56666,6,0,L|291:195,1,136.499993751526
404,256,57083,1,0,0:0:0:0:
176,241,57222,6,0,L|208:83,1,136.499993751526
95,144,57639,1,0,0:0:0:0:
236,280,57777,5,0,0:0:0:0:
128,64,57916,1,0,0:0:0:0:
336,296,58055,2,0,L|327:253,1,34.1249984378815
188,176,58194,5,0,0:0:0:0:
276,356,58333,1,0,0:0:0:0:
81,210,58472,2,0,L|98:125,1,68.2499968757631
344,344,58750,6,0,L|312:186,1,136.499993751526
376,88,59166,1,0,0:0:0:0:
192,204,59305,1,0,0:0:0:0:
396,172,59444,1,0,0:0:0:0:
288,36,59583,5,0,0:0:0:0:
216,320,59722,1,0,0:0:0:0:
130,106,59861,2,0,L|147:21,1,68.2499968757631
316,210,60138,1,0,0:0:0:0:
216,320,60277,6,0,L|233:235,1,52.5
400,224,60416,2,0,L|382:139,1,52.5
226,268,60555,6,0,L|208:183,1,52.5
42,172,60694,2,0,L|59:87,1,52.5
308,96,60833,1,0,0:0:0:0:
128,352,60972,2,0,L|145:267,1,78.7500030040742
472,36,61388,5,0,0:0:0:0:
40,348,61666,5,0,0:0:0:0:
40,36,61944,5,0,0:0:0:0:
472,348,62222,6,0,L|443:208,1,125.999996154785
504,144,62638,1,0,0:0:0:0:
226,268,62777,6,0,L|254:128,1,125.999996154785
194,64,63193,1,0,0:0:0:0:
324,336,63333,6,0,L|311:274,1,62.9999980773926
356,156,63611,1,0,0:0:0:0:
168,200,63750,6,0,L|180:138,1,62.9999980773926
136,20,64028,1,0,0:0:0:0:
80,248,64166,5,0,0:0:0:0:
304,204,64305,1,0,0:0:0:0:
196,80,64444,6,0,L|208:18,1,62.9999980773926
432,102,64722,1,0,0:0:0:0:
348,166,65000,6,0,L|335:104,1,62.9999980773926
112,188,65278,1,0,0:0:0:0:
196,252,65555,6,0,L|208:190,1,62.9999980773926
432,274,65833,1,0,0:0:0:0:
348,338,66111,6,0,L|335:276,1,62.9999980773926
112,360,66389,1,0,0:0:0:0:
276,380,66527,1,0,0:0:0:0:
316,48,66666,5,0,0:0:0:0:
200,320,66805,1,0,0:0:0:0:
388,200,66944,1,0,0:0:0:0:
272,0,67083,1,0,0:0:0:0:
272,0,67361,5,0,0:0:0:0:
384,344,67500,1,0,0:0:0:0:
56,112,67639,1,0,0:0:0:0:
56,112,67916,5,0,0:0:0:0:
468,48,68055,1,0,0:0:0:0:
208,348,68194,2,0,L|220:286,1,62.9999980773926
272,0,68472,5,0,0:0:0:0:
328,368,68611,1,0,0:0:0:0:
272,0,68750,1,0,0:0:0:0:
328,368,68888,6,0,L|295:208,1,157.5
192,144,70000,2,0,L|204:84,3,52.5
