osu file format v14

[General]
AudioFilename: audio.mp3
AudioLeadIn: 0
PreviewTime: 28255
Countdown: 0
SampleSet: None
StackLeniency: 0.5
Mode: 0
LetterboxInBreaks: 0
WidescreenStoryboard: 1

[Editor]
DistanceSpacing: 1
BeatDivisor: 4
GridSize: 4
TimelineZoom: 1.7

[Metadata]
Title:Squid Melody [Blue Version]
TitleUnicode:Squid Melody [Blue Version]
Artist:The Living Tombstone
ArtistUnicode:The Living Tombstone
Creator:henry11hei
Version:Hard
Source:
Tags:splatoon
BeatmapID:1293156
BeatmapSetID:578205

[Difficulty]
HPDrainRate:5
CircleSize:4
OverallDifficulty:4
ApproachRate:7
SliderMultiplier:2.09999990463257
SliderTickRate:3

[Events]
//Background and Video events
0,0,"Splatoon.jpg",0,0
Video,-2256,"The Living Tombstone - Squid Melody [Blue Version] (Splatoon Original Track) (3).mp4"
//Break Periods
//Storyboard Layer 0 (Background)
//Storyboard Layer 1 (Fail)
//Storyboard Layer 2 (Pass)
//Storyboard Layer 3 (Foreground)
//Storyboard Sound Samples

[TimingPoints]
50,392.156862745098,3,3,0,100,1,0
28208,-100,3,2,0,100,0,1
53306,-100,4,3,0,100,0,0
103422,-66.6666666666667,4,2,0,100,0,1
128685,-100,4,3,0,100,0,0

[HitObjects]
92,128,3187,5,0,0:0:0:0:
220,116,3579,1,0,0:0:0:0:
332,236,3971,2,0,L|132:228,1,157.499992847443
172,160,4461,1,0,0:0:0:0:
320,164,4853,5,0,0:0:0:0:
212,180,5148,1,0,0:0:0:0:
260,240,5442,1,0,0:0:0:0:
132,224,5932,6,0,L|292:124,1,157.499992847443
252,116,6618,6,0,L|260:248,1,104.999995231629
258,220,7108,1,0,0:0:0:0:
412,52,7500,6,0,L|316:144,2,104.999995231629
272,36,8187,2,0,L|240:140,1,104.999995231629
228,248,8677,2,0,L|352:200,2,104.999995231629
176,172,9657,5,0,0:0:0:0:
296,168,9853,1,0,0:0:0:0:
288,280,10148,2,0,L|148:280,2,104.999995231629
244,184,10736,5,0,0:0:0:0:
396,176,11128,1,0,0:0:0:0:
372,240,11520,1,0,0:0:0:0:
308,296,11814,2,0,L|220:204,2,104.999995231629
320,124,12893,5,0,0:0:0:0:
232,220,13187,1,0,0:0:0:0:
240,88,13383,2,0,L|236:232,1,104.999995231629
396,204,13873,2,0,P|380:88|340:80,1,157.499992847443
312,176,14363,6,0,L|284:296,1,104.999995231629
172,172,14853,6,0,P|184:68|200:68,1,157.499992847443
336,148,15442,2,0,P|328:84|220:72,1,157.499992847443
164,160,16030,6,0,L|316:160,1,104.999995231629
428,104,16520,2,0,L|296:160,1,104.999995231629
192,164,17010,1,0,0:0:0:0:
320,188,17304,1,0,0:0:0:0:
236,176,18089,5,0,0:0:0:0:
368,128,18481,1,0,0:0:0:0:
164,92,19069,2,0,L|168:220,1,104.999995231629
260,96,19657,2,0,L|256:208,1,104.999995231629
196,128,20540,5,0,0:0:0:0:
320,132,20736,1,0,0:0:0:0:
280,80,21324,5,0,0:0:0:0:
268,216,21590,1,0,0:0:0:0:
360,36,22304,5,0,0:0:0:0:
392,132,22570,1,0,0:0:0:0:
252,172,22864,1,0,0:0:0:0:
240,60,23060,2,0,L|144:172,2,104.999995231629
324,216,23747,1,0,0:0:0:0:
128,192,23971,5,0,0:0:0:0:
332,144,24363,2,0,P|216:192|224:272,1,209.999990463257
92,136,25344,2,0,L|296:88,1,209.999990463257
180,192,26030,5,0,0:0:0:0:
232,192,26128,1,0,0:0:0:0:
284,196,26226,1,0,0:0:0:0:
220,108,26814,5,0,0:0:0:0:
332,116,27010,1,0,0:0:0:0:
220,228,27206,1,0,0:0:0:0:
48,108,27500,2,0,L|263:147,1,209.999990463257
244,116,28775,5,0,0:0:0:0:
368,144,28971,1,0,0:0:0:0:
148,176,29335,6,0,L|316:200,1,157.499992847443
208,108,29951,1,0,0:0:0:0:
336,124,30246,1,0,0:0:0:0:
312,280,30442,2,0,L|156:232,1,157.499992847443
320,168,31618,5,0,0:0:0:0:
200,84,31912,1,0,0:0:0:0:
112,228,32304,6,0,L|296:220,1,157.499992847443
296,84,32893,2,0,L|188:128,1,104.999995231629
72,236,33285,2,0,L|200:176,2,104.999995231629
216,172,33873,1,0,0:0:0:0:
312,120,34755,5,0,0:0:0:0:
220,292,35119,1,0,0:0:0:0:
168,280,35217,1,0,0:0:0:0:
116,272,35344,1,0,0:0:0:0:
260,52,35834,1,0,0:0:0:0:
384,140,36226,5,0,0:0:0:0:
384,140,36324,1,0,0:0:0:0:
256,136,36520,1,0,0:0:0:0:
256,136,36618,1,0,0:0:0:0:
144,120,36884,1,0,0:0:0:0:
144,120,36982,2,0,L|132:232,2,104.999995231629
308,72,37795,5,0,0:0:0:0:
196,132,37991,1,0,0:0:0:0:
328,252,38285,1,0,0:0:0:0:
144,288,38579,1,0,0:0:0:0:
40,128,38971,6,0,L|280:168,1,209.999990463257
316,144,40021,2,0,L|224:168,2,52.4999976158143
104,164,40609,1,0,0:0:0:0:
340,128,41226,1,0,0:0:0:0:
240,200,41520,1,0,0:0:0:0:
448,220,41786,6,0,L|384:216,6,52.4999976158143
424,152,42472,1,0,0:0:0:0:
292,140,42766,1,0,0:0:0:0:
268,260,42962,1,0,0:0:0:0:
116,252,43089,6,0,L|304:132,1,209.999990463257
308,108,44041,2,0,L|200:136,2,104.999995231629
176,220,44755,1,0,0:0:0:0:
140,128,45148,1,0,0:0:0:0:
296,260,45638,1,0,0:0:0:0:
260,28,46226,6,0,L|276:232,1,157.499992847443
376,196,46618,1,0,0:0:0:0:
236,124,46912,1,0,0:0:0:0:
104,176,47108,2,0,L|200:184,2,52.4999976158143
300,164,47697,5,0,0:0:0:0:
136,112,47962,1,0,0:0:0:0:
160,256,48187,1,0,0:0:0:0:
376,152,48481,1,0,0:0:0:0:
220,172,48775,1,0,0:0:0:0:
264,76,49069,6,0,L|264:264,1,157.499992847443
140,136,50344,5,0,0:0:0:0:
416,124,50806,1,0,0:0:0:0:
220,248,51198,1,0,0:0:0:0:
80,232,51492,5,0,0:0:0:0:
312,128,51982,1,0,0:0:0:0:
236,128,52795,2,0,L|224:232,2,104.999995231629
56,208,55932,6,0,L|380:204,1,314.999985694885
56,144,58873,2,0,L|476:160,1,419.999980926514
156,200,62206,6,0,B|248:192|248:192|244:96|244:96|348:92|348:92|348:152,1,314.999985694885
216,88,65148,6,0,P|288:148|212:88,1,419.999980926514
336,60,66324,6,0,P|420:144|344:176,1,209.999990463257
80,152,67276,1,0,0:0:0:0:
236,144,67570,1,0,0:0:0:0:
476,228,68060,1,0,0:0:0:0:
264,228,68453,1,0,0:0:0:0:
396,148,69335,6,0,L|264:156,1,104.999995231629
108,148,69923,2,0,L|296:136,1,157.499992847443
116,248,70638,1,0,0:0:0:0:
208,240,70834,1,0,0:0:0:0:
332,244,71128,1,0,0:0:0:0:
264,116,71394,1,0,0:0:0:0:
132,204,71688,5,0,0:0:0:0:
376,216,71912,2,0,L|172:208,1,157.499992847443
80,132,72500,1,0,0:0:0:0:
272,88,72864,1,0,0:0:0:0:
188,196,73159,1,0,0:0:0:0:
100,188,73971,6,0,L|292:184,1,157.499992847443
104,172,75540,5,0,0:0:0:0:
208,156,75736,1,0,0:0:0:0:
332,156,75932,1,0,0:0:0:0:
176,328,76198,6,0,L|292:184,1,157.499992847443
56,160,76912,1,0,0:0:0:0:
244,156,77108,1,0,0:0:0:0:
348,164,77304,1,0,0:0:0:0:
252,244,77599,5,0,0:0:0:0:
312,160,77795,1,0,0:0:0:0:
184,160,77991,1,0,0:0:0:0:
244,88,78187,2,0,L|232:208,2,104.999995231629
120,168,79167,6,0,L|316:184,1,157.499992847443
252,80,79657,1,0,0:0:0:0:
176,80,80049,2,0,P|272:208|308:184,1,209.999990463257
328,120,80736,2,0,B|424:152|388:256|432:96,1,157.499992847443
76,120,81226,6,0,B|284:196|308:176|312:80,1,262.499988079071
220,84,82010,2,0,P|368:60|368:232,1,367.4999833107
168,60,83187,1,0,0:0:0:0:
332,132,83481,1,0,0:0:0:0:
412,200,83677,1,0,0:0:0:0:
288,224,83845,6,0,L|204:104,2,104.999995231629
288,172,84923,1,0,0:0:0:0:
176,160,85119,1,0,0:0:0:0:
268,112,85315,1,0,0:0:0:0:
208,260,85609,1,0,0:0:0:0:
96,64,86226,2,0,P|280:96|324:224,1,314.999985694885
128,164,87080,6,0,L|232:160,1,104.999995231629
260,132,87991,1,0,0:0:0:0:
232,252,88187,1,0,0:0:0:0:
260,148,88355,6,0,L|252:332,1,157.499992847443
76,196,89041,6,0,L|260:204,1,157.499992847443
264,320,89559,1,0,0:0:0:0:
384,160,89853,1,0,0:0:0:0:
256,48,90148,1,0,0:0:0:0:
164,108,90442,6,0,L|328:96,1,157.499992847443
352,136,90834,6,0,B|272:224|164:140|172:180,1,157.499992847443
76,260,91422,1,0,0:0:0:0:
264,292,91688,1,0,0:0:0:0:
368,140,92080,1,0,0:0:0:0:
236,160,92374,1,0,0:0:0:0:
296,288,92668,6,0,B|136:196|252:100|268:100,3,209.999990463257
292,100,94461,1,0,0:0:0:0:
212,196,94657,1,0,0:0:0:0:
152,264,95049,6,0,B|324:252|472:152|424:160,1,314.999985694885
224,164,96198,2,0,L|304:152,3,52.4999976158143
208,116,96912,1,0,0:0:0:0:
332,124,97304,1,0,0:0:0:0:
220,244,97893,5,0,0:0:0:0:
304,68,98285,2,0,L|232:172,1,104.999995231629
172,124,98747,1,0,0:0:0:0:
160,308,99069,6,0,B|352:184|408:112|428:200,1,314.999985694885
184,132,100049,2,0,P|328:96|344:104,2,157.499992847443
112,208,100834,1,0,0:0:0:0:
252,176,101492,1,0,0:0:0:0:
288,44,101786,6,0,L|120:80,1,157.499992847443
100,180,102276,2,0,L|288:136,1,157.499992847443
296,212,102668,2,0,L|100:260,1,157.499998855591
76,256,103089,2,0,L|104:88,1,157.499992847443
116,144,104167,5,0,0:0:0:0:
348,188,104461,1,0,0:0:0:0:
180,200,104657,5,0,0:0:0:0:
260,80,104951,1,0,0:0:0:0:
124,100,105119,2,0,B|280:216|304:200|332:188,2,236.249998283386
260,92,105932,1,0,0:0:0:0:
376,116,106128,1,0,0:0:0:0:
348,272,106324,6,0,P|216:184|248:172,1,314.999997711182
260,204,107108,2,0,P|168:76|108:132,1,236.249998283386
144,136,107991,1,0,0:0:0:0:
428,128,108383,1,0,0:0:0:0:
256,140,108579,1,0,0:0:0:0:
216,60,108873,6,0,P|204:212|264:188,2,236.249998283386
324,132,109951,1,0,0:0:0:0:
232,108,110442,1,0,0:0:0:0:
236,264,110638,1,0,0:0:0:0:
308,140,111030,6,0,L|72:228,1,236.249998283386
72,168,111618,2,0,P|216:88|384:84,1,314.999997711182
100,144,113089,1,0,0:0:0:0:
320,136,113383,1,0,0:0:0:0:
192,88,113649,6,0,L|340:224,1,157.499998855591
192,248,114041,2,0,P|136:188|204:192,1,157.499998855591
292,168,114433,2,0,L|296:264,3,78.7499994277955
296,144,115246,6,0,L|176:176,1,78.7499994277955
124,128,116590,1,0,0:0:0:0:
348,128,116884,1,0,0:0:0:0:
100,292,117276,1,0,0:0:0:0:
232,136,117795,6,0,L|224:232,2,78.7499994277955
140,128,118285,2,0,P|208:56|300:148,1,236.249998283386
156,144,119363,1,0,0:0:0:0:
300,144,119559,1,0,0:0:0:0:
248,116,120021,6,0,L|232:276,1,157.499998855591
200,148,120806,1,0,0:0:0:0:
428,128,121100,1,0,0:0:0:0:
284,204,121296,1,0,0:0:0:0:
88,96,121590,6,0,L|264:172,1,157.499998855591
288,120,122500,1,0,0:0:0:0:
112,116,122697,1,0,0:0:0:0:
380,240,122962,1,0,0:0:0:0:
120,204,123285,6,0,L|328:160,1,157.499998855591
160,128,123971,1,0,0:0:0:0:
328,136,124167,1,0,0:0:0:0:
124,228,124363,6,0,L|356:128,1,236.249998283386
136,164,125638,1,0,0:0:0:0:
300,164,125834,1,0,0:0:0:0:
216,104,126226,1,0,0:0:0:0:
184,280,126394,6,0,L|336:180,2,157.499998855591
124,136,126982,2,0,B|296:60|324:208|264:244,1,236.249998283386
304,132,127795,1,0,0:0:0:0:
112,148,128089,1,0,0:0:0:0:
220,120,131198,6,0,P|152:184|216:116,1,262.499988079071
164,232,134335,6,0,P|96:296|160:228,1,262.499988079071
396,224,137472,6,0,P|328:288|392:220,1,262.499988079071
420,60,140413,6,0,P|352:124|416:56,1,262.499988079071
