osu file format v14

[General]
AudioFilename: audio.mp3
AudioLeadIn: 0
PreviewTime: 96623
Countdown: 0
SampleSet: Soft
StackLeniency: 0.5
Mode: 0
LetterboxInBreaks: 0
WidescreenStoryboard: 1

[Editor]
DistanceSpacing: 0.2
BeatDivisor: 8
GridSize: 32
TimelineZoom: 1.2

[Metadata]
Title:No Mercy (feat. BlackGryphon & LittleJayneyCakes)
TitleUnicode:No Mercy (feat. BlackGryphon & LittleJayneyCakes)
Artist:The Living Tombstone
ArtistUnicode:The Living Tombstone
Creator:Sylas
Version:schoolboy's Extra
Source:
Tags:mimari kujinn reform schoolboy komore overwatch english video game pop alternative indie tiktok maybe i'll ill be tracer thekoala
BeatmapID:2886714
BeatmapSetID:1383165

[Difficulty]
HPDrainRate:5
CircleSize:3.8
OverallDifficulty:7.4
ApproachRate:9
SliderMultiplier:3
SliderTickRate:1

[Events]
//Background and Video events
0,0,"wu-xiandeng-01.jpg",0,0
Video,-1324,"video.mp4"
//Break Periods
2,38536,41016
//Storyboard Layer 0 (Background)
//Storyboard Layer 1 (Fail)
//Storyboard Layer 2 (Pass)
//Storyboard Layer 3 (Foreground)
//Storyboard Layer 4 (Overlay)
//Storyboard Sound Samples

[TimingPoints]
9194,571.428571428571,4,2,1,50,1,0
9194,-125,4,2,1,50,0,0
27479,-100,4,2,1,80,0,0
37765,-66.6666666666667,4,2,1,50,0,0
41766,571.428571428571,4,2,1,50,1,0
41766,-166.666666666667,4,2,1,50,0,0
59194,-166.666666666667,4,2,1,40,0,0
60051,-100,4,2,1,80,0,0
77765,-66.6666666666667,4,2,1,80,0,0
78265,-66.6666666666667,4,2,1,5,0,0
78337,-100,4,2,1,70,0,0
96623,-133.333333333333,4,2,1,55,0,0
96765,-133.333333333333,4,2,1,35,0,0
102337,-133.333333333333,4,2,1,35,0,0
103480,-133.333333333333,4,2,1,35,0,0
114337,-133.333333333333,4,2,1,50,0,0
114908,-100,4,2,1,80,0,0
132623,-333.333333333333,4,2,1,80,0,0
133123,-333.333333333333,4,2,1,5,0,0
133194,-100,4,2,1,70,0,0
150908,-250,4,2,1,70,0,0
151051,-250,4,2,1,70,0,0
151479,-250,4,2,1,5,0,0

[Colours]
Combo1 : 148,146,218
Combo2 : 231,214,116
Combo3 : 221,157,87
Combo4 : 233,160,188
Combo5 : 213,115,162
Combo6 : 124,184,216

[HitObjects]
138,210,9194,70,0,P|125:151|112:92,1,120,12|2,0:2|0:0,0:0:0:0:
197,74,9765,2,0,P|209:132|222:191,1,120,10|2,0:2|0:0,0:0:0:0:
7,316,10194,1,2,0:0:0:0:
7,316,10336,6,0,B|67:307|67:307|113:361,1,120,8|2,0:2|0:0,0:0:0:0:
14,128,10908,2,0,B|74:137|74:137|120:83,1,120,10|2,0:2|0:0,0:0:0:0:
170,25,11336,1,2,0:0:0:0:
170,25,11479,70,0,P|269:43|314:53,1,120,8|2,0:2|0:0,0:0:0:0:
450,192,12051,2,0,P|469:134|403:96,1,120,10|2,0:2|0:0,0:0:0:0:
203,265,12479,1,2,0:0:0:0:
203,265,12622,1,8,0:2:0:0:
385,347,12908,5,2,0:0:0:0:
266,202,13193,2,0,B|175:188|191:254|89:240,1,180,10|0,0:2|0:0,0:0:0:0:
26,189,13765,70,0,P|39:122|93:108,1,120,10|2,0:2|0:0,0:0:0:0:
257,315,14336,2,0,P|220:357|138:334,1,120,10|2,0:2|0:0,0:0:0:0:
88,319,14765,1,2,0:0:0:0:
88,319,14908,1,8,0:2:0:0:
349,197,15193,2,0,P|409:206|475:219,2,120,2|10|2,0:0|0:2|0:0,0:0:0:0:
279,145,15908,1,2,0:0:0:0:
279,145,16051,6,0,P|269:85|260:26,1,120,8|2,0:2|0:0,0:0:0:0:
61,218,16622,2,0,B|46:277|46:277|89:320,1,120,10|2,0:2|0:0,0:0:0:0:
162,369,17051,1,2,0:0:0:0:
162,369,17193,70,0,P|217:322|270:333,1,120,8|0,0:2|0:0,0:0:0:0:
501,177,17765,2,0,P|463:217|377:197,1,120,8|8,0:2|0:2,0:0:0:0:
286,60,18193,1,0,0:0:0:0:
286,60,18336,6,0,P|323:75|331:163,1,120,8|2,0:2|0:0,0:0:0:0:
187,349,18908,2,0,P|173:276|234:245,1,120,10|2,0:2|0:0,0:0:0:0:
288,216,19336,1,2,0:0:0:0:
288,216,19479,70,0,P|372:236|424:250,1,120,8|2,0:2|0:0,0:0:0:0:
193,31,20051,2,0,B|153:74|153:74|68:58,1,120,10|2,0:2|0:0,0:0:0:0:
18,22,20479,1,2,0:0:0:0:
18,22,20622,6,0,P|39:118|49:165,1,120,8|2,0:2|0:0,0:0:0:0:
158,370,21193,2,0,P|171:279|186:234,1,120,10|2,0:2|0:0,0:0:0:0:
253,205,21622,1,2,0:0:0:0:
253,205,21765,70,0,P|316:211|350:269,1,120,8|2,0:2|0:0,0:0:0:0:
512,0,22336,2,0,P|475:45|417:48,1,120,10|0,0:2|0:0,0:0:0:0:
417,48,22908,6,0,B|460:87|460:87|446:180,1,120,10|2,0:2|0:0,0:0:0:0:
306,369,23479,2,0,B|263:330|263:330|277:237,1,120,10|2,0:2|0:0,0:0:0:0:
195,223,23908,1,2,0:0:0:0:
195,223,24051,2,0,P|139:237|79:252,1,120,8|2,0:2|0:0,0:0:0:0:
234,24,24622,2,0,P|297:27|328:112,1,120,10|2,0:2|0:0,0:0:0:0:
372,150,25051,1,2,0:0:0:0:
372,150,25193,70,0,P|435:147|466:62,1,120,8|2,0:2|0:0,0:0:0:0:
314,363,25765,2,0,P|296:268|278:207,1,120,10|2,0:2|0:0,0:0:0:0:
251,163,26193,1,2,0:0:0:0:
210,338,26336,1,8,0:2:0:0:
104,13,26765,1,0,0:0:0:0:
44,93,26908,5,10,1:2:0:0:
186,51,27051,1,2,0:0:0:0:
44,93,27193,1,2,0:0:0:0:
186,51,27479,70,0,P|240:110|312:109,1,150,6|0,1:2|0:0,0:0:0:0:
374,156,27908,1,2,0:0:0:0:
479,199,28051,2,0,P|459:128|450:48,1,150,8|0,0:0|0:0,0:0:0:0:
349,250,28479,1,0,0:0:0:0:
275,306,28622,2,0,B|313:317|329:355|329:355|358:327|397:330,1,150,0|0,1:2|0:0,0:0:0:0:
349,250,29051,1,2,0:0:0:0:
224,384,29193,5,10,0:0:0:0:
139,210,29336,1,2,0:0:0:0:
224,384,29479,1,2,1:2:0:0:
139,210,29765,70,0,P|143:139|211:122,1,150,2|2,1:2|0:0,0:0:0:0:
365,266,30193,2,0,P|289:259|292:171,1,150,2|2,1:2|0:0,0:0:0:0:
390,96,30622,1,2,1:2:0:0:
511,295,30908,6,0,B|430:272|448:287|364:265,1,150,2|0,1:2|0:0,0:0:0:0:
285,316,31336,1,2,0:0:0:0:
274,197,31479,69,10,0:0:0:0:
359,370,31622,1,2,0:0:0:0:
274,197,31765,1,2,1:2:0:0:
274,197,32051,6,0,P|283:122|293:48,1,150,2|0,1:2|0:0,0:0:0:0:
85,234,32479,2,0,B|123:245|139:283|139:283|168:255|207:258,1,150,2|0,0:0|0:0,0:0:0:0:
167,172,32908,1,2,0:0:0:0:
167,172,33051,1,2,0:0:0:0:
218,343,33193,70,0,P|273:342|315:377,1,112.5,2|2,1:2|0:0,0:0:0:0:
402,169,33622,2,0,P|423:98|429:76,1,75,2|8,0:0|0:0,0:0:0:0:
512,88,33908,1,2,0:0:0:0:
414,88,34051,2,0,L|395:15,1,75,2|0,1:2|0:0,0:0:0:0:
511,257,34336,6,0,P|481:233|445:224,1,75,2|0,1:2|0:0,0:0:0:0:
230,327,34622,1,2,0:0:0:0:
300,370,34765,2,0,P|335:356|357:326,1,75,2|8,1:2|0:0,0:0:0:0:
164,154,35051,1,2,0:0:0:0:
97,206,35193,2,0,L|74:363,2,150,2|0|0,1:2|1:2|0:0,0:0:0:0:
171,244,35908,1,2,0:0:0:0:
127,72,36051,69,10,0:0:0:0:
8,197,36193,1,2,0:0:0:0:
171,244,36336,1,2,1:2:0:0:
171,244,36622,6,0,B|252:221|234:236|318:214,1,150,2|0,1:2|1:2,0:0:0:0:
372,155,37051,1,2,0:0:0:0:
461,326,37193,2,0,P|503:282|457:205,1,150,0|2,0:0|0:0,0:0:0:0:
209,333,37765,70,0,B|245:345|245:345|262:339|262:339|280:344|280:344|294:338|294:338|307:345|307:345|336:355|336:355|353:343|353:343|357:359|357:359|357:371|357:371|375:370|375:370|382:381|382:381|410:394,2,225.000008583069,2|0|0,1:2|0:0|0:0,0:0:0:0:
20,287,41766,54,0,B|126:283|72:345|198:339,1,179.999994506836,0|2,0:0|0:0,0:0:0:0:
498,139,42908,2,0,P|408:122|322:102,1,179.999994506836,0|2,0:0|0:0,0:0:0:0:
244,70,43766,1,2,0:0:0:0:
314,26,44051,6,0,P|358:51|353:190,1,179.999994506836,0|2,0:0|0:0,0:0:0:0:
119,366,45194,2,0,P|110:279|175:222,1,179.999994506836,0|2,0:0|0:0,0:0:0:0:
451,354,46337,70,0,P|397:306|286:318,1,179.999994506836,2|2,0:0|0:0,0:0:0:0:
230,360,47194,1,0,0:0:0:0:
162,316,47480,2,0,P|173:212|175:110,1,179.999994506836,0|2,0:0|0:0,0:0:0:0:
114,85,48337,1,2,0:0:0:0:
103,170,48623,6,0,B|210:178|162:114|281:118,1,179.999994506836,0|2,0:0|0:0,0:0:0:0:
476,365,49765,2,0,P|459:305|334:273,1,179.999994506836
306,330,50908,70,0,B|321:266|321:266|355:238|355:238|371:152,1,179.999994506836,0|2,0:0|0:0,0:0:0:0:
65,13,52051,2,0,B|80:77|80:77|114:105|114:105|126:174,1,179.999994506836,0|2,0:0|0:0,0:0:0:0:
134,259,52908,1,2,0:0:0:0:
55,228,53194,6,0,B|125:168|125:168|207:204,1,179.999994506836,0|2,0:0|0:0,0:0:0:0:
511,95,54337,2,0,B|430:130|430:130|360:70,1,179.999994506836,0|2,0:0|0:0,0:0:0:0:
360,70,55480,70,0,B|294:81|294:81|262:112|262:112|188:122,1,179.999994506836,2|2,0:0|0:0,0:0:0:0:
125,77,56337,1,2,0:0:0:0:
184,134,56623,2,0,B|250:145|250:145|282:176|282:176|356:186,1,179.999994506836,0|2,0:0|0:0,0:0:0:0:
478,88,57480,1,2,0:0:0:0:
478,88,57623,1,2,0:0:0:0:
492,103,58051,5,2,0:0:0:0:
492,103,58337,1,2,0:0:0:0:
492,103,58623,69,2,0:0:0:0:
492,103,58766,1,2,0:0:0:0:
506,119,59194,5,2,0:0:0:0:
506,119,59337,1,2,0:0:0:0:
506,119,59480,1,2,0:0:0:0:
506,119,59623,1,2,0:0:0:0:
504,113,59765,1,2,0:0:0:0:
506,119,60051,70,0,P|450:57|367:62,1,150,6|0,1:2|0:0,0:0:0:0:
262,171,60480,1,2,0:0:0:0:
279,87,60623,2,0,B|297:-6|297:-6|300:62,1,150,8|0,0:0|0:0,0:0:0:0:
262,171,61051,1,0,0:0:0:0:
242,252,61194,2,0,B|224:345|224:345|221:277,1,150,0|2,1:2|0:0,0:0:0:0:
262,171,61623,1,2,0:0:0:0:
325,279,61765,5,10,0:0:0:0:
162,186,61908,1,2,0:0:0:0:
332,106,62051,1,2,1:2:0:0:
332,106,62337,70,0,P|409:88|448:14,1,150,2|2,1:2|0:0,0:0:0:0:
512,267,62765,2,0,P|474:184|389:203,1,150,2|2,1:2|0:0,0:0:0:0:
345,230,63194,1,2,1:2:0:0:
418,170,63480,5,2,1:2:0:0:
345,230,63623,2,0,B|255:212|284:240|180:215,1,150,0|2,0:0|0:0,0:0:0:0:
42,95,64051,1,10,0:0:0:0:
87,254,64194,1,2,0:0:0:0:
102,43,64337,1,2,1:2:0:0:
102,43,64623,70,0,B|192:25|163:53|267:28,1,150,2|0,1:2|0:0,0:0:0:0:
370,153,65051,2,0,B|280:135|309:163|205:138,1,150,2|0,0:0|0:0,0:0:0:0:
149,202,65480,2,0,P|125:230|142:276,1,75,2|2,0:0|0:0,0:0:0:0:
274,375,65765,6,0,B|299:361|313:316|287:281|287:281|232:264,1,150,2|2,1:2|0:0,0:0:0:0:
245,268,66194,2,0,P|302:262|327:230,1,75,2|8,0:0|0:0,0:0:0:0:
376,183,66480,1,2,0:0:0:0:
310,120,66623,2,0,L|295:46,1,75,2|0,1:2|0:0,0:0:0:0:
501,174,66908,70,0,P|496:218|443:237,1,75,2|0,1:2|0:0,0:0:0:0:
320,373,67194,1,2,0:0:0:0:
267,306,67337,2,0,P|275:266|312:245,1,75,2|8,1:2|0:0,0:0:0:0:
376,304,67623,1,2,0:0:0:0:
195,364,67765,2,0,B|120:356|136:381|45:370,2,150,2|0|0,1:2|1:2|0:0,0:0:0:0:
267,306,68480,1,2,0:0:0:0:
152,249,68623,37,10,0:0:0:0:
400,325,68765,1,2,0:0:0:0:
152,249,68908,1,2,1:2:0:0:
152,249,69194,70,0,P|135:177|124:64,1,150,6|0,1:2|1:2,0:0:0:0:
206,80,69623,1,2,0:0:0:0:
232,302,69765,2,0,B|194:313|178:351|178:351|149:323|110:326,1,150,8|2,0:0|0:0,0:0:0:0:
256,192,70194,1,0,0:0:0:0:
315,262,70337,2,0,B|353:273|369:311|369:311|398:283|437:286,1,150,2|2,1:2|0:0,0:0:0:0:
256,192,70765,1,2,0:0:0:0:
325,137,70908,53,10,0:0:0:0:
256,352,71051,1,2,0:0:0:0:
187,137,71194,1,2,1:2:0:0:
187,137,71480,6,0,P|187:68|259:49,1,150,2|2,1:2|0:0,0:0:0:0:
324,262,71908,2,0,P|324:331|252:350,1,150,2|2,1:2|0:0,0:0:0:0:
390,197,72337,2,0,P|425:211|460:222,1,75,2|0,1:2|0:0,0:0:0:0:
189,282,72623,70,0,P|114:291|44:317,1,150,2|0,1:2|0:0,0:0:0:0:
97,202,73051,1,2,0:0:0:0:
141,384,73194,37,10,0:0:0:0:
97,202,73337,1,2,0:0:0:0:
277,255,73480,1,2,1:2:0:0:
277,255,73765,70,0,B|337:244|337:244|358:223|358:223|439:204,1,150,2|0,1:2|0:0,0:0:0:0:
512,141,74194,2,0,B|452:130|452:130|431:109|431:109|350:90,1,150,2|0,0:0|0:0,0:0:0:0:
415,209,74623,2,0,L|445:293,1,75,2|2,0:0|0:0,0:0:0:0:
270,384,74908,6,0,B|246:354|251:307|296:294|296:294|271:322|274:356,1,150,2|2,1:2|0:0,0:0:0:0:
277,326,75337,2,0,P|243:324|203:284,1,75,2|8,0:0|0:0,0:0:0:0:
125,192,75623,1,2,0:0:0:0:
51,361,75765,2,0,P|91:361|125:329,1,75,2|0,1:2|1:2,0:0:0:0:
253,132,76051,38,0,L|273:21,1,75,10|0,0:0|0:0,0:0:0:0:
338,275,76337,1,2,1:2:0:0:
413,241,76480,1,2,1:2:0:0:
338,275,76623,2,0,L|318:386,1,75,8|2,0:0|0:0,0:0:0:0:
253,132,76908,1,2,1:2:0:0:
178,166,77051,1,0,1:2:0:0:
253,132,77194,2,0,L|273:21,1,75,8|0,0:0|0:0,0:0:0:0:
338,275,77480,5,0,1:2:0:0:
266,58,77623,69,0,0:0:0:0:
350,266,77765,6,0,B|439:254|481:311|479:382|479:382|438:258|286:277,1,393.750015020371,14|0,0:0|0:0,0:0:0:0:
337,274,78337,38,0,P|263:287|194:316,1,150,6|0,1:2|0:0,0:0:0:0:
117,346,78765,1,0,0:0:0:0:
39,311,78908,2,0,B|38:293|58:270|58:270|33:271|6:311|26:358,1,150,8|0,0:0|0:0,0:0:0:0:
349,58,79480,6,0,B|436:62|407:85|496:80,1,150,2|2,1:2|0:0,0:0:0:0:
297,207,79908,1,0,0:0:0:0:
212,188,80051,2,0,B|133:201|158:216|63:211,1,150,10|2,0:0|0:0,0:0:0:0:
10,143,80480,1,0,0:0:0:0:
10,143,80623,70,0,P|27:70|45:-2,2,150,2|0|8,1:2|0:0|0:0,0:0:0:0:
229,376,81480,2,0,P|220:330|187:318,1,75,2|0,1:2|0:0,0:0:0:0:
132,258,81765,2,0,L|53:278,1,75,0|0,1:2|0:0,0:0:0:0:
246,61,82051,2,0,L|362:90,1,75,2|0,0:0|0:0,0:0:0:0:
406,105,82337,2,0,P|454:84|460:-9,1,150,10|2,0:0|0:0,0:0:0:0:
340,169,82765,1,0,0:0:0:0:
363,258,82908,6,0,B|418:273|461:246|461:246|507:257,1,150,2|2,1:2|0:0,0:0:0:0:
340,169,83337,1,0,0:0:0:0:
350,259,83480,2,0,P|343:295|312:316,1,75,10|0,0:0|0:0,0:0:0:0:
276,112,83765,2,0,L|261:32,2,75,2|0|0,0:0|0:0|1:2,0:0:0:0:
275,111,84337,70,0,L|289:38,2,75,2|0|10,0:0|0:0|0:0,0:0:0:0:
223,371,84908,1,2,0:0:0:0:
223,371,85194,6,0,P|208:288|230:282,1,75,2|0,1:2|0:0,0:0:0:0:
140,182,85480,2,0,P|114:213|120:253,1,75,2|0,0:0|0:0,0:0:0:0:
282,306,85765,70,0,L|355:291,1,75,10|0,0:0|0:0,0:0:0:0:
361,184,86051,2,0,B|422:203|422:203|439:229|439:229|496:249,1,150,2|2,0:0|1:2,0:0:0:0:
411,99,86480,5,0,0:0:0:0:
355,291,86623,1,0,0:0:0:0:
411,99,86765,1,0,1:2:0:0:
260,176,86908,69,10,0:0:0:0:
490,247,87051,1,2,0:0:0:0:
260,176,87193,1,2,0:0:0:0:
260,176,87480,6,0,P|246:92|238:13,1,150,6|0,1:2|0:0,0:0:0:0:
63,56,87908,1,0,0:0:0:0:
150,40,88051,2,0,P|164:124|172:203,1,150,8|0,0:0|0:0,0:0:0:0:
3,352,88480,1,0,0:0:0:0:
3,352,88623,70,0,P|21:281|124:313,1,150,2|2,1:2|0:0,0:0:0:0:
509,32,89194,2,0,P|491:103|388:71,1,150,10|2,0:0|0:0,0:0:0:0:
350,65,89623,1,0,0:0:0:0:
350,65,89765,6,0,P|312:43|265:49,1,75,2|0,1:2|0:0,0:0:0:0:
236,348,90051,1,0,0:0:0:0:
268,51,90337,70,0,P|291:77|291:132,1,75,8|0,0:0|0:0,0:0:0:0:
161,302,90623,2,0,B|118:311|90:277|90:277|57:272|57:272|13:307,1,150,2|0,1:2|1:2,0:0:0:0:
296,115,91194,5,2,0:0:0:0:
236,348,91480,2,0,B|195:313|201:265|201:265|214:238|214:238|252:218,1,150,10|2,0:0|0:0,0:0:0:0:
314,198,91908,1,0,0:0:0:0:
314,198,92051,70,0,L|392:219,1,75,2|0,1:2|0:0,0:0:0:0:
502,8,92337,2,0,P|489:37|419:65,1,75,2|0,0:0|0:0,0:0:0:0:
496,316,92623,6,0,P|496:273|465:238,1,75,10|0,0:0|0:0,0:0:0:0:
381,19,92908,2,0,B|335:16|335:16|307:83|242:79,1,150,2|0,0:0|1:2,0:0:0:0:
184,42,93337,1,0,0:0:0:0:
184,42,93480,70,0,P|159:85|167:136,1,75,2|0,0:0|0:0,0:0:0:0:
257,225,93765,2,0,P|254:188|232:158,1,75,10|0,0:0|0:0,0:0:0:0:
69,105,94051,2,0,B|39:104|17:115|17:115|64:90,1,75,2|0,0:0|0:0,0:0:0:0:
246,336,94337,6,0,P|321:346|389:376,2,150,2|2|10,1:2|0:0|0:0,0:0:0:0:
41,382,95194,2,0,B|-17:293|66:228|126:237|147:296|147:296|112:310|100:343,1,300,2|0,0:0|0:0,0:0:0:0:
105,330,96051,69,10,0:0:0:0:
221,103,96194,5,2,0:0:0:0:
320,365,96337,37,2,0:0:0:0:
320,365,96623,2,0,P|366:351|418:355,1,56.2500021457673,6|0,0:0|0:0,0:0:0:0:
489,309,96908,2,0,P|464:293|435:290,1,56.2500021457673,2|0,0:0|0:0,0:0:0:0:
371,235,97194,2,0,P|358:175|340:87,1,112.500004291535,0|2,0:0|0:0,0:0:0:0:
347,124,97765,53,0,0:0:0:0:
418,75,97908,1,0,0:0:0:0:
341,40,98051,1,2,0:0:0:0:
372,87,98194,1,0,0:0:0:0:
372,87,98337,5,0,0:0:0:0:
144,50,98623,1,2,0:0:0:0:
144,50,98908,6,0,P|117:71|114:121,1,56.2500021457673
61,174,99194,2,0,P|35:140|35:115,1,56.2500021457673,2|0,0:0|0:0,0:0:0:0:
152,169,99480,5,0,0:0:0:0:
115,243,99623,1,0,0:0:0:0:
166,177,99765,1,2,0:0:0:0:
129,251,99908,1,0,0:0:0:0:
101,335,100051,38,0,P|128:335|165:354,1,56.2500021457673
227,278,100337,2,0,P|242:255|269:248,1,56.2500021457673,2|0,0:0|0:0,0:0:0:0:
313,318,100623,2,0,P|298:341|272:349,1,56.2500021457673
353,242,100908,1,2,0:0:0:0:
353,242,101051,1,0,0:0:0:0:
394,312,101194,22,0,P|432:323|483:359,1,56.2500021457673
484,219,101480,2,0,P|446:208|395:172,1,56.2500021457673,2|0,0:0|0:0,0:0:0:0:
369,144,101765,2,0,L|343:4,1,112.500004291535,0|2,0:0|0:0,0:0:0:0:
348,33,102337,54,0,B|391:35|392:36|411:65|411:65|431:56|441:31,1,112.500004291535,0|2,0:0|0:0,0:0:0:0:
257,100,102765,2,0,B|234:101|234:101|180:141|181:168|140:134,1,112.500004291535
336,187,103194,2,0,B|355:208|355:208|348:212|348:212|328:207|319:264,1,56.2500021457673,2|0,0:0|0:0,0:0:0:0:
275,284,103480,38,0,P|221:295|175:327,1,112.500004291535,0|2,0:0|0:0,0:0:0:0:
125,253,103908,1,0,0:0:0:0:
43,282,104051,2,0,P|3:306|19:383,1,112.500004291535,0|2,0:0|0:0,0:0:0:0:
125,253,104623,38,0,P|125:217|99:185,1,56.2500021457673
67,101,104908,2,0,P|50:124|51:170,1,56.2500021457673,2|0,0:0|0:0,0:0:0:0:
204,203,105194,2,0,P|262:176|329:191,1,112.500004291535,0|2,0:0|0:0,0:0:0:0:
308,181,105765,38,0,P|316:137|340:117,1,56.2500021457673
362,250,106051,1,2,0:0:0:0:
362,250,106194,1,0,0:0:0:0:
433,205,106337,70,0,L|487:217,1,56.2500021457673
508,129,106623,2,0,L|454:117,1,56.2500021457673,2|0,0:0|0:0,0:0:0:0:
348,5,106908,53,0,0:0:0:0:
257,21,107051,1,0,0:0:0:0:
278,111,107194,1,2,0:0:0:0:
369,95,107337,1,0,0:0:0:0:
257,21,107480,6,0,P|210:14|179:0,1,56.2500021457673
98,103,107765,2,0,P|145:96|176:82,1,56.2500021457673,2|0,0:0|0:0,0:0:0:0:
31,38,108051,5,0,0:0:0:0:
31,38,108194,1,0,0:0:0:0:
31,38,108337,1,2,0:0:0:0:
31,38,108480,1,0,0:0:0:0:
31,38,108623,6,0,B|80:68|70:127|70:127|44:220,1,168.750006437302
50,208,109194,38,0,P|91:222|117:246,1,56.2500021457673
164,299,109480,2,0,P|123:313|97:337,1,56.2500021457673,2|0,0:0|0:0,0:0:0:0:
42,361,109765,1,0,0:0:0:0:
42,361,109908,1,0,0:0:0:0:
42,361,110051,2,0,P|22:334|47:307,1,56.2500021457673,2|0,0:0|0:0,0:0:0:0:
171,289,110337,22,0,P|210:299|248:306,1,56.2500021457673
277,234,110623,1,2,0:0:0:0:
277,234,110765,1,0,0:0:0:0:
348,287,110908,2,0,P|357:327|292:393,1,112.500004291535,0|2,0:0|0:0,0:0:0:0:
277,234,111480,54,0,P|292:162|336:145,1,112.500004291535,0|2,0:0|0:0,0:0:0:0:
343,62,111908,1,0,0:0:0:0:
343,62,112051,1,0,0:0:0:0:
402,125,112194,2,0,P|491:142|531:149,1,112.500004291535
509,170,112623,21,0,0:0:0:0:
256,320,112908,1,2,0:0:0:0:
3,170,113194,1,0,0:0:0:0:
3,170,113480,54,0,P|13:136|42:121,1,56.2500021457673
70,106,113694,1,0,0:0:0:0:
68,98,113765,2,0,L|56:37,2,56.2500021457673
173,347,114337,21,10,1:2:0:0:
243,144,114480,1,10,1:2:0:0:
173,347,114623,1,2,1:2:0:0:
243,144,114908,6,0,B|249:117|276:105|307:115|307:115|329:151|366:153,1,150,6|0,1:2|0:0,0:0:0:0:
436,98,115337,1,2,0:0:0:0:
373,162,115480,2,0,L|399:-8,1,150,8|0,0:0|0:0,0:0:0:0:
508,204,115908,1,0,0:0:0:0:
349,302,116051,2,0,L|372:154,1,150,0|2,1:2|0:0,0:0:0:0:
423,366,116480,1,2,0:0:0:0:
252,267,116623,37,10,0:0:0:0:
500,328,116765,1,2,0:0:0:0:
252,267,116908,1,2,1:2:0:0:
252,267,117194,6,0,B|194:277|194:277|159:267|159:267|105:279,1,150,2|2,1:2|0:0,0:0:0:0:
0,161,117623,2,0,B|58:171|58:171|93:161|93:161|146:173,1,150,2|2,1:2|0:0,0:0:0:0:
17,306,118051,1,2,1:2:0:0:
17,306,118337,5,2,1:2:0:0:
86,365,118480,2,0,B|107:369|107:369|290:347,1,150,0|2,0:0|0:0,0:0:0:0:
404,179,118908,1,10,0:0:0:0:
209,238,119051,1,2,0:0:0:0:
358,378,119194,1,2,1:2:0:0:
358,378,119480,6,0,P|450:339|457:265,1,150,2|0,1:2|0:0,0:0:0:0:
279,155,119908,2,0,P|371:194|378:268,1,150,2|0,0:0|0:0,0:0:0:0:
312,298,120337,2,0,P|275:300|245:325,1,75,2|2,0:0|0:0,0:0:0:0:
43,338,120623,70,0,B|98:322|98:322|116:378|197:389,1,150,2|2,1:2|0:0,0:0:0:0:
164,382,121051,2,0,L|143:285,1,75,2|0,0:0|0:0,0:0:0:0:
107,95,121337,1,2,0:0:0:0:
188,153,121480,2,0,L|203:226,1,75,2|0,1:2|0:0,0:0:0:0:
30,288,121765,54,0,P|44:247|89:233,1,75,2|0,1:2|0:0,0:0:0:0:
253,61,122051,1,2,0:0:0:0:
172,86,122194,2,0,P|169:130|198:158,1,75,2|8,1:2|0:0,0:0:0:0:
451,278,122480,1,2,0:0:0:0:
377,323,122623,2,0,B|300:330|300:330|299:332|299:332|197:340,2,150,2|0|2,1:2|1:2|0:0,0:0:0:0:
451,278,123337,1,2,0:0:0:0:
494,140,123480,5,10,0:0:0:0:
376,323,123623,1,2,0:0:0:0:
282,140,123765,1,2,1:2:0:0:
282,140,124051,70,0,P|279:78|374:87,1,150,6|0,1:2|1:2,0:0:0:0:
272,271,124480,1,2,0:0:0:0:
209,320,124623,2,0,P|133:349|53:336,1,150,8|2,0:0|0:0,0:0:0:0:
5,242,125051,1,0,0:0:0:0:
77,146,125194,6,0,B|137:157|137:157|158:177|158:177|232:190,1,150,2|2,1:2|0:0,0:0:0:0:
295,144,125623,1,2,0:0:0:0:
391,221,125765,21,10,0:0:0:0:
342,19,125908,1,2,0:0:0:0:
391,221,126051,1,2,1:2:0:0:
391,221,126337,70,0,P|451:212|467:119,1,150,2|2,1:2|0:0,0:0:0:0:
318,280,126765,2,0,B|269:283|232:249|232:249|250:289|295:290,1,150,2|2,1:2|0:0,0:0:0:0:
404,378,127194,2,0,P|419:344|404:311,1,75,2|0,1:2|0:0,0:0:0:0:
319,162,127480,5,2,1:2:0:0:
397,303,127623,2,0,B|461:323|499:282|499:282|484:260|480:222,1,150,0|2,0:0|0:0,0:0:0:0:
512,166,128051,1,10,0:0:0:0:
318,280,128194,1,2,0:0:0:0:
512,166,128337,1,2,1:2:0:0:
512,166,128623,38,0,P|487:90|472:-2,1,150,2|0,1:2|0:0,0:0:0:0:
280,135,129051,2,0,P|305:211|320:303,1,150,2|0,0:0|0:0,0:0:0:0:
393,320,129480,2,0,P|420:311|394:309,1,75,2|2,0:0|0:0,0:0:0:0:
186,228,129765,6,0,B|116:244|116:244|115:246|115:246|20:266,1,150,2|2,1:2|0:0,0:0:0:0:
41,262,130194,2,0,P|65:234|46:174,1,75,2|8,0:0|0:0,0:0:0:0:
0,54,130480,1,2,0:0:0:0:
132,76,130623,2,0,P|107:103|71:109,1,75,2|0,0:2|0:2,0:0:0:0:
220,13,130908,22,0,P|241:17|274:59,1,75,2|0,1:2|0:0,0:0:0:0:
335,345,131194,1,2,0:2:0:0:
396,285,131337,2,0,L|381:196,1,75,2|8,0:2|1:2,0:0:0:0:
316,157,131623,1,2,0:0:0:0:
404,297,131765,2,0,P|444:304|481:353,1,75,2|0,0:2|0:2,0:0:0:0:
413,122,132051,69,0,1:2:0:0:
291,314,132194,1,0,0:0:0:0:
169,122,132337,1,0,1:2:0:0:
383,211,132480,1,0,0:0:0:0:
74,361,132623,6,0,L|-10:374,1,78.7499975967408,14|0,0:0|0:0,0:0:0:0:
86,366,133194,6,0,P|124:327|93:205,1,150,6|0,1:2|0:0,0:0:0:0:
0,30,133623,1,0,0:0:0:0:
0,116,133765,2,0,B|75:108|59:133|150:122,1,150,8|0,0:0|0:0,0:0:0:0:
226,175,134194,1,2,0:0:0:0:
226,175,134265,1,0,0:0:0:0:
226,175,134337,6,0,L|249:259,1,75,2|0,1:2|0:0,0:0:0:0:
374,142,134623,2,0,L|272:116,1,75,2|0,0:0|0:0,0:0:0:0:
182,309,134908,2,0,B|247:299|247:299|265:285|265:285|325:274,1,150,10|2,0:0|0:0,0:0:0:0:
512,344,135337,1,0,0:0:0:0:
435,366,135480,70,0,P|484:322|457:232,1,150,2|0,1:2|0:0,0:0:0:0:
493,153,135908,1,0,0:0:0:0:
411,113,136051,2,0,P|396:143|423:207,1,75,8|0,0:0|0:0,0:0:0:0:
487,57,136337,1,2,1:2:0:0:
412,5,136480,2,0,L|366:18,1,37.5,2|0,0:0|0:0,0:0:0:0:
361,22,136623,6,0,L|268:6,1,75,0|0,1:2|0:0,0:0:0:0:
259,38,136837,1,0,0:0:0:0:
256,44,136908,2,0,L|163:28,1,75,2|0,0:0|0:0,0:0:0:0:
91,140,137194,2,0,L|184:124,1,75,10|0,0:0|0:0,0:0:0:0:
301,237,137480,2,0,L|227:224,1,75,2|0,0:0|0:0,0:0:0:0:
66,318,137765,70,0,B|71:345|71:345|166:330|166:330|161:290,1,150,2|2,1:2|0:0,0:0:0:0:
256,192,138194,1,0,0:0:0:0:
349,303,138337,2,0,B|346:330|346:330|441:345|441:345|446:318,1,150,10|2,0:0|0:0,0:0:0:0:
501,248,138765,1,0,0:0:0:0:
501,248,138837,1,0,0:0:0:0:
501,248,138908,6,0,P|502:202|478:170,1,75,2|0,1:2|0:0,0:0:0:0:
465,27,139194,2,0,P|475:65|442:105,1,75,2|0,0:0|0:0,0:0:0:0:
387,209,139480,2,0,P|355:180|303:181,1,75,10|0,0:0|0:0,0:0:0:0:
259,54,139765,2,0,P|210:92|175:80,1,75,2|0,0:0|0:0,0:0:0:0:
139,182,140051,70,0,B|88:189|51:154|51:154|-3:167,2,150,2|2|10,1:2|0:0|0:0,0:0:0:0:
429,382,140908,1,2,0:0:0:0:
494,320,141051,1,0,0:0:0:0:
494,320,141123,1,0,0:0:0:0:
494,320,141194,6,0,P|478:267|446:248,1,75,2|0,1:2|0:0,0:0:0:0:
152,381,141480,1,0,0:0:0:0:
239,340,141623,1,0,1:2:0:0:
131,286,141765,69,10,0:0:0:0:
345,350,141908,1,2,0:0:0:0:
131,286,142051,1,2,0:0:0:0:
131,286,142337,6,0,B|106:256|106:256|138:137,1,150,6|0,1:2|0:0,0:0:0:0:
41,2,142765,1,0,0:0:0:0:
41,2,142908,2,0,B|16:32|16:32|48:151,1,150,8|0,0:0|0:0,0:0:0:0:
235,235,143337,1,2,0:0:0:0:
305,288,143480,70,0,P|337:282|364:247,1,75,2|0,1:2|0:0,0:0:0:0:
394,122,143765,2,0,P|451:101|506:200,2,150,2|10|2,0:0|0:0|0:0,0:0:0:0:
200,12,144480,1,0,0:0:0:0:
200,12,144623,6,0,B|273:26|273:26|274:28|274:28|350:44,1,150,2|0,1:2|0:0,0:0:0:0:
317,249,145051,1,0,0:0:0:0:
249,195,145194,2,0,P|246:151|295:123,1,75,8|0,0:0|0:0,0:0:0:0:
479,330,145480,2,0,P|450:364|377:342,1,75,2|2,1:2|0:0,0:0:0:0:
386,351,145694,1,0,0:0:0:0:
380,344,145765,2,0,P|402:308|394:257,1,75,2|0,1:2|0:0,0:0:0:0:
434,248,145980,1,0,0:0:0:0:
439,242,146051,2,0,P|425:209|370:184,1,75,2|0,0:0|0:0,0:0:0:0:
208,348,146337,2,0,P|232:361|287:355,1,75,10|0,0:0|0:0,0:0:0:0:
331,129,146623,2,0,L|309:42,1,75,2|0,0:0|0:0,0:0:0:0:
197,339,146908,69,2,1:2:0:0:
136,277,147123,1,0,0:0:0:0:
131,271,147194,2,0,P|135:192|210:201,2,150,2|10|2,0:0|0:0|0:0,0:0:0:0:
275,146,147908,2,0,L|291:59,1,75,0|2,0:0|1:2,0:0:0:0:
392,223,148194,1,0,0:0:0:0:
444,294,148337,6,0,L|428:381,1,75,2|0,0:0|0:0,0:0:0:0:
444,147,148623,2,0,P|484:121|526:137,1,75,10|0,0:0|0:0,0:0:0:0:
314,353,148908,2,0,L|230:370,1,75,2|0,0:0|0:0,0:0:0:0:
16,187,149194,2,0,L|120:210,1,75,2|0,1:2|0:0,0:0:0:0:
164,153,149480,2,0,B|173:135|191:116|191:116|199:62|131:20,2,150,2|10|2,0:0|0:0|0:0,0:0:0:0:
391,309,150337,70,0,B|381:235|381:235|379:234|379:234|365:147,1,150,2|0,1:2|0:0,0:0:0:0:
476,225,150765,1,0,1:2:0:0:
273,384,150908,6,0,L|289:261,1,120,12|0,0:0|0:0,0:0:0:0:
