osu file format v14

[General]
AudioFilename: audio.mp3
AudioLeadIn: 0
PreviewTime: -1
Countdown: 1
SampleSet: Normal
StackLeniency: 0.7
Mode: 0
LetterboxInBreaks: 0
WidescreenStoryboard: 0

[Editor]
DistanceSpacing: 0.9
BeatDivisor: 8
GridSize: 4
TimelineZoom: 2.599999

[Metadata]
Title:Jump Up, Super Star! The Living Tombstone Remix
TitleUnicode:Jump Up, Super Star! The Living Tombstone Remix
Artist:The Living Tombstone
ArtistUnicode:The Living Tombstone
Creator:Shigeson
Version:JUMP UP
Source:
Tags:
BeatmapID:1462173
BeatmapSetID:690972

[Difficulty]
HPDrainRate:6
CircleSize:4.2
OverallDifficulty:7
ApproachRate:9.2
SliderMultiplier:1.4
SliderTickRate:1

[Events]
//Background and Video events
0,0,"e0f50b251bdecc64091f7b53201c3a8d.jpg",0,0
//Break Periods
//Storyboard Layer 0 (Background)
//Storyboard Layer 1 (Fail)
//Storyboard Layer 2 (Pass)
//Storyboard Layer 3 (Foreground)
//Storyboard Sound Samples

[TimingPoints]
0,588.235294117647,4,1,0,100,1,0
7058,-66.6666666666667,4,1,0,100,0,0
9558,-50,4,1,0,100,0,0
13530,588.235294117647,4,1,0,100,1,0
13602,-50,4,1,0,100,0,0
44559,-40,4,1,0,100,0,0
60588,-28.5714285714286,4,1,0,100,0,0
61177,-50,4,1,0,100,0,0
83529,-33.3333333333333,4,1,0,100,0,0

[HitObjects]
256,192,294,12,6,1470,0:0:0:0:
179,90,1764,5,4,0:0:0:0:
175,107,1838,1,4,0:0:0:0:
170,123,1911,1,4,0:0:0:0:
166,140,1985,1,4,0:0:0:0:
161,156,2058,1,4,0:0:0:0:
211,139,2132,1,4,0:0:0:0:
262,145,2205,1,4,0:0:0:0:
298,183,2279,1,4,0:0:0:0:
292,210,2352,6,6,L|260:351,1,140
155,211,3235,1,4,0:0:0:0:
309,139,3529,2,6,L|277:280,1,140
172,164,4411,1,4,0:0:0:0:
324,72,4705,2,6,L|292:213,1,140
293,208,5588,1,4,0:0:0:0:
199,174,5882,6,6,P|206:97|138:53,1,140
146,88,6544,1,4,0:0:0:0:
128,118,6617,1,4,0:0:0:0:
110,148,6691,1,4,0:0:0:0:
92,178,6764,1,4,0:0:0:0:
138,273,7058,6,6,P|213:195|254:85,1,210.000008010865
276,173,7941,2,4,P|285:202|301:226,1,52.5000020027161
355,174,8235,2,4,P|330:117|192:60,1,210.000008010865,6|4,0:0|0:0,0:0:0:0:
276,173,8970,1,4,0:0:0:0:
80,179,9117,1,4,0:0:0:0:
217,225,9264,1,4,0:0:0:0:
435,49,9558,6,4,P|409:117|423:214,1,140
386,204,9999,2,4,P|346:143|255:109,1,140
272,146,10441,2,4,P|277:195|213:120,1,280
238,109,11102,1,4,0:0:0:0:
272,103,11176,1,4,0:0:0:0:
411,143,11323,6,4,P|388:171|384:211,2,70
256,192,11764,12,4,13235,0:0:0:0:
250,99,13676,6,4,P|217:125|166:130,1,70
281,178,13970,2,4,P|351:134|422:156,1,140
301,45,14411,1,4,0:0:0:0:
365,220,14558,1,4,0:0:0:0:
217,200,14705,1,4,0:0:0:0:
194,332,14852,6,4,P|227:306|278:301,1,70
179,243,15147,2,4,P|109:287|38:265,1,140
72,246,15514,1,4,0:0:0:0:
88,214,15588,1,4,0:0:0:0:
253,193,15735,1,4,0:0:0:0:
90,101,15882,1,4,0:0:0:0:
256,113,16030,6,4,P|293:82|334:90,1,70
315,150,16324,2,4,B|282:214|342:281|342:281|390:211,1,210
169,294,17059,1,4,0:0:0:0:
187,98,17353,1,4,0:0:0:0:
418,167,17647,5,4,0:0:0:0:
290,304,17794,1,4,0:0:0:0:
411,267,17941,2,4,L|272:197,1,140
302,106,18382,1,4,0:0:0:0:
384,153,18530,1,4,0:0:0:0:
216,270,18677,1,4,0:0:0:0:
188,191,18824,1,4,0:0:0:0:
53,51,19118,5,4,0:0:0:0:
168,73,19265,1,4,0:0:0:0:
94,171,19412,2,4,P|65:194|39:237,2,70
146,226,19853,2,4,P|216:178|317:189,1,140
332,323,20294,1,4,0:0:0:0:
233,274,20441,1,4,0:0:0:0:
393,220,20588,2,4,P|362:191|298:200,1,70
458,110,20882,1,4,0:0:0:0:
368,45,21030,1,4,0:0:0:0:
229,59,21177,6,4,B|234:144|172:200|172:200|121:137,1,210
158,94,21765,2,4,B|125:54|125:54|63:110|68:195,1,210
118,245,22353,2,4,B|180:302|263:291|263:291|247:211,1,210
245,205,22868,1,4,0:0:0:0:
237,171,22941,1,4,0:0:0:0:
367,324,23088,6,4,L|348:251,1,70
420,248,23382,2,4,L|370:46,1,140
312,189,23824,1,4,0:0:0:0:
327,42,23971,1,4,0:0:0:0:
222,91,24118,1,4,0:0:0:0:
207,207,24265,6,4,P|192:250|131:254,1,70
137,173,24559,2,4,P|210:132|281:190,1,140
282,175,24927,1,4,0:0:0:0:
301,203,25000,1,4,0:0:0:0:
346,60,25147,1,4,0:0:0:0:
209,129,25294,1,4,0:0:0:0:
88,48,25441,6,4,L|57:180,1,70
137,168,25735,2,4,L|160:321,1,140
61,249,26177,1,4,0:0:0:0:
42,140,26324,1,4,0:0:0:0:
237,209,26471,2,4,P|221:173|225:139,1,70
431,108,26765,2,4,P|447:143|442:177,1,70
319,64,27059,1,4,0:0:0:0:
353,257,27206,1,4,0:0:0:0:
224,143,27353,2,4,P|212:217|155:307,1,140
107,118,27794,1,4,0:0:0:0:
233,31,27941,1,4,0:0:0:0:
351,204,28088,6,4,P|292:229|250:317,1,140
415,265,28530,1,4,0:0:0:0:
201,205,28677,2,4,P|225:172|290:139,1,70
428,93,28971,1,4,0:0:0:0:
248,35,29118,2,4,P|223:67|159:101,2,70
272,59,29485,1,4,0:0:0:0:
303,74,29559,1,4,0:0:0:0:
450,222,29706,5,4,0:0:0:0:
109,227,30000,1,4,0:0:0:0:
384,315,30294,1,4,0:0:0:0:
256,192,30588,12,4,32353,0:0:0:0:
197,101,32647,5,4,0:0:0:0:
356,193,32794,1,4,0:0:0:0:
206,280,32941,1,4,0:0:0:0:
231,86,33088,1,4,0:0:0:0:
349,227,33235,1,4,0:0:0:0:
178,257,33382,1,4,0:0:0:0:
386,36,33677,5,4,0:0:0:0:
274,322,33824,1,4,0:0:0:0:
68,96,33971,1,4,0:0:0:0:
295,127,34412,6,4,P|262:159|283:67,1,280
93,192,35294,6,4,B|122:265|122:265|152:221|152:221|197:279|284:283,1,280
261,253,35956,1,4,0:0:0:0:
244,221,36030,1,4,0:0:0:0:
238,186,36103,1,4,0:0:0:0:
243,151,36177,1,4,0:0:0:0:
71,271,36471,5,4,0:0:0:0:
148,135,36618,1,4,0:0:0:0:
256,323,36765,1,4,0:0:0:0:
214,219,36912,2,4,P|226:137|284:94,1,140
426,309,37647,5,4,0:0:0:0:
250,50,37941,1,4,0:0:0:0:
229,184,38088,1,4,0:0:0:0:
454,47,38382,6,4,P|432:90|436:178,1,70
455,173,38677,2,4,P|448:207|434:239,1,70
120,77,39118,1,4,0:0:0:0:
218,228,39265,1,4,0:0:0:0:
349,44,39706,5,4,0:0:0:0:
127,165,40000,5,4,0:0:0:0:
127,165,40074,1,4,0:0:0:0:
127,165,40147,1,4,0:0:0:0:
127,165,40221,1,4,0:0:0:0:
127,165,40294,1,4,0:0:0:0:
136,169,40368,1,4,0:0:0:0:
145,172,40441,1,4,0:0:0:0:
155,174,40515,1,4,0:0:0:0:
165,175,40588,1,4,0:0:0:0:
182,172,40662,1,4,0:0:0:0:
197,164,40735,1,4,0:0:0:0:
210,152,40809,1,4,0:0:0:0:
231,134,40882,1,4,0:0:0:0:
258,126,40956,1,4,0:0:0:0:
286,128,41030,1,4,0:0:0:0:
309,143,41103,1,4,0:0:0:0:
295,194,41177,1,4,0:0:0:0:
314,242,41250,1,4,0:0:0:0:
365,254,41324,1,4,0:0:0:0:
411,230,41397,1,4,0:0:0:0:
421,178,41471,1,4,0:0:0:0:
399,75,41618,6,6,P|334:42|245:39,1,140
217,46,41985,1,4,0:0:0:0:
169,68,42059,1,4,0:0:0:0:
129,102,42132,1,4,0:0:0:0:
101,147,42206,1,4,0:0:0:0:
90,198,42280,1,4,0:0:0:0:
90,250,42353,1,4,0:0:0:0:
179,178,42574,6,6,L|240:153,1,35
241,256,42721,2,6,L|302:231,1,35
305,333,42868,2,6,L|366:308,1,35
436,276,43015,2,6,L|374:300,1,35
373,199,43162,2,6,L|311:223,1,35
311,121,43309,2,6,L|248:146,1,35
437,68,43530,6,4,P|361:45|269:56,1,140
156,166,43971,1,4,0:0:0:0:
344,203,44118,1,4,0:0:0:0:
178,91,44265,2,4,P|131:94|91:125,1,70
140,321,44559,6,4,L|281:184,1,175
222,190,44927,1,4,0:0:0:0:
180,175,45000,1,4,0:0:0:0:
154,138,45074,1,4,0:0:0:0:
159,94,45147,1,4,0:0:0:0:
366,92,45294,1,4,0:0:0:0:
288,274,45441,1,4,0:0:0:0:
447,186,45588,1,4,0:0:0:0:
258,90,45735,6,4,P|218:117|288:120,1,175
330,130,46103,1,4,0:0:0:0:
360,161,46177,1,4,0:0:0:0:
364,204,46250,1,4,0:0:0:0:
349,245,46324,1,4,0:0:0:0:
161,144,46471,1,4,0:0:0:0:
62,317,46618,1,4,0:0:0:0:
274,207,46765,1,4,0:0:0:0:
188,45,46912,6,4,P|104:75|54:175,1,175
100,156,47279,1,4,0:0:0:0:
139,175,47353,1,4,0:0:0:0:
172,203,47427,1,4,0:0:0:0:
195,239,47500,1,4,0:0:0:0:
235,96,47647,1,4,0:0:0:0:
71,265,47794,1,4,0:0:0:0:
302,176,47941,1,4,0:0:0:0:
321,47,48088,6,4,B|391:83|410:142|410:142|368:167,1,175
392,203,48456,1,4,0:0:0:0:
400,245,48529,1,4,0:0:0:0:
389,287,48603,1,4,0:0:0:0:
350,308,48677,1,4,0:0:0:0:
283,167,48824,1,4,0:0:0:0:
61,268,48971,1,4,0:0:0:0:
170,87,49118,1,4,0:0:0:0:
202,237,49265,6,4,P|193:308|241:255,1,175
288,272,49632,1,4,0:0:0:0:
331,275,49706,1,4,0:0:0:0:
374,279,49779,1,4,0:0:0:0:
417,283,49853,1,4,0:0:0:0:
273,178,50000,1,4,0:0:0:0:
426,78,50147,1,4,0:0:0:0:
197,69,50294,5,4,0:0:0:0:
164,98,50368,1,4,0:0:0:0:
141,135,50441,2,4,P|158:224|131:318,1,175
292,268,50882,1,4,0:0:0:0:
220,142,51029,2,4,L|306:89,1,87.5
189,282,51324,1,4,0:0:0:0:
344,115,51471,2,4,P|384:150|381:216,1,87.5
379,223,51691,5,4,0:0:0:0:
347,254,51765,1,4,0:0:0:0:
303,254,51838,1,4,0:0:0:0:
269,225,51912,1,4,0:0:0:0:
244,189,51985,1,4,0:0:0:0:
202,174,52059,1,4,0:0:0:0:
162,191,52132,1,4,0:0:0:0:
140,229,52206,1,4,0:0:0:0:
146,271,52279,1,4,0:0:0:0:
180,298,52353,1,4,0:0:0:0:
223,300,52427,1,4,0:0:0:0:
259,275,52500,1,4,0:0:0:0:
303,254,52574,1,4,0:0:0:0:
345,264,52647,1,4,0:0:0:0:
382,287,52721,1,4,0:0:0:0:
388,243,52794,1,4,0:0:0:0:
394,199,52868,1,4,0:0:0:0:
400,156,52941,1,4,0:0:0:0:
406,112,53015,1,4,0:0:0:0:
412,69,53088,1,4,0:0:0:0:
226,42,53235,6,4,P|227:135|164:217,1,175
103,80,53677,1,4,0:0:0:0:
322,103,53824,1,4,0:0:0:0:
275,200,53971,2,4,P|252:240|199:272,1,87.5
229,76,54265,1,4,0:0:0:0:
368,263,54412,1,4,0:0:0:0:
415,138,54559,1,4,0:0:0:0:
133,207,54706,6,4,P|154:149|205:126,1,87.5
153,327,55000,1,4,0:0:0:0:
62,200,55147,2,4,P|98:107|179:57,1,175
182,100,55515,1,4,0:0:0:0:
207,135,55588,1,4,0:0:0:0:
248,150,55662,1,4,0:0:0:0:
291,144,55735,1,4,0:0:0:0:
232,41,55882,1,4,0:0:0:0:
155,237,56029,1,4,0:0:0:0:
312,64,56177,6,4,P|370:103|322:214,1,175
165,128,56765,1,4,0:0:0:0:
399,301,57059,1,4,0:0:0:0:
101,274,57353,1,4,0:0:0:0:
409,198,57647,6,4,P|353:111|264:132,1,175
294,157,58015,1,4,0:0:0:0:
297,200,58088,1,4,0:0:0:0:
300,243,58162,1,4,0:0:0:0:
304,286,58235,1,4,0:0:0:0:
147,128,58382,1,4,0:0:0:0:
420,203,58529,1,4,0:0:0:0:
182,291,58677,1,4,0:0:0:0:
298,68,58824,6,4,L|384:243,1,175
403,98,59265,1,4,0:0:0:0:
280,184,59412,2,4,P|332:208|264:220,1,175
400,248,59853,1,4,0:0:0:0:
152,192,60000,6,4,B|245:61|245:61|183:66,1,218.75
268,271,60588,2,4,B|343:167|343:167|320:150|320:150|366:135|366:135|369:186,1,245.000002336502
256,192,61177,12,4,62500,0:0:0:0:
290,53,62647,6,0,L|364:185,1,140
405,58,63088,1,0,0:0:0:0:
296,249,63235,1,0,0:0:0:0:
264,233,63309,1,0,0:0:0:0:
232,217,63382,2,0,P|194:285|117:328,1,140
138,153,63824,1,0,0:0:0:0:
44,343,63971,1,0,0:0:0:0:
241,235,64118,2,0,P|211:263|202:322,2,70
314,282,64559,6,0,P|310:199|257:146,1,140
112,333,65000,1,0,0:0:0:0:
196,93,65147,1,0,0:0:0:0:
41,247,65294,1,0,0:0:0:0:
280,164,65441,2,0,P|325:146|363:151,1,70
328,223,65735,2,0,P|261:261|170:257,1,140
237,84,66177,1,0,0:0:0:0:
137,230,66324,2,0,P|127:277|147:310,1,70
161,101,66618,1,0,0:0:0:0:
52,276,66765,1,0,0:0:0:0:
245,240,66912,6,0,P|286:160|359:154,1,140
322,183,67280,1,0,0:0:0:0:
316,217,67353,1,0,0:0:0:0:
182,121,67500,1,0,0:0:0:0:
73,291,67647,1,0,0:0:0:0:
113,51,67794,2,0,P|91:74|83:120,1,70
279,47,68088,2,0,P|346:91|369:170,1,140
332,145,68456,1,0,0:0:0:0:
297,138,68530,1,0,0:0:0:0:
368,310,68677,1,0,0:0:0:0:
159,158,68824,6,0,P|173:193|157:238,2,70
176,128,69191,1,0,0:0:0:0:
203,106,69265,1,0,0:0:0:0:
237,105,69338,1,0,0:0:0:0:
266,124,69412,1,0,0:0:0:0:
93,281,69706,6,0,P|159:316|227:323,1,140
207,247,70147,2,0,P|290:234|360:256,1,140
375,261,70515,1,0,0:0:0:0:
409,256,70588,1,0,0:0:0:0:
429,227,70662,1,0,0:0:0:0:
429,192,70735,1,0,0:0:0:0:
408,163,70809,1,0,0:0:0:0:
374,153,70882,1,0,0:0:0:0:
339,161,70956,1,0,0:0:0:0:
304,155,71030,1,0,0:0:0:0:
272,140,71103,1,0,0:0:0:0:
237,110,71177,1,0,0:0:0:0:
196,90,71250,1,0,0:0:0:0:
151,99,71324,1,0,0:0:0:0:
112,134,71397,1,0,0:0:0:0:
102,186,71471,1,0,0:0:0:0:
126,231,71544,1,0,0:0:0:0:
174,251,71618,1,0,0:0:0:0:
224,239,71691,1,0,0:0:0:0:
255,196,71765,1,0,0:0:0:0:
178,173,72059,6,0,P|114:208|83:297,1,140
93,300,72427,1,0,0:0:0:0:
124,313,72500,1,0,0:0:0:0:
56,167,72647,1,0,0:0:0:0:
208,77,72794,2,0,P|285:96|332:171,1,140
291,157,73162,1,0,0:0:0:0:
261,174,73235,1,0,0:0:0:0:
61,52,73382,1,0,0:0:0:0:
140,246,73530,6,0,P|136:289|112:326,2,70
110,228,73897,1,0,0:0:0:0:
79,210,73971,1,0,0:0:0:0:
291,193,74118,1,0,0:0:0:0:
186,349,74265,2,0,P|206:312|209:258,1,70
117,135,74559,1,0,0:0:0:0:
285,263,74706,2,0,P|321:282|368:277,1,70
361,249,74927,1,0,0:0:0:0:
372,216,75000,1,0,0:0:0:0:
195,189,75147,1,0,0:0:0:0:
79,328,75294,6,0,P|160:335|233:308,1,140
186,297,75662,1,0,0:0:0:0:
157,277,75735,1,0,0:0:0:0:
278,231,75882,2,0,P|277:158|328:86,1,140
327,132,76250,1,0,0:0:0:0:
344,162,76324,1,0,0:0:0:0:
166,142,76471,1,0,0:0:0:0:
283,301,76618,1,0,0:0:0:0:
404,236,76765,1,0,0:0:0:0:
383,98,76912,6,0,P|331:38|244:47,1,140
368,177,77353,1,0,0:0:0:0:
200,220,77500,1,0,0:0:0:0:
336,304,77647,6,0,B|299:344|238:321|238:321|230:335|207:355,1,140
85,231,78088,1,0,0:0:0:0:
271,255,78235,1,0,0:0:0:0:
138,335,78382,1,0,0:0:0:0:
276,157,78529,1,0,0:0:0:0:
412,308,78677,5,0,0:0:0:0:
412,308,78750,1,0,0:0:0:0:
412,308,78824,2,0,B|377:288|382:257|382:257|422:226|421:173,1,140
271,255,79265,1,0,0:0:0:0:
336,89,79412,1,0,0:0:0:0:
424,141,79559,1,0,0:0:0:0:
158,120,79706,1,0,0:0:0:0:
246,172,79853,1,0,0:0:0:0:
74,249,80000,6,0,B|159:298|159:298|92:325,1,140
143,321,80368,1,0,0:0:0:0:
166,328,80441,1,0,0:0:0:0:
190,324,80515,1,0,0:0:0:0:
213,316,80588,1,0,0:0:0:0:
153,178,80735,1,0,0:0:0:0:
267,213,80882,2,0,P|307:216|337:194,1,70
183,39,81177,6,0,L|211:187,1,140
204,200,81544,1,0,0:0:0:0:
190,220,81618,1,0,0:0:0:0:
165,223,81691,1,0,0:0:0:0:
147,205,81765,1,0,0:0:0:0:
127,168,81838,1,0,0:0:0:0:
102,133,81912,1,0,0:0:0:0:
62,118,81985,1,0,0:0:0:0:
25,139,82059,1,0,0:0:0:0:
189,315,82206,5,0,0:0:0:0:
189,315,82279,1,0,0:0:0:0:
189,315,82353,2,0,P|214:227|191:152,1,140
106,280,82794,1,0,0:0:0:0:
97,187,82941,2,0,P|85:145|95:104,1,70
321,100,83235,1,0,0:0:0:0:
336,126,83309,1,0,0:0:0:0:
338,156,83382,1,0,0:0:0:0:
322,184,83456,1,0,0:0:0:0:
316,211,83529,2,0,P|314:288|240:157,1,420.000016021729
236,244,84265,5,0,0:0:0:0:
80,98,84412,1,0,0:0:0:0:
98,200,84559,1,0,0:0:0:0:
