osu file format v14

[General]
AudioFilename: audio.mp3
AudioLeadIn: 0
PreviewTime: 56
Countdown: 0
SampleSet: Normal
StackLeniency: 0.7
Mode: 1
LetterboxInBreaks: 0
WidescreenStoryboard: 0

[Editor]
DistanceSpacing: 1.4
BeatDivisor: 4
GridSize: 32
TimelineZoom: 1

[Metadata]
Title:I Got No Time
TitleUnicode:I Got No Time
Artist:The Living Tombstone
ArtistUnicode:The Living Tombstone
Creator:youtune3
Version:Oni
Source:
Tags:FNaF Ayyri FNaF4 Five Nights At Freddy's
BeatmapID:933480
BeatmapSetID:432968

[Difficulty]
HPDrainRate:5
CircleSize:2
OverallDifficulty:5
ApproachRate:0
SliderMultiplier:1.4
SliderTickRate:1

[Events]
//Background and Video events
0,0,"qvEjFKi.png",0,0
//Break Periods
//Storyboard Layer 0 (Background)
//Storyboard Layer 1 (Fail)
//Storyboard Layer 2 (Pass)
//Storyboard Layer 3 (Foreground)
//Storyboard Layer 4 (Overlay)
//Storyboard Sound Samples

[TimingPoints]
56,666.666666666667,4,1,0,70,1,0
56,-66.6666666666667,4,1,0,70,0,0
722,-66.6666666666667,4,1,0,60,0,0
1389,-66.6666666666667,4,1,0,50,0,0
2389,-66.6666666666667,4,1,0,40,0,0
2722,-66.6666666666667,4,1,0,30,0,0
3055,-66.6666666666667,4,1,0,20,0,0
3389,-66.6666666666667,4,1,0,10,0,0
4389,-66.6666666666667,4,1,0,5,0,0
5389,-66.6666666666667,4,1,0,70,0,1
25389,-66.6666666666667,4,1,0,70,0,0
69389,-66.6666666666667,4,1,0,70,0,1
89389,-66.6666666666667,4,1,0,70,0,0
154722,-66.6666666666667,4,1,0,60,0,0
160055,-66.6666666666667,4,1,0,30,0,0

[HitObjects]
256,192,56,5,0,0:0:0:0:
256,192,389,1,8,0:0:0:0:
256,192,555,1,0,0:0:0:0:
256,192,722,1,0,0:0:0:0:
256,192,1055,1,8,0:0:0:0:
256,192,1389,1,8,0:0:0:0:
256,192,1722,1,0,0:0:0:0:
256,192,1889,1,0,0:0:0:0:
256,192,2055,1,8,0:0:0:0:
256,192,2389,1,8,0:0:0:0:
256,192,2722,1,0,0:0:0:0:
256,192,3055,1,0,0:0:0:0:
256,192,3222,1,8,0:0:0:0:
256,192,3389,1,0,0:0:0:0:
256,192,3722,1,8,0:0:0:0:
256,192,4055,1,8,0:0:0:0:
256,192,4222,1,0,0:0:0:0:
256,192,4389,1,0,0:0:0:0:
256,192,4555,1,8,0:0:0:0:
256,192,4722,1,8,0:0:0:0:
256,192,4889,1,0,0:0:0:0:
256,192,5055,1,8,0:0:0:0:
256,192,5389,1,4,0:0:0:0:
256,192,5555,1,0,0:0:0:0:
256,192,5722,1,8,0:0:0:0:
256,192,6055,1,8,0:0:0:0:
256,192,6222,1,8,0:0:0:0:
256,192,6389,1,0,0:0:0:0:
256,192,6555,1,8,0:0:0:0:
256,192,6722,1,0,0:0:0:0:
256,192,7055,1,8,0:0:0:0:
256,192,7222,1,0,0:0:0:0:
256,192,7305,1,0,0:0:0:0:
256,192,7389,1,8,0:0:0:0:
256,192,7555,1,0,0:0:0:0:
256,192,7722,1,8,0:0:0:0:
256,192,8055,1,8,0:0:0:0:
256,192,8222,1,0,0:0:0:0:
256,192,8389,1,8,0:0:0:0:
256,192,8555,1,0,0:0:0:0:
256,192,8722,1,8,0:0:0:0:
256,192,8889,1,8,0:0:0:0:
256,192,9055,1,0,0:0:0:0:
256,192,9389,1,8,0:0:0:0:
256,192,9555,1,0,0:0:0:0:
256,192,9722,1,0,0:0:0:0:
256,192,9889,1,8,0:0:0:0:
256,192,10055,1,8,0:0:0:0:
256,192,10389,1,0,0:0:0:0:
256,192,10555,1,0,0:0:0:0:
256,192,10722,1,8,0:0:0:0:
256,192,10889,1,8,0:0:0:0:
256,192,11055,1,0,0:0:0:0:
256,192,11222,1,0,0:0:0:0:
256,192,11389,1,8,0:0:0:0:
256,192,11555,1,8,0:0:0:0:
256,192,11722,1,0,0:0:0:0:
256,192,12055,1,0,0:0:0:0:
256,192,12222,1,8,0:0:0:0:
256,192,12389,1,0,0:0:0:0:
256,192,12555,1,0,0:0:0:0:
256,192,12639,1,0,0:0:0:0:
256,192,12722,1,8,0:0:0:0:
256,192,12889,1,0,0:0:0:0:
256,192,13055,1,8,0:0:0:0:
256,192,13389,1,8,0:0:0:0:
256,192,13555,1,0,0:0:0:0:
256,192,13722,1,8,0:0:0:0:
256,192,13889,1,0,0:0:0:0:
256,192,14055,1,8,0:0:0:0:
256,192,14222,1,8,0:0:0:0:
256,192,14389,1,0,0:0:0:0:
256,192,14555,1,0,0:0:0:0:
256,192,14722,1,8,0:0:0:0:
256,192,15055,1,0,0:0:0:0:
256,192,15222,1,0,0:0:0:0:
256,192,15389,1,8,0:0:0:0:
256,192,15555,1,0,0:0:0:0:
256,192,15722,1,8,0:0:0:0:
256,192,15889,1,8,0:0:0:0:
256,192,16055,1,0,0:0:0:0:
256,192,16389,1,0,0:0:0:0:
256,192,16556,1,0,0:0:0:0:
256,192,16722,1,8,0:0:0:0:
256,192,16889,1,8,0:0:0:0:
256,192,17055,1,0,0:0:0:0:
256,192,17389,1,8,0:0:0:0:
256,192,17555,1,0,0:0:0:0:
256,192,17722,1,0,0:0:0:0:
256,192,17889,1,0,0:0:0:0:
256,192,17972,1,0,0:0:0:0:
256,192,18055,1,8,0:0:0:0:
256,192,18222,1,8,0:0:0:0:
256,192,18389,1,0,0:0:0:0:
256,192,18722,1,8,0:0:0:0:
256,192,18889,1,0,0:0:0:0:
256,192,19056,1,8,0:0:0:0:
256,192,19222,1,0,0:0:0:0:
256,192,19389,1,8,0:0:0:0:
256,192,19555,1,8,0:0:0:0:
256,192,19722,1,0,0:0:0:0:
256,192,19889,1,0,0:0:0:0:
256,192,20055,1,8,0:0:0:0:
256,192,20389,1,8,0:0:0:0:
256,192,20555,1,0,0:0:0:0:
256,192,20722,1,8,0:0:0:0:
256,192,20889,1,0,0:0:0:0:
256,192,21055,1,0,0:0:0:0:
256,192,21222,1,0,0:0:0:0:
256,192,21389,1,8,0:0:0:0:
256,192,21722,1,8,0:0:0:0:
256,192,21889,1,0,0:0:0:0:
256,192,22055,1,8,0:0:0:0:
256,192,22222,1,8,0:0:0:0:
256,192,22389,1,0,0:0:0:0:
256,192,22722,1,8,0:0:0:0:
256,192,22889,1,0,0:0:0:0:
256,192,23055,1,8,0:0:0:0:
256,192,23222,1,0,0:0:0:0:
256,192,23305,1,0,0:0:0:0:
256,192,23389,1,8,0:0:0:0:
256,192,23555,1,0,0:0:0:0:
256,192,23722,1,0,0:0:0:0:
256,192,24055,1,8,0:0:0:0:
256,192,24222,1,0,0:0:0:0:
256,192,24389,1,8,0:0:0:0:
256,192,24556,1,0,0:0:0:0:
256,192,24722,1,8,0:0:0:0:
256,192,24889,1,8,0:0:0:0:
256,192,25055,1,0,0:0:0:0:
256,192,25222,1,0,0:0:0:0:
256,192,25389,1,8,0:0:0:0:
256,192,25722,1,0,0:0:0:0:
256,192,26055,1,8,0:0:0:0:
256,192,26722,1,12,0:0:0:0:
256,192,27055,1,0,0:0:0:0:
256,192,27222,1,0,0:0:0:0:
256,192,27389,1,8,0:0:0:0:
256,192,27722,1,0,0:0:0:0:
256,192,28055,1,8,0:0:0:0:
256,192,28389,1,0,0:0:0:0:
256,192,28555,1,8,0:0:0:0:
256,192,28722,1,8,0:0:0:0:
256,192,29055,1,0,0:0:0:0:
256,192,29389,1,8,0:0:0:0:
256,192,29555,1,8,0:0:0:0:
256,192,29722,1,0,0:0:0:0:
256,192,30055,1,8,0:0:0:0:
256,192,30389,1,0,0:0:0:0:
256,192,30722,1,8,0:0:0:0:
256,192,31055,1,0,0:0:0:0:
256,192,31389,1,8,0:0:0:0:
256,192,31555,1,8,0:0:0:0:
256,192,31722,1,0,0:0:0:0:
256,192,31889,1,0,0:0:0:0:
256,192,32055,1,8,0:0:0:0:
256,192,32388,1,0,0:0:0:0:
256,192,32722,1,8,0:0:0:0:
256,192,33055,1,0,0:0:0:0:
256,192,33388,1,8,0:0:0:0:
256,192,33555,1,8,0:0:0:0:
256,192,33722,1,0,0:0:0:0:
256,192,34055,1,8,0:0:0:0:
256,192,34388,1,0,0:0:0:0:
256,192,34555,1,0,0:0:0:0:
256,192,34722,1,8,0:0:0:0:
256,192,34889,1,8,0:0:0:0:
256,192,35055,1,0,0:0:0:0:
256,192,35389,1,8,0:0:0:0:
256,192,35722,1,0,0:0:0:0:
256,192,35889,1,8,0:0:0:0:
256,192,36056,1,8,0:0:0:0:
256,192,36389,1,0,0:0:0:0:
256,192,36722,1,8,0:0:0:0:
256,192,36889,1,0,0:0:0:0:
256,192,37055,1,0,0:0:0:0:
256,192,37222,1,8,0:0:0:0:
256,192,37389,1,0,0:0:0:0:
256,192,37722,1,0,0:0:0:0:
256,192,38056,1,8,0:0:0:0:
256,192,38389,1,0,0:0:0:0:
256,192,38555,1,8,0:0:0:0:
256,192,38722,1,0,0:0:0:0:
256,192,39056,1,0,0:0:0:0:
256,192,39389,1,8,0:0:0:0:
256,192,39555,1,0,0:0:0:0:
256,192,39722,1,0,0:0:0:0:
256,192,39889,1,8,0:0:0:0:
256,192,40055,1,0,0:0:0:0:
256,192,40389,1,0,0:0:0:0:
256,192,40722,1,8,0:0:0:0:
256,192,41055,1,0,0:0:0:0:
256,192,41222,1,8,0:0:0:0:
256,192,41389,1,0,0:0:0:0:
256,192,41722,1,0,0:0:0:0:
256,192,42055,1,8,0:0:0:0:
256,192,42222,1,0,0:0:0:0:
256,192,42389,1,0,0:0:0:0:
256,192,42555,1,8,0:0:0:0:
256,192,42722,1,0,0:0:0:0:
256,192,42889,1,8,0:0:0:0:
256,192,43055,1,0,0:0:0:0:
256,192,43389,1,8,0:0:0:0:
256,192,43555,1,8,0:0:0:0:
256,192,43722,1,0,0:0:0:0:
256,192,43889,1,8,0:0:0:0:
256,192,44055,1,0,0:0:0:0:
256,192,44389,1,0,0:0:0:0:
256,192,44722,1,8,0:0:0:0:
256,192,44889,1,8,0:0:0:0:
256,192,45055,1,0,0:0:0:0:
256,192,45389,1,8,0:0:0:0:
256,192,45555,1,8,0:0:0:0:
256,192,45722,1,0,0:0:0:0:
256,192,45889,1,8,0:0:0:0:
256,192,46055,1,0,0:0:0:0:
256,192,46222,1,0,0:0:0:0:
256,192,46389,1,8,0:0:0:0:
256,192,46555,1,8,0:0:0:0:
288,192,46722,2,0,B|320:192|320:192|192:192|192:192|352:192,1,315.000012016297
256,192,48055,1,0,0:0:0:0:
256,192,48389,1,8,0:0:0:0:
256,192,48722,1,8,0:0:0:0:
256,192,48889,1,0,0:0:0:0:
256,192,49055,1,8,0:0:0:0:
256,192,49389,1,0,0:0:0:0:
256,192,49722,1,8,0:0:0:0:
256,192,50055,1,8,0:0:0:0:
256,192,50222,1,0,0:0:0:0:
256,192,50389,1,8,0:0:0:0:
256,192,50722,1,0,0:0:0:0:
256,192,50889,1,8,0:0:0:0:
256,192,51055,1,8,0:0:0:0:
256,192,51389,1,8,0:0:0:0:
256,192,51555,1,0,0:0:0:0:
256,192,51722,1,8,0:0:0:0:
256,192,51889,1,0,0:0:0:0:
256,192,52055,1,8,0:0:0:0:
256,192,52389,1,0,0:0:0:0:
256,192,52555,1,8,0:0:0:0:
256,192,52722,1,8,0:0:0:0:
256,192,53055,1,0,0:0:0:0:
256,192,53389,1,0,0:0:0:0:
256,192,53555,1,8,0:0:0:0:
256,192,53722,1,0,0:0:0:0:
256,192,54055,1,8,0:0:0:0:
256,192,54389,1,0,0:0:0:0:
256,192,54722,1,0,0:0:0:0:
256,192,54889,1,8,0:0:0:0:
256,192,55055,1,0,0:0:0:0:
256,192,55222,1,8,0:0:0:0:
256,192,55389,1,8,0:0:0:0:
256,192,55722,1,8,0:0:0:0:
256,192,56055,1,0,0:0:0:0:
256,192,56389,1,0,0:0:0:0:
256,192,56555,1,8,0:0:0:0:
256,192,56722,1,8,0:0:0:0:
256,192,56889,1,0,0:0:0:0:
256,192,57055,1,8,0:0:0:0:
256,192,57389,1,0,0:0:0:0:
256,192,57555,1,8,0:0:0:0:
256,192,57722,1,0,0:0:0:0:
256,192,57889,1,0,0:0:0:0:
256,192,58055,1,8,0:0:0:0:
256,192,58389,1,8,0:0:0:0:
256,192,58722,1,0,0:0:0:0:
256,192,58889,1,8,0:0:0:0:
256,192,59055,1,8,0:0:0:0:
256,192,59389,1,8,0:0:0:0:
256,192,59555,1,0,0:0:0:0:
256,192,59722,1,8,0:0:0:0:
256,192,59889,1,8,0:0:0:0:
256,192,60055,1,0,0:0:0:0:
256,192,60389,1,8,0:0:0:0:
256,192,60722,1,8,0:0:0:0:
256,192,60889,1,0,0:0:0:0:
256,192,61055,1,8,0:0:0:0:
256,192,61222,1,0,0:0:0:0:
256,192,61389,1,0,0:0:0:0:
256,192,61722,1,8,0:0:0:0:
256,192,62055,1,8,0:0:0:0:
256,192,62222,1,0,0:0:0:0:
256,192,62389,1,8,0:0:0:0:
256,192,62555,1,8,0:0:0:0:
256,192,62722,1,0,0:0:0:0:
256,192,63055,1,0,0:0:0:0:
256,192,63222,1,0,0:0:0:0:
256,192,63389,1,8,0:0:0:0:
256,192,63722,1,0,0:0:0:0:
256,192,64055,1,8,0:0:0:0:
256,192,64222,1,8,0:0:0:0:
256,192,64389,1,0,0:0:0:0:
256,192,64722,1,8,0:0:0:0:
256,192,64889,1,0,0:0:0:0:
256,192,65055,1,0,0:0:0:0:
256,192,65222,1,8,0:0:0:0:
256,192,65389,1,8,0:0:0:0:
256,192,65722,1,8,0:0:0:0:
256,192,65889,1,0,0:0:0:0:
256,192,66055,1,8,0:0:0:0:
256,192,66222,1,8,0:0:0:0:
256,192,66389,1,0,0:0:0:0:
256,192,66722,1,0,0:0:0:0:
256,192,66889,1,8,0:0:0:0:
256,192,67055,1,8,0:0:0:0:
256,192,67222,1,0,0:0:0:0:
256,192,67389,1,8,0:0:0:0:
256,192,67722,1,0,0:0:0:0:
256,192,67889,1,0,0:0:0:0:
256,192,68055,1,8,0:0:0:0:
256,192,68221,1,8,0:0:0:0:
256,192,68388,1,0,0:0:0:0:
256,192,68555,1,8,0:0:0:0:
256,192,68721,1,0,0:0:0:0:
256,192,69055,1,8,0:0:0:0:
256,192,69222,1,8,0:0:0:0:
256,192,69389,1,4,0:0:0:0:
256,192,69555,1,0,0:0:0:0:
256,192,69722,1,8,0:0:0:0:
256,192,70055,1,8,0:0:0:0:
256,192,70222,1,8,0:0:0:0:
256,192,70389,1,0,0:0:0:0:
256,192,70555,1,8,0:0:0:0:
256,192,70722,1,0,0:0:0:0:
256,192,71055,1,8,0:0:0:0:
256,192,71222,1,0,0:0:0:0:
256,192,71305,1,0,0:0:0:0:
256,192,71389,1,8,0:0:0:0:
256,192,71555,1,0,0:0:0:0:
256,192,71722,1,8,0:0:0:0:
256,192,72055,1,8,0:0:0:0:
256,192,72222,1,0,0:0:0:0:
256,192,72389,1,8,0:0:0:0:
256,192,72555,1,0,0:0:0:0:
256,192,72722,1,8,0:0:0:0:
256,192,72889,1,8,0:0:0:0:
256,192,73055,1,0,0:0:0:0:
256,192,73389,1,8,0:0:0:0:
256,192,73555,1,0,0:0:0:0:
256,192,73722,1,0,0:0:0:0:
256,192,73889,1,8,0:0:0:0:
256,192,74055,1,8,0:0:0:0:
256,192,74389,1,0,0:0:0:0:
256,192,74555,1,0,0:0:0:0:
256,192,74722,1,8,0:0:0:0:
256,192,74889,1,8,0:0:0:0:
256,192,75055,1,0,0:0:0:0:
256,192,75222,1,0,0:0:0:0:
256,192,75389,1,8,0:0:0:0:
256,192,75555,1,8,0:0:0:0:
256,192,75722,1,0,0:0:0:0:
256,192,76055,1,0,0:0:0:0:
256,192,76222,1,8,0:0:0:0:
256,192,76389,1,0,0:0:0:0:
256,192,76555,1,0,0:0:0:0:
256,192,76639,1,0,0:0:0:0:
256,192,76722,1,8,0:0:0:0:
256,192,76889,1,0,0:0:0:0:
256,192,77055,1,8,0:0:0:0:
256,192,77389,1,8,0:0:0:0:
256,192,77555,1,0,0:0:0:0:
256,192,77722,1,8,0:0:0:0:
256,192,77889,1,0,0:0:0:0:
256,192,78055,1,8,0:0:0:0:
256,192,78222,1,8,0:0:0:0:
256,192,78389,1,0,0:0:0:0:
256,192,78555,1,0,0:0:0:0:
256,192,78722,1,8,0:0:0:0:
256,192,79055,1,0,0:0:0:0:
256,192,79222,1,0,0:0:0:0:
256,192,79389,1,8,0:0:0:0:
256,192,79555,1,0,0:0:0:0:
256,192,79722,1,8,0:0:0:0:
256,192,79889,1,8,0:0:0:0:
256,192,80055,1,0,0:0:0:0:
256,192,80389,1,0,0:0:0:0:
256,192,80556,1,0,0:0:0:0:
256,192,80722,1,8,0:0:0:0:
256,192,80889,1,8,0:0:0:0:
256,192,81055,1,0,0:0:0:0:
256,192,81389,1,8,0:0:0:0:
256,192,81555,1,0,0:0:0:0:
256,192,81722,1,0,0:0:0:0:
256,192,81889,1,0,0:0:0:0:
256,192,81972,1,0,0:0:0:0:
256,192,82055,1,8,0:0:0:0:
256,192,82222,1,8,0:0:0:0:
256,192,82389,1,0,0:0:0:0:
256,192,82722,1,8,0:0:0:0:
256,192,82889,1,0,0:0:0:0:
256,192,83056,1,8,0:0:0:0:
256,192,83222,1,0,0:0:0:0:
256,192,83389,1,8,0:0:0:0:
256,192,83555,1,8,0:0:0:0:
256,192,83722,1,0,0:0:0:0:
256,192,83889,1,0,0:0:0:0:
256,192,84055,1,8,0:0:0:0:
256,192,84389,1,8,0:0:0:0:
256,192,84555,1,0,0:0:0:0:
256,192,84722,1,8,0:0:0:0:
256,192,84889,1,0,0:0:0:0:
256,192,85055,1,0,0:0:0:0:
256,192,85222,1,0,0:0:0:0:
256,192,85389,1,8,0:0:0:0:
256,192,85722,1,8,0:0:0:0:
256,192,85889,1,0,0:0:0:0:
256,192,86055,1,8,0:0:0:0:
256,192,86222,1,8,0:0:0:0:
256,192,86389,1,0,0:0:0:0:
256,192,86722,1,8,0:0:0:0:
256,192,86889,1,0,0:0:0:0:
256,192,87055,1,8,0:0:0:0:
256,192,87222,1,0,0:0:0:0:
256,192,87305,1,0,0:0:0:0:
256,192,87389,1,8,0:0:0:0:
256,192,87555,1,0,0:0:0:0:
256,192,87722,1,0,0:0:0:0:
256,192,88055,1,8,0:0:0:0:
256,192,88222,1,0,0:0:0:0:
256,192,88389,1,8,0:0:0:0:
256,192,88556,1,0,0:0:0:0:
256,192,88722,1,8,0:0:0:0:
256,192,88889,1,8,0:0:0:0:
256,192,89055,1,0,0:0:0:0:
256,192,89222,1,0,0:0:0:0:
256,192,89389,1,8,0:0:0:0:
256,192,89722,1,0,0:0:0:0:
256,192,90055,1,8,0:0:0:0:
256,192,90722,1,8,0:0:0:0:
256,192,92055,1,0,0:0:0:0:
256,192,93389,1,0,0:0:0:0:
256,192,94722,1,8,0:0:0:0:
256,192,95389,1,8,0:0:0:0:
256,192,96055,1,0,0:0:0:0:
256,192,97389,1,0,0:0:0:0:
256,192,98722,1,8,0:0:0:0:
256,192,100055,1,0,0:0:0:0:
256,192,101389,1,0,0:0:0:0:
256,192,101722,1,0,0:0:0:0:
256,192,102055,1,8,0:0:0:0:
256,192,102389,1,0,0:0:0:0:
256,192,102722,1,0,0:0:0:0:
256,192,103055,1,0,0:0:0:0:
256,192,103389,1,8,0:0:0:0:
256,192,103722,1,0,0:0:0:0:
256,192,104055,1,0,0:0:0:0:
256,192,104389,1,0,0:0:0:0:
256,192,104722,1,8,0:0:0:0:
256,192,105055,1,0,0:0:0:0:
256,192,105389,1,8,0:0:0:0:
256,192,105722,1,0,0:0:0:0:
256,192,106055,1,8,0:0:0:0:
256,192,106389,1,8,0:0:0:0:
256,192,106722,1,0,0:0:0:0:
256,192,107055,1,0,0:0:0:0:
256,192,107222,1,8,0:0:0:0:
256,192,107389,1,8,0:0:0:0:
256,192,107722,1,0,0:0:0:0:
256,192,107889,1,0,0:0:0:0:
256,192,108055,1,8,0:0:0:0:
256,192,108222,1,8,0:0:0:0:
256,192,108389,1,0,0:0:0:0:
256,192,108722,1,8,0:0:0:0:
256,192,108889,1,8,0:0:0:0:
256,192,109055,1,0,0:0:0:0:
256,192,109389,1,8,0:0:0:0:
256,192,109555,1,8,0:0:0:0:
256,192,109722,1,0,0:0:0:0:
256,192,109889,1,8,0:0:0:0:
256,192,110055,1,0,0:0:0:0:
256,192,110222,1,0,0:0:0:0:
256,192,110389,1,8,0:0:0:0:
256,192,110555,1,8,0:0:0:0:
256,192,110722,1,0,0:0:0:0:
256,192,110889,2,0,B|128:192|352:192|352:192|256:192|256:192,1,262.500010013581
256,192,112055,1,0,0:0:0:0:
256,192,112389,1,8,0:0:0:0:
256,192,112722,1,8,0:0:0:0:
256,192,112889,1,0,0:0:0:0:
256,192,113055,1,8,0:0:0:0:
256,192,113389,1,0,0:0:0:0:
256,192,113722,1,8,0:0:0:0:
256,192,114055,1,8,0:0:0:0:
256,192,114222,1,0,0:0:0:0:
256,192,114389,1,8,0:0:0:0:
256,192,114722,1,0,0:0:0:0:
256,192,114889,1,8,0:0:0:0:
256,192,115055,1,8,0:0:0:0:
256,192,115389,1,8,0:0:0:0:
256,192,115555,1,0,0:0:0:0:
256,192,115722,1,8,0:0:0:0:
256,192,115889,1,0,0:0:0:0:
256,192,116055,1,8,0:0:0:0:
256,192,116389,1,0,0:0:0:0:
256,192,116555,1,8,0:0:0:0:
256,192,116722,1,8,0:0:0:0:
256,192,117055,1,0,0:0:0:0:
256,192,117389,1,0,0:0:0:0:
256,192,117555,1,8,0:0:0:0:
256,192,117722,1,0,0:0:0:0:
256,192,118055,1,8,0:0:0:0:
256,192,118389,1,0,0:0:0:0:
256,192,118722,1,0,0:0:0:0:
256,192,118889,1,8,0:0:0:0:
256,192,119055,1,0,0:0:0:0:
256,192,119222,1,8,0:0:0:0:
256,192,119389,1,8,0:0:0:0:
256,192,119722,1,8,0:0:0:0:
256,192,120055,1,0,0:0:0:0:
256,192,120389,1,0,0:0:0:0:
256,192,120555,1,8,0:0:0:0:
256,192,120722,1,8,0:0:0:0:
256,192,120889,1,0,0:0:0:0:
256,192,121055,1,8,0:0:0:0:
256,192,121389,1,0,0:0:0:0:
256,192,121555,1,8,0:0:0:0:
256,192,121722,1,0,0:0:0:0:
256,192,121889,1,0,0:0:0:0:
256,192,122055,1,8,0:0:0:0:
256,192,122389,1,8,0:0:0:0:
256,192,122722,1,0,0:0:0:0:
256,192,122889,1,8,0:0:0:0:
256,192,123055,1,8,0:0:0:0:
256,192,123389,1,8,0:0:0:0:
256,192,123555,1,0,0:0:0:0:
256,192,123722,1,8,0:0:0:0:
256,192,123889,1,8,0:0:0:0:
256,192,124055,1,0,0:0:0:0:
256,192,124389,1,8,0:0:0:0:
256,192,124722,1,8,0:0:0:0:
256,192,124889,1,0,0:0:0:0:
256,192,125055,1,8,0:0:0:0:
256,192,125222,1,0,0:0:0:0:
256,192,125389,1,0,0:0:0:0:
256,192,125722,1,8,0:0:0:0:
256,192,126055,1,8,0:0:0:0:
256,192,126222,1,0,0:0:0:0:
256,192,126389,1,8,0:0:0:0:
256,192,126555,1,8,0:0:0:0:
256,192,126722,1,0,0:0:0:0:
256,192,127055,1,0,0:0:0:0:
256,192,127222,1,0,0:0:0:0:
256,192,127389,1,8,0:0:0:0:
256,192,127722,1,0,0:0:0:0:
256,192,128055,1,8,0:0:0:0:
256,192,128222,1,8,0:0:0:0:
256,192,128389,1,0,0:0:0:0:
256,192,128722,1,8,0:0:0:0:
256,192,128889,1,0,0:0:0:0:
256,192,129055,1,0,0:0:0:0:
256,192,129222,1,8,0:0:0:0:
256,192,129389,1,8,0:0:0:0:
256,192,129722,1,8,0:0:0:0:
256,192,129889,1,0,0:0:0:0:
256,192,130055,1,8,0:0:0:0:
256,192,130222,1,8,0:0:0:0:
256,192,130389,1,0,0:0:0:0:
256,192,130722,1,0,0:0:0:0:
256,192,130889,1,8,0:0:0:0:
256,192,131055,1,8,0:0:0:0:
256,192,131222,1,0,0:0:0:0:
256,192,131389,1,8,0:0:0:0:
256,192,131722,1,0,0:0:0:0:
256,192,131889,1,0,0:0:0:0:
256,192,132055,1,8,0:0:0:0:
256,192,132389,1,0,0:0:0:0:
256,192,132555,1,8,0:0:0:0:
256,192,132722,1,8,0:0:0:0:
256,192,132889,1,0,0:0:0:0:
256,192,133055,1,0,0:0:0:0:
256,192,133222,1,8,0:0:0:0:
256,192,133389,1,0,0:0:0:0:
256,192,133723,1,8,0:0:0:0:
256,192,134056,1,8,0:0:0:0:
256,192,134223,1,0,0:0:0:0:
256,192,134389,1,8,0:0:0:0:
256,192,134723,1,0,0:0:0:0:
256,192,135056,1,8,0:0:0:0:
256,192,135389,1,8,0:0:0:0:
256,192,135556,1,0,0:0:0:0:
256,192,135723,1,8,0:0:0:0:
256,192,136056,1,0,0:0:0:0:
256,192,136223,1,8,0:0:0:0:
256,192,136389,1,8,0:0:0:0:
256,192,136723,1,8,0:0:0:0:
256,192,136889,1,0,0:0:0:0:
256,192,137056,1,8,0:0:0:0:
256,192,137223,1,0,0:0:0:0:
256,192,137389,1,8,0:0:0:0:
256,192,137723,1,0,0:0:0:0:
256,192,137889,1,8,0:0:0:0:
256,192,138056,1,8,0:0:0:0:
256,192,138389,1,0,0:0:0:0:
256,192,138723,1,0,0:0:0:0:
256,192,138889,1,8,0:0:0:0:
256,192,139056,1,0,0:0:0:0:
256,192,139389,1,8,0:0:0:0:
256,192,139723,1,0,0:0:0:0:
256,192,140056,1,0,0:0:0:0:
256,192,140223,1,8,0:0:0:0:
256,192,140389,1,0,0:0:0:0:
256,192,140556,1,8,0:0:0:0:
256,192,140723,1,8,0:0:0:0:
256,192,141056,1,8,0:0:0:0:
256,192,141389,1,0,0:0:0:0:
256,192,141723,1,0,0:0:0:0:
256,192,141889,1,8,0:0:0:0:
256,192,142056,1,8,0:0:0:0:
256,192,142223,1,0,0:0:0:0:
256,192,142389,1,8,0:0:0:0:
256,192,142723,1,0,0:0:0:0:
256,192,142889,1,8,0:0:0:0:
256,192,143056,1,0,0:0:0:0:
256,192,143223,1,0,0:0:0:0:
256,192,143389,1,8,0:0:0:0:
256,192,143723,1,8,0:0:0:0:
256,192,144056,1,0,0:0:0:0:
256,192,144223,1,8,0:0:0:0:
256,192,144389,1,8,0:0:0:0:
256,192,144723,1,8,0:0:0:0:
256,192,144889,1,0,0:0:0:0:
256,192,145056,1,8,0:0:0:0:
256,192,145223,1,8,0:0:0:0:
256,192,145389,1,0,0:0:0:0:
256,192,145723,1,8,0:0:0:0:
256,192,146056,1,8,0:0:0:0:
256,192,146223,1,0,0:0:0:0:
256,192,146389,1,8,0:0:0:0:
256,192,146556,1,0,0:0:0:0:
256,192,146723,1,0,0:0:0:0:
256,192,147056,1,8,0:0:0:0:
256,192,147389,1,8,0:0:0:0:
256,192,147556,1,0,0:0:0:0:
256,192,147723,1,8,0:0:0:0:
256,192,147889,1,8,0:0:0:0:
256,192,148056,1,0,0:0:0:0:
256,192,148389,1,0,0:0:0:0:
256,192,148556,1,0,0:0:0:0:
256,192,148723,1,8,0:0:0:0:
256,192,149056,1,0,0:0:0:0:
256,192,149389,1,8,0:0:0:0:
256,192,149556,1,8,0:0:0:0:
256,192,149723,1,0,0:0:0:0:
256,192,150056,1,8,0:0:0:0:
256,192,150223,1,0,0:0:0:0:
256,192,150389,1,0,0:0:0:0:
256,192,150556,1,8,0:0:0:0:
256,192,150723,1,8,0:0:0:0:
256,192,151056,1,8,0:0:0:0:
256,192,151223,1,0,0:0:0:0:
256,192,151389,1,8,0:0:0:0:
256,192,151556,1,8,0:0:0:0:
256,192,151723,1,0,0:0:0:0:
256,192,152056,1,0,0:0:0:0:
256,192,152223,1,8,0:0:0:0:
256,192,152389,1,8,0:0:0:0:
256,192,152556,1,0,0:0:0:0:
256,192,152723,1,8,0:0:0:0:
256,192,153056,1,0,0:0:0:0:
256,192,153223,1,0,0:0:0:0:
256,192,153389,1,8,0:0:0:0:
256,192,153722,1,0,0:0:0:0:
256,192,154055,1,8,0:0:0:0:
256,192,154222,1,0,0:0:0:0:
256,192,154389,1,8,0:0:0:0:
256,192,154555,1,0,0:0:0:0:
256,192,154722,1,0,0:0:0:0:
256,192,155389,1,0,0:0:0:0:
256,192,155889,1,0,0:0:0:0:
256,192,156055,1,8,0:0:0:0:
256,192,156722,1,8,0:0:0:0:
256,192,157389,1,0,0:0:0:0:
256,192,157889,1,0,0:0:0:0:
256,192,158055,1,8,0:0:0:0:
256,192,158555,1,0,0:0:0:0:
256,192,158722,1,8,0:0:0:0:
256,192,160055,1,0,0:0:0:0:
256,192,160722,1,8,0:0:0:0:
256,192,161222,1,0,0:0:0:0:
256,192,161389,1,8,0:0:0:0:
256,192,162722,1,0,0:0:0:0:
256,192,163389,1,8,0:0:0:0:
256,192,163889,1,0,0:0:0:0:
256,192,164055,1,8,0:0:0:0:
