osu file format v14

[General]
AudioFilename: The Living Tombstone - I Got No Time.mp3
AudioLeadIn: 0
PreviewTime: 90730
Countdown: 0
SampleSet: Soft
StackLeniency: 0.7
Mode: 0
LetterboxInBreaks: 0
WidescreenStoryboard: 1

[Editor]
DistanceSpacing: 1.3
BeatDivisor: 4
GridSize: 4
TimelineZoom: 1.5

[Metadata]
Title:I Got No Time
TitleUnicode:I Got No Time
Artist:The Living Tombstone
ArtistUnicode:The Living Tombstone
Creator:mhx
Version:I Got No Time To Live
Source:The Living Tombstone
Tags:Five Nights At Freddy's 4 FNAF 4
BeatmapID:1523144
BeatmapSetID:721322

[Difficulty]
HPDrainRate:7
CircleSize:4.5
OverallDifficulty:8
ApproachRate:9
SliderMultiplier:1.4
SliderTickRate:1

[Events]
//Background and Video events
0,0,"Background.jpg",0,0
//Break Periods
2,26931,36415
2,90931,100415
//Storyboard Layer 0 (Background)
//Storyboard Layer 1 (Fail)
//Storyboard Layer 2 (Pass)
//Storyboard Layer 3 (Foreground)
//Storyboard Sound Samples

[TimingPoints]
64,333.333333333333,4,2,0,100,1,0
5397,-50,4,2,0,100,0,0
48063,-100,4,2,0,100,0,1
69397,-100,4,2,0,100,0,0
112063,-100,4,2,0,100,0,1
133313,-100,4,2,0,100,0,0
133397,-100,4,2,0,100,0,1
154730,-100,4,2,0,100,0,0

[Colours]
Combo1 : 66,0,176
Combo2 : 255,255,255
Combo3 : 204,66,190
Combo4 : 255,64,0

[HitObjects]
88,184,5397,5,0,2:2:0:0:
208,320,5564,1,0,2:2:0:0:
332,172,5731,1,0,2:2:0:0:
388,92,5898,2,0,P|432:144|420:216,1,140,0|0,2:2|2:2,2:2:0:0:
304,316,6231,6,0,P|288:264|196:232,1,140,0|0,2:2|2:2,2:2:0:0:
332,172,6565,1,0,2:2:0:0:
208,320,6731,2,0,P|136:312|96:232,1,140,0|0,2:2|2:2,2:2:0:0:
120,84,7065,1,0,2:2:0:0:
228,144,7231,1,0,0:0:0:0:
252,180,7314,1,0,0:0:0:0:
260,224,7397,1,0,0:0:0:0:
116,336,7564,5,0,2:2:0:0:
76,160,7731,2,0,P|112:116|192:80,1,140,0|0,2:2|2:2,2:2:0:0:
368,52,8064,1,0,2:2:0:0:
260,224,8231,2,0,P|264:292|312:360,1,140,0|0,2:2|2:2,2:2:0:0:
360,264,8564,1,0,0:0:0:0:
456,300,8731,2,0,P|452:232|404:164,1,140,0|0,2:2|2:2,2:2:0:0:
252,136,9064,1,0,0:0:0:0:
140,280,9231,2,0,P|96:232|108:136,2,140
316,324,9731,1,0,0:0:0:0:
402,172,9897,2,0,P|346:112|246:108,1,140
108,84,10231,5,0,2:2:0:0:
292,100,10398,2,0,P|280:152|208:232,1,140
64,296,10731,1,0,0:0:0:0:
184,116,10898,2,0,P|124:160|152:264,1,140
196,336,11231,1,0,0:0:0:0:
256,228,11398,1,0,0:0:0:0:
168,144,11564,2,0,P|256:120|328:144,1,140
256,228,11898,5,0,0:0:0:0:
456,352,12064,2,0,P|416:347|316:287,1,140
168,144,12397,2,0,P|256:120|328:144,1,140
344,152,12647,1,0,0:0:0:0:
376,184,12731,2,0,P|384:228|308:264,1,140
168,144,13064,1,0,0:0:0:0:
216,264,13231,6,0,P|164:280|76:228,1,140
40,144,13564,1,0,0:0:0:0:
154,355,13731,2,0,P|106:323|90:239,1,140
152,136,14064,1,0,0:0:0:0:
394,118,14231,2,0,P|322:102|254:122,1,140
184,240,14564,1,0,0:0:0:0:
260,120,14731,2,0,P|328:220|228:356,1,280
152,344,15231,2,0,P|112:304|116:224,1,140
184,164,15564,1,0,0:0:0:0:
260,120,15731,6,0,L|392:32,1,140
320,168,16064,1,0,0:0:0:0:
448,168,16231,2,0,L|331:245,1,140
240,300,16564,2,0,B|184:332|184:332|144:308|128:256,1,140
120,160,16898,5,0,0:0:0:0:
336,276,17065,2,0,P|296:224|232:184,1,140
336,184,17398,2,0,P|272:212|264:312,1,140
304,348,17731,1,0,0:0:0:0:
440,256,17897,1,0,0:0:0:0:
424,212,17981,1,0,0:0:0:0:
384,192,18064,1,0,0:0:0:0:
251,274,18231,5,0,0:0:0:0:
100,252,18398,2,0,P|76:180|100:116,1,140
192,192,18731,1,0,0:0:0:0:
304,140,18898,2,0,B|256:80|176:80,1,140
192,192,19231,1,0,0:0:0:0:
100,252,19398,2,0,P|152:292|240:300,1,140
322,230,19731,2,0,P|256:196|178:194,1,140
224,302,20064,2,0,B|320:316|356:308|380:292|396:264|404:240|412:160,1,280
320,60,20564,2,0,P|252:68|236:168,1,140
304,140,20897,6,0,P|273:199|206:206,1,140
49,124,21230,1,0,0:0:0:0:
76,332,21397,2,0,L|232:280,1,140
408,56,21730,2,0,L|275:100,1,140
463,260,22063,1,0,0:0:0:0:
208,287,22230,1,0,0:0:0:0:
49,124,22398,1,0,0:0:0:0:
303,96,22563,5,0,0:0:0:0:
381,267,22730,2,0,P|333:261|297:181,1,140
131,117,23064,2,0,P|179:123|215:203,1,140
80,228,23313,1,0,0:0:0:0:
208,287,23397,2,0,P|260:336|328:335,1,140
300,232,23731,1,0,0:0:0:0:
222,196,23898,6,0,P|158:180|138:88,1,140
80,228,24231,1,0,0:0:0:0:
224,96,24398,1,0,0:0:0:0:
356,156,24564,2,0,P|404:232|390:291,2,140
224,96,25064,1,0,0:0:0:0:
85,157,25231,1,0,0:0:0:0:
140,280,25398,2,0,B|184:336|280:380|400:368|468:276|388:156|388:156|408:140|464:137|452:92|452:92|392:68|352:100|296:156|296:156|328:180|348:196|368:228|380:264|360:280|336:292|300:296|260:296|212:288|192:256|168:216|144:172,1,1120
94,221,37398,5,0,0:0:0:0:
170,220,37731,1,0,0:0:0:0:
256,217,38064,1,0,0:0:0:0:
343,210,38398,1,0,0:0:0:0:
148,296,38731,6,0,P|212:312|277:280,3,140
47,220,40064,6,0,P|77:172|159:127,1,140
306,110,40731,2,0,P|268:179|183:210,1,140
274,124,41398,5,0,0:0:0:0:
301,225,41731,1,0,0:0:0:0:
188,304,42064,1,0,0:0:0:0:
52,262,42398,1,0,0:0:0:0:
86,148,42731,5,0,0:0:0:0:
144,88,43064,2,0,P|192:55|288:58,1,140
319,142,43731,1,0,0:0:0:0:
276,216,44064,1,0,0:0:0:0:
276,216,44231,1,0,0:0:0:0:
276,216,44398,1,0,0:0:0:0:
276,216,44564,1,0,0:0:0:0:
276,216,44731,1,0,0:0:0:0:
276,216,44898,1,0,0:0:0:0:
276,216,45064,1,0,0:0:0:0:
276,216,45231,1,0,0:0:0:0:
256,192,45398,12,0,46731,0:0:0:0:
168,136,48064,5,0,0:0:0:0:
84,268,48398,2,0,P|168:296|232:260,1,140,0|0,0:0|1:1,0:0:0:0:
140,168,49064,2,0,P|204:136|284:160,1,140
360,236,49731,1,0,0:0:0:0:
320,0,50064,2,0,P|376:40|396:120,1,140,0|0,1:1|0:0,0:0:0:0:
300,104,50731,5,0,0:0:0:0:
280,200,51064,2,0,P|208:188|144:128,1,140,0|0,0:0|1:1,0:0:0:0:
64,220,51564,2,0,P|32:184|40:152,2,70
136,264,52064,5,0,0:0:0:0:
232,288,52398,2,0,B|264:252|224:208|248:152,1,140,0|0,0:0|1:1,0:0:0:0:
168,204,52981,1,0,0:0:0:0:
140,128,53231,1,0,0:0:0:0:
216,108,53564,2,0,P|164:72|152:80,1,70
104,144,54064,5,0,1:1:0:0:
244,212,54398,2,0,P|196:200|176:156,1,70
184,72,54898,2,0,P|232:84|252:128,1,70
160,180,55398,1,0,1:1:0:0:
248,208,55564,1,0,0:0:0:0:
232,104,55814,5,0,0:0:0:0:
360,88,56064,1,0,0:0:0:0:
316,184,56398,2,0,B|339:189|356:208|344:232|320:238|308:256|320:271|376:308,1,140,0|0,0:0|1:1,0:0:0:0:
420,304,56898,1,0,0:0:0:0:
300,220,57064,1,0,0:0:0:0:
180,256,57398,1,0,0:0:0:0:
108,224,57564,2,0,B|79:206|64:176|88:144|124:112|124:112|48:88,1,210,0|0,0:0|1:1,0:0:0:0:
8,152,58398,1,0,0:0:0:0:
24,232,58731,6,0,P|56:264|156:264,1,140
104,168,59398,1,0,0:0:0:0:
204,252,59731,2,0,B|176:208|216:160|236:148|224:112,1,140
36,164,60398,5,0,0:0:0:0:
28,248,60731,2,0,B|41:233|60:228|81:236|88:249|96:267|120:280|144:272|160:240,1,140,0|0,1:1|0:0,0:0:0:0:
120,172,61398,1,0,0:0:0:0:
212,232,61731,6,0,B|196:189|192:156|232:160|280:200,1,140,0|0,0:0|1:1,0:0:0:0:
320,248,62231,2,0,B|353:234|353:234|333:190,2,70
328,316,62731,5,0,0:0:0:0:
240,308,63064,1,0,0:0:0:0:
208,248,63231,2,0,P|164:252|128:220,1,70,0|0,0:0|1:1,0:0:0:0:
88,300,63731,1,0,0:0:0:0:
40,228,64064,2,0,P|72:152|140:140,3,140,0|0|0|0,0:0|0:0|1:1|0:0,0:0:0:0:
160,204,65398,5,0,0:0:0:0:
288,224,65731,2,0,P|280:168|200:108,1,140,0|0,0:0|1:1,0:0:0:0:
96,112,66398,1,0,0:0:0:0:
104,200,66564,2,0,P|144:220|188:208,1,70
264,160,67064,2,0,P|232:116|192:104,3,70,0|0|0|0,0:0|0:0|1:1|0:0,0:0:0:0:
144,176,67731,1,0,0:0:0:0:
144,176,67898,1,0,0:0:0:0:
144,176,68064,1,0,1:1:0:0:
116,240,69398,5,0,0:0:0:0:
192,276,69564,2,0,P|220:240|216:196,1,70
308,132,70231,5,0,0:0:0:0:
272,64,70398,2,0,P|228:80|216:112,1,70
224,176,70731,1,0,0:0:0:0:
288,248,70898,2,0,P|272:268|208:256,1,70
168,248,71231,1,0,0:0:0:0:
156,236,71314,1,0,0:0:0:0:
140,216,71398,1,0,0:0:0:0:
120,172,71564,6,0,P|144:132|176:116,2,70
152,248,72064,1,0,0:0:0:0:
228,256,72231,2,0,P|264:220|264:184,1,70
212,168,72564,1,0,0:0:0:0:
232,104,72731,1,0,0:0:0:0:
296,68,72898,2,0,P|336:84|360:116,1,70
352,200,73231,1,0,0:0:0:0:
264,216,73398,1,0,0:0:0:0:
152,168,74064,5,0,0:0:0:0:
64,260,74231,2,0,P|104:296|144:292,1,70
152,236,74564,1,0,0:0:0:0:
240,252,74731,2,0,P|244:200|224:164,1,70
112,148,75064,1,0,0:0:0:0:
32,176,75231,2,0,P|36:224|72:248,2,70
96,108,75731,1,0,0:0:0:0:
160,80,75898,6,0,P|184:112|192:160,1,70
256,164,76231,2,0,P|275:119|272:80,2,70
220,196,76648,1,0,0:0:0:0:
192,208,76731,1,0,0:0:0:0:
156,212,76814,1,0,0:0:0:0:
128,216,76898,2,0,P|72:184|64:172,1,70
128,144,77231,5,0,0:0:0:0:
108,80,77398,2,0,P|64:108|60:132,1,70
48,216,77731,1,0,0:0:0:0:
112,252,77898,1,0,0:0:0:0:
184,272,78064,2,0,P|220:264|248:244,1,70
232,184,78398,2,0,P|196:180|164:200,1,70
72,152,78731,1,0,0:0:0:0:
80,72,79731,5,0,0:0:0:0:
160,120,79898,2,0,P|176:83|226:82,1,70
260,120,80231,1,0,0:0:0:0:
272,192,80398,1,0,0:0:0:0:
356,264,80731,6,0,P|324:296|272:304,1,70
272,248,80898,1,0,0:0:0:0:
220,312,81064,1,0,0:0:0:0:
212,228,81231,1,0,0:0:0:0:
152,248,81398,2,0,P|132:200|136:176,2,70
176,268,81898,1,0,0:0:0:0:
208,276,81981,1,0,0:0:0:0:
244,276,82064,1,0,0:0:0:0:
324,288,82231,6,0,P|340:256|332:216,1,70
296,164,82564,1,0,0:0:0:0:
248,216,82731,2,0,P|200:200|192:168,2,70
320,240,83231,1,0,0:0:0:0:
384,256,83398,2,0,P|416:224|404:176,1,70
376,144,83731,1,0,0:0:0:0:
304,116,83898,1,0,0:0:0:0:
192,160,84064,1,0,0:0:0:0:
264,160,85064,5,0,0:0:0:0:
328,120,85231,2,0,P|312:76|276:68,1,70
224,72,85564,1,0,0:0:0:0:
140,108,85731,1,0,0:0:0:0:
104,172,85898,2,0,P|84:212|108:248,2,70
128,104,86398,2,0,P|168:88|200:104,1,70
248,160,86731,5,0,0:0:0:0:
280,88,86898,2,0,P|324:100|352:132,2,70
240,96,87314,1,0,0:0:0:0:
212,108,87398,1,0,0:0:0:0:
184,128,87481,1,0,0:0:0:0:
152,188,87564,2,0,B|160:232|228:208,1,70
220,160,87898,2,0,P|204:128|232:104,1,70
304,92,88231,5,0,0:0:0:0:
312,180,88398,2,0,P|320:224|304:260,1,70
160,256,88731,2,0,P|128:224|128:184,1,70
148,136,89064,2,0,P|120:100|76:108,1,70
36,152,89398,2,0,P|264:312|464:152,1,560
52,56,101398,21,0,0:0:0:0:
420,320,102731,5,0,0:0:0:0:
52,320,104064,5,0,0:0:0:0:
444,52,105398,5,0,0:0:0:0:
332,72,105731,6,0,P|244:56|196:80,1,140
132,104,106398,1,0,0:0:0:0:
56,192,106731,5,0,0:0:0:0:
80,272,107064,1,0,0:0:0:0:
188,292,107398,1,0,0:0:0:0:
272,272,107731,1,0,0:0:0:0:
368,244,108064,6,0,P|396:208|340:128,2,140
292,272,109064,1,0,0:0:0:0:
316,252,109398,5,0,0:0:0:0:
316,252,109564,1,0,0:0:0:0:
316,252,109731,1,0,0:0:0:0:
316,252,109898,1,0,0:0:0:0:
316,252,110064,1,0,0:0:0:0:
316,252,110231,1,0,0:0:0:0:
316,252,110398,1,0,0:0:0:0:
316,252,110564,1,0,0:0:0:0:
316,252,110731,5,0,0:0:0:0:
316,252,110814,1,0,0:0:0:0:
316,252,110898,1,0,0:0:0:0:
316,252,110981,1,0,0:0:0:0:
316,252,111064,1,0,0:0:0:0:
316,252,111148,1,0,0:0:0:0:
316,252,111231,1,0,0:0:0:0:
256,192,111398,12,0,111731,0:0:0:0:
320,112,112064,5,0,0:0:0:0:
220,56,112398,2,0,P|156:124|192:168,2,140,0|0|0,0:0|1:1|0:0,0:0:0:0:
320,96,113398,5,0,0:0:0:0:
248,184,113731,1,0,0:0:0:0:
328,184,114064,2,0,P|336:232|252:276,1,140,0|0,1:1|0:0,0:0:0:0:
196,224,114731,5,0,0:0:0:0:
80,196,115064,2,0,P|88:132|168:104,1,140,0|0,0:0|1:1,0:0:0:0:
224,116,115564,1,0,0:0:0:0:
244,64,115731,2,0,P|284:56|304:84,1,70
340,144,116064,5,0,0:0:0:0:
368,220,116398,2,0,B|388:252|372:276|344:304|380:356,1,140,0|0,0:0|1:1,0:0:0:0:
304,340,117064,2,0,P|264:356|216:328,1,70
256,272,117564,2,0,P|228:256|192:268,1,70
128,312,118064,5,0,1:1:0:0:
60,244,118398,2,0,P|100:216|124:240,1,70
192,264,118898,2,0,P|232:272|272:264,1,70
304,212,119398,1,0,1:1:0:0:
272,144,119564,1,0,0:0:0:0:
204,88,120064,6,0,P|144:116|112:200,1,140
176,224,120564,1,0,0:0:0:0:
272,264,120898,2,0,P|304:232|304:200,1,70
292,128,121398,1,0,0:0:0:0:
228,92,121564,2,0,P|172:100|132:188,1,140
164,232,122064,1,0,1:1:0:0:
248,224,122398,2,0,P|288:264|380:232,2,140
192,136,123398,5,0,1:1:0:0:
168,224,123731,2,0,P|136:256|44:228,2,140
208,136,124731,5,0,1:1:0:0:
268,72,125064,2,0,P|324:124|312:196,1,140
260,240,125731,1,0,0:0:0:0:
168,244,126064,5,0,1:1:0:0:
100,212,126231,2,0,P|64:184|72:152,2,70
168,244,126731,1,0,0:0:0:0:
324,208,127064,6,0,P|320:152|244:104,1,140,0|0,0:0|1:1,0:0:0:0:
216,204,127731,1,0,0:0:0:0:
120,164,128064,2,0,P|112:248|168:280,1,140
240,292,128731,1,0,1:1:0:0:
288,216,129064,5,0,0:0:0:0:
368,264,129398,2,0,P|368:192|312:128,1,140
248,160,130064,2,0,P|200:116|216:40,1,140,0|0,1:1|0:0,0:0:0:0:
284,56,130564,5,0,0:0:0:0:
356,68,130731,2,0,B|368:116|288:152|304:200,1,140
248,248,131231,1,0,0:0:0:0:
164,264,131398,1,0,1:1:0:0:
72,272,131564,2,0,P|32:240|36:148,2,140
144,264,132398,5,0,0:0:0:0:
208,252,132564,1,0,0:0:0:0:
308,224,132731,2,0,P|328:176|260:120,1,140,0|0,1:1|0:0,0:0:0:0:
356,176,133398,5,0,0:0:0:0:
288,100,133731,2,0,P|252:176|188:184,1,140,0|0,2:2|1:1,2:2:0:0:
68,168,134398,1,0,0:0:0:0:
80,264,134731,5,0,0:0:0:0:
136,176,135064,2,0,P|164:216|152:304,1,140,0|0,0:0|1:1,0:0:0:0:
232,224,135731,1,0,0:0:0:0:
264,312,136064,6,0,P|360:280|380:224,1,140
380,188,136731,2,0,P|360:160|304:152,2,70,0|0|0,1:1|0:0|0:0,0:0:0:0:
384,248,137231,1,0,0:0:0:0:
352,304,137398,2,0,P|312:308|232:248,1,140
172,148,138064,5,0,1:1:0:0:
184,224,138398,1,0,0:0:0:0:
264,196,138564,2,0,P|288:152|248:76,1,140
176,72,139064,1,0,0:0:0:0:
152,184,139398,2,0,P|200:224|284:216,1,140,0|0,1:1|0:0,0:0:0:0:
232,144,139898,5,0,0:0:0:0:
324,144,140231,2,0,P|352:168|356:224,1,70
292,260,140731,1,0,1:1:0:0:
196,248,140898,2,0,P|136:216|140:132,1,140
192,108,141398,5,0,0:0:0:0:
248,156,141731,2,0,P|228:200|132:212,1,140,0|0,0:0|1:1,0:0:0:0:
128,140,142231,1,0,0:0:0:0:
192,100,142398,1,0,0:0:0:0:
196,200,142731,6,0,P|232:200|248:164,1,70
244,88,143231,1,0,0:0:0:0:
332,132,143398,2,0,P|368:208|328:272,2,140,0|0|0,1:1|0:0|0:0,0:0:0:0:
260,116,144398,5,0,0:0:0:0:
164,120,144731,1,0,1:1:0:0:
80,180,145064,1,0,0:0:0:0:
84,272,145398,2,0,P|132:292|220:272,1,140
168,212,146064,6,0,P|216:196|300:220,1,140,0|0,1:1|0:0,0:0:0:0:
384,168,146731,1,0,0:0:0:0:
320,104,147064,1,0,0:0:0:0:
296,172,147398,2,0,P|216:212|208:280,1,140,0|0,1:1|0:0,0:0:0:0:
280,264,147898,1,0,0:0:0:0:
352,252,148064,1,0,0:0:0:0:
404,192,148398,2,0,B|372:136|320:188|276:108,2,140,0|0|0,0:0|1:1|0:0,0:0:0:0:
328,256,149398,5,0,0:0:0:0:
236,288,149731,2,0,P|184:248|156:168,1,140,0|0,0:0|1:1,0:0:0:0:
224,136,150398,1,0,0:0:0:0:
292,176,150731,2,0,P|304:136|248:64,2,140,0|0|0,0:0|0:0|1:1,0:0:0:0:
192,156,151731,5,0,0:0:0:0:
144,200,151898,2,0,P|124:232|140:264,1,70
196,272,152231,2,0,B|244:204|328:268|328:268|344:208,1,210,0|0,0:0|0:1,3:3:0:0:
360,136,152898,1,0,0:0:0:0:
344,68,153064,2,0,P|300:64|256:88,1,70
224,180,153398,1,0,1:1:0:0:
256,192,153731,12,0,154398,0:0:0:0:
256,192,154731,12,0,159731,0:0:0:0:
