osu file format v14

[General]
AudioFilename: audio.mp3
AudioLeadIn: 0
PreviewTime: 82729
Countdown: 0
SampleSet: Normal
StackLeniency: 0.7
Mode: 1
LetterboxInBreaks: 0
WidescreenStoryboard: 0

[Editor]
Bookmarks: 99281,228979
DistanceSpacing: 0.9
BeatDivisor: 4
GridSize: 16
TimelineZoom: 1.9

[Metadata]
Title:I Can't Fix You feat. Crusher-P
TitleUnicode:I Can't Fix You feat. Crusher-P
Artist:The Living Tombstone
ArtistUnicode:The Living Tombstone
Creator:Molybdenum
Version:HeLLFly's Oni
Source:
Tags:_hellfly_ electronic dnb d'n'b drum and bass english rock pop cant crusherp cien rojas miller omega destroyer dictator bunny lord female vocals vocalist 5 five nights at freddys freddy's sister location fnafsl tlt thelivingtombstone
BeatmapID:4089693
BeatmapSetID:1970073

[Difficulty]
HPDrainRate:6
CircleSize:5
OverallDifficulty:5
ApproachRate:10
SliderMultiplier:1.4
SliderTickRate:1

[Events]
//Background and Video events
0,0,"i_can_t_fix_you_by_yingyang48_dard6b9.png",0,70
//Break Periods
//Storyboard Layer 0 (Background)
//Storyboard Layer 1 (Fail)
//Storyboard Layer 2 (Pass)
//Storyboard Layer 3 (Foreground)
//Storyboard Layer 4 (Overlay)
//Storyboard Sound Samples

[TimingPoints]
18,517.241379310345,4,1,0,50,1,0
18,-111.111111111111,4,1,0,50,0,0
13757,-95.2380952380952,4,1,0,50,0,0
13807,344.827586206897,4,1,0,70,1,0
27600,-98.0392156862745,4,1,0,70,0,0
30315,-86.9565217391304,4,1,0,70,0,0
30358,-86.9565217391304,4,1,0,75,0,1
39324,-86.9565217391304,4,1,0,75,0,0
39367,-100,4,1,0,75,0,0
40186,-98.1796867367873,4,1,0,75,0,0
40272,-97.294157510044,4,1,0,75,0,0
40358,-96.4244595113215,4,1,0,75,0,0
40531,-94.7212164529025,4,1,0,75,0,0
40703,-93.0864407172133,4,1,0,75,0,0
40789,-92.290032523436,4,1,0,75,0,0
40875,-91.4981108599002,4,1,0,75,0,0
40962,-90.7285366073847,4,1,0,75,0,0
41048,-89.9717998836186,4,1,0,75,0,0
41220,-88.495575221239,4,1,0,75,0,0
41393,-86.9565217391304,4,1,0,75,0,1
50358,-86.9565217391304,4,1,0,75,0,0
50401,-100,4,1,0,75,0,0
51220,-98.1796867367873,4,1,0,75,0,0
51307,-97.294157510044,4,1,0,75,0,0
51393,-96.4244595113215,4,1,0,75,0,0
51565,-94.7212164529025,4,1,0,75,0,0
51738,-93.0864407172133,4,1,0,75,0,0
51824,-92.290032523436,4,1,0,75,0,0
51910,-91.4981108599002,4,1,0,75,0,0
51996,-90.7285366073847,4,1,0,75,0,0
52082,-89.9717998836186,4,1,0,75,0,0
52255,-88.495575221239,4,1,0,75,0,0
55143,-86.9565217391304,4,1,0,75,0,0
55186,-86.9565217391304,4,1,0,70,0,0
63548,-89.2857142857143,4,1,0,70,0,0
65875,-91.743119266055,4,1,0,70,0,0
66048,-93.4579439252336,4,1,0,70,0,0
66220,-95.2380952380952,4,1,0,70,0,0
82729,-86.9565217391304,4,1,0,70,0,0
82772,-86.9565217391304,4,1,0,75,0,1
91738,-86.9565217391304,4,1,0,75,0,0
91781,-100,4,1,0,75,0,0
92600,-98.1796867367873,4,1,0,75,0,0
92686,-97.294157510044,4,1,0,75,0,0
92772,-96.4244595113215,4,1,0,75,0,0
92944,-94.7212164529025,4,1,0,75,0,0
93117,-93.0864407172133,4,1,0,75,0,0
93203,-92.290032523436,4,1,0,75,0,0
93289,-91.4981108599002,4,1,0,75,0,0
93375,-90.7285366073847,4,1,0,75,0,0
93462,-89.9717998836186,4,1,0,75,0,0
93634,-88.495575221239,4,1,0,75,0,0
93807,-86.9565217391304,4,1,0,75,0,1
96565,-88.0801767012757,4,1,0,75,0,1
96738,-89.2400438436244,4,1,0,75,0,1
96824,-89.8280670569126,4,1,0,75,0,1
96910,-90.4238909113346,4,1,0,75,0,1
97082,-91.6395697848925,4,1,0,75,0,1
97427,-94.1792651382485,4,1,0,75,0,1
97600,-95.506533285542,4,1,0,75,0,1
97772,-96.863743018606,4,1,0,75,0,1
97944,-98.2600824700795,4,1,0,75,0,1
98117,-99.7057472828398,4,1,0,75,0,1
98203,-100.440347480424,4,1,0,75,0,1
98289,-101.185852622857,4,1,0,75,0,1
98462,-102.719562627041,4,1,0,75,0,1
98807,-105.921254720561,4,1,0,75,0,1
98979,-107.593194207367,4,1,0,75,0,1
99151,-109.318762471328,4,1,0,75,0,1
99321,-111.111111111111,4,1,0,50,0,1
99493,-109.219071756693,4,1,0,52,0,1
99579,-108.297011819217,4,1,0,53,0,1
99666,-107.37993731628,4,1,0,54,0,1
99838,-105.611824848264,4,1,0,56,0,1
100010,-103.90099643994,4,1,0,58,0,1
100097,-103.05657275241,4,1,0,59,0,1
100183,-102.235237424473,4,1,0,60,0,1
100355,-100.631225599299,4,1,0,62,0,1
100528,-99.0678711902153,4,1,0,64,0,1
100700,-97.5609756097561,4,1,0,66,0,1
100786,-96.8245888114589,4,1,0,67,0,1
100872,-96.0992351783132,4,1,0,68,0,1
101045,-94.6725250583551,4,1,0,70,0,1
101217,-93.2954468574521,4,1,0,72,0,1
101390,-91.9501908683259,4,1,0,74,0,1
101476,-91.29578443867,4,1,0,75,0,1
101562,-90.6506269618235,4,1,0,76,0,1
101735,-89.380043426127,4,1,0,78,0,1
101907,-88.1516284718893,4,1,0,80,0,1
102079,-86.9565217391304,4,1,0,82,0,1
103548,-100,4,1,0,82,0,0
148936,-111.111111111111,4,1,0,50,0,0
149669,-111.111111111111,4,1,0,50,0,0
171005,-95.2380952380952,4,1,0,72,0,0
171048,-95.2380952380952,4,1,0,70,0,0
187557,-86.9565217391304,4,1,0,70,0,0
187600,-86.9565217391304,4,1,0,75,0,1
196565,-86.9565217391304,4,1,0,75,0,0
196608,-100,4,1,0,75,0,0
197427,-98.1796867367873,4,1,0,75,0,0
197513,-97.294157510044,4,1,0,75,0,0
197600,-96.4244595113215,4,1,0,75,0,0
197772,-94.7212164529025,4,1,0,75,0,0
197944,-93.0864407172133,4,1,0,75,0,0
198031,-92.290032523436,4,1,0,75,0,0
198117,-91.4981108599002,4,1,0,75,0,0
198203,-90.7285366073847,4,1,0,75,0,0
198289,-89.9717998836186,4,1,0,75,0,0
198462,-88.495575221239,4,1,0,75,0,0
198634,-86.9565217391304,4,1,0,75,0,1
207600,-86.9565217391304,4,1,0,75,0,0
207643,-100,4,1,0,75,0,0
208462,-98.1796867367873,4,1,0,75,0,0
208548,-97.294157510044,4,1,0,75,0,0
208634,-96.4244595113215,4,1,0,75,0,0
208807,-94.7212164529025,4,1,0,75,0,0
208893,-93.8967136150235,4,1,0,75,0,0
208950,-93.0864407172133,4,1,0,75,0,0
209065,-92.290032523436,4,1,0,75,0,0
209151,-91.4981108599002,4,1,0,75,0,0
209238,-90.7285366073847,4,1,0,75,0,0
209324,-89.9717998836186,4,1,0,75,0,0
209496,-88.495575221239,4,1,0,75,0,0
209669,-86.9565217391304,4,1,0,75,0,1
218634,-86.9565217391304,4,1,0,75,0,0
218677,-100,4,1,0,75,0,0
219496,-98.1796867367873,4,1,0,75,0,0
219582,-97.294157510044,4,1,0,75,0,0
219669,-96.4244595113215,4,1,0,75,0,0
219841,-94.7212164529025,4,1,0,75,0,0
220013,-93.0864407172133,4,1,0,75,0,0
220100,-92.290032523436,4,1,0,75,0,0
220186,-91.4981108599002,4,1,0,75,0,0
220272,-90.7285366073847,4,1,0,75,0,0
220358,-89.9717998836186,4,1,0,75,0,0
220531,-88.495575221239,4,1,0,75,0,0
220703,-86.9565217391304,4,1,0,75,0,1
224496,-88.7059043697951,4,1,0,75,0,1
224669,-90.5379270825872,4,1,0,75,0,1
224841,-92.4359505643176,4,1,0,75,0,1
225013,-94.4152578243657,4,1,0,75,0,1
225100,-95.4490535642368,4,1,0,75,0,1
225186,-96.4934602269836,4,1,0,75,0,1
225358,-98.6523752536552,4,1,0,75,0,1
225703,-103.287663770327,4,1,0,75,0,1
225875,-105.765207932391,4,1,0,75,0,1
226048,-108.380016005488,4,1,0,75,0,1
226220,-111.111111111111,4,1,0,75,0,0
226393,-108.688345517183,4,1,0,75,0,0
226479,-107.522859517872,4,1,0,75,0,0
226565,-106.38210379143,4,1,0,75,0,0
226738,-104.159117445746,4,1,0,75,0,0
226910,-102.039206405554,4,1,0,75,0,0
226996,-101.011284213814,4,1,0,75,0,0
227082,-100.003865630678,4,1,0,75,0,0
227169,-99.0049751243781,4,1,0,75,0,0
227255,-98.0369865090192,4,1,0,75,0,0
227427,-96.1567053226286,4,1,0,75,0,0
227600,-94.3368705101557,4,1,0,75,0,0
227686,-93.4576063003504,4,1,0,75,0,0
227772,-92.5945810515766,4,1,0,75,0,0
227944,-90.9058964087427,4,1,0,75,0,0
228117,-89.2869469179264,4,1,0,75,0,0
228289,-87.7246524245507,4,1,0,75,0,0
228375,-86.9550603341064,4,1,0,75,0,0
228462,-86.2074710920057,4,1,0,75,0,0
228634,-84.7502047502048,4,1,0,75,0,0
228807,-83.3333333333333,4,1,0,75,0,0
230401,-100,4,1,0,75,0,0
231738,-83.3333333333333,4,1,0,75,0,0
232082,-100,4,1,0,75,0,0
232600,-98.0336440100023,4,1,0,75,0,0
232772,-96.1538461538461,4,1,0,75,0,0
232944,-94.3344635240074,4,1,0,75,0,0
233117,-92.5925925925926,4,1,0,75,0,0
233289,-90.9138821545272,4,1,0,75,0,0
233462,-83.3333333333333,4,1,0,75,0,0
233979,-84.7457627118644,4,1,0,75,0,0
234151,-86.2068965517241,4,1,0,75,0,0
234496,-83.3333333333333,4,1,0,75,0,0
235186,-100,4,1,0,75,0,0
235358,-98.0433978898274,4,1,0,75,0,0
235531,-96.1511644122159,4,1,0,75,0,0
235703,-94.3409134444353,4,1,0,75,0,0
235875,-92.5876191755069,4,1,0,75,0,0
236048,-90.907892308098,4,1,0,75,0,0
236220,-89.2880267281345,4,1,0,75,0,0
236393,-87.7159504363535,4,1,0,75,0,0
236565,-80.6451612903226,4,1,0,75,0,0
236738,-81.9672131147541,4,1,0,75,0,0
236910,-83.3333333333333,4,1,0,75,0,0
237600,-100,4,1,0,75,0,0
238117,-98.0336440100023,4,1,0,75,0,0
238289,-96.1538461538461,4,1,0,75,0,0
238462,-94.3344635240074,4,1,0,75,0,0
238634,-92.5925925925926,4,1,0,75,0,0
238807,-90.9138821545272,4,1,0,75,0,0
238979,-83.3333333333333,4,1,0,75,0,0
239496,-84.7457627118644,4,1,0,75,0,0
239669,-86.2068965517241,4,1,0,75,0,0
240013,-83.3333333333333,4,1,0,75,0,0
240358,-83.3333333333333,4,1,0,75,0,0
241307,-84.7457627118644,4,1,0,75,0,0
241393,-86.2068965517241,4,1,0,75,0,0
241565,-87.7154733874015,4,1,0,75,0,0
241738,-89.2870352561732,4,1,0,75,0,0
241910,-90.9063521472577,4,1,0,75,0,0
242082,-92.5854900817698,4,1,0,75,0,0
242255,-94.3381479397236,4,1,0,75,0,0
242427,-96.1477185827173,4,1,0,75,0,0
242600,-98.0392156862745,4,1,0,75,0,0
242772,-83.3333333333333,4,1,0,75,0,0
243117,-100,4,1,0,75,0,0
243634,-98.0336440100023,4,1,0,75,0,0
243807,-96.1538461538461,4,1,0,75,0,0
243979,-94.3344635240074,4,1,0,75,0,0
244151,-92.5925925925926,4,1,0,75,0,0
244324,-90.9138821545272,4,1,0,75,0,0
244496,-83.3333333333333,4,1,0,75,0,0
245013,-84.7457627118644,4,1,0,75,0,0
245186,-86.2068965517241,4,1,0,75,0,0
245531,-83.3333333333333,4,1,0,75,0,0
246220,-100,4,1,0,75,0,0
246393,-98.0433978898274,4,1,0,75,0,0
246565,-96.1511644122159,4,1,0,75,0,0
246738,-94.3409134444353,4,1,0,75,0,0
246910,-92.5876191755069,4,1,0,75,0,0
247082,-90.907892308098,4,1,0,75,0,0
247255,-89.2880267281345,4,1,0,75,0,0
247427,-87.7159504363535,4,1,0,75,0,0
247600,-80.6451612903226,4,1,0,75,0,0
247772,-81.9672131147541,4,1,0,75,0,0
247944,-83.3333333333333,4,1,0,75,0,0
248634,-100,4,1,0,75,0,0
249130,-98.0336440100023,4,1,0,75,0,0
249295,-96.1538461538461,4,1,0,75,0,0
249496,-94.3344635240074,4,1,0,75,0,0
249647,-92.5925925925926,4,1,0,75,0,0
249819,-90.9138821545272,4,1,0,75,0,0
249992,-83.3333333333333,4,1,0,75,0,0
250186,-84.0336134453781,4,1,0,75,0,0
250358,-84.7457627118644,4,1,0,75,0,0
250531,-85.4700854700855,4,1,0,75,0,0
250703,-86.2068965517241,4,1,0,75,0,0
251048,-83.3333333333333,4,1,0,75,0,0
252341,-84.0336134453781,4,1,0,75,0,0
252427,-84.7457627118644,4,1,0,75,0,0
252600,-87.7154733874015,4,1,0,75,0,0
252772,-89.2870352561732,4,1,0,75,0,0
252944,-90.9063521472577,4,1,0,75,0,0
253117,-92.5854900817698,4,1,0,75,0,0
253289,-94.3381479397236,4,1,0,75,0,0
253462,-96.1477185827173,4,1,0,75,0,0
253634,-98.0392156862745,4,1,0,75,0,0
254151,-98.0392156862745,4,1,0,63,0,0
254324,-98.0392156862745,4,1,0,61,0,0
254496,-98.0392156862745,4,1,0,59,0,0
254669,-98.0392156862745,4,1,0,57,0,0
254841,-98.0392156862745,4,1,0,55,0,0
255013,-98.0392156862745,4,1,0,53,0,0
255186,-98.0392156862745,4,1,0,51,0,0
255358,-98.0392156862745,4,1,0,49,0,0
255531,-98.0392156862745,4,1,0,47,0,0
255703,-98.0392156862745,4,1,0,45,0,0
255875,-98.0392156862745,4,1,0,43,0,0
256048,-98.0392156862745,4,1,0,41,0,0
256220,-98.0392156862745,4,1,0,39,0,0
256393,-98.0392156862745,4,1,0,37,0,0
256565,-98.0392156862745,4,1,0,35,0,0
256738,-98.0392156862745,4,1,0,33,0,0
256910,-98.0392156862745,4,1,0,31,0,0
257082,-98.0392156862745,4,1,0,29,0,0
257255,-98.0392156862745,4,1,0,27,0,0
257427,-98.0392156862745,4,1,0,25,0,0
257600,-98.0392156862745,4,1,0,23,0,0
257772,-98.0392156862745,4,1,0,21,0,0
257944,-98.0392156862745,4,1,0,19,0,0
258117,-98.0392156862745,4,1,0,17,0,0
258289,-98.0392156862745,4,1,0,15,0,0
258462,-98.0392156862745,4,1,0,13,0,0
258634,-98.0392156862745,4,1,0,11,0,0
258807,-98.0392156862745,4,1,0,9,0,0
258979,-98.0392156862745,4,1,0,7,0,0
259151,-98.0392156862745,4,1,0,5,0,0

[HitObjects]
96,96,18,5,0,1:0:0:0:
96,162,535,1,8,1:0:0:0:
96,96,1052,1,0,1:0:0:0:
96,162,1569,1,8,1:0:0:0:
96,96,2086,1,0,1:0:0:0:
96,162,2604,1,8,1:0:0:0:
96,162,3121,1,8,1:0:0:0:
96,96,3638,1,0,1:0:0:0:
96,162,4155,1,8,1:0:0:0:
96,96,4673,1,0,1:0:0:0:
96,162,5190,1,8,1:0:0:0:
96,96,5707,1,0,1:0:0:0:
96,162,6224,1,8,1:0:0:0:
96,162,6742,1,8,1:0:0:0:
96,96,7259,1,0,1:0:0:0:
96,96,7776,1,0,1:0:0:0:
96,162,8293,1,8,1:0:0:0:
96,96,8811,1,0,1:0:0:0:
96,162,9328,1,8,1:0:0:0:
96,162,9845,1,8,1:0:0:0:
96,96,10362,1,0,1:0:0:0:
96,96,10880,1,0,1:0:0:0:
256,192,11397,12,0,13466,1:0:0:0:
411,298,13807,5,4,1:0:0:0:
96,162,14151,1,8,1:0:0:0:
96,96,14324,1,0,1:0:0:0:
96,96,14410,1,0,1:0:0:0:
96,162,14496,1,8,1:0:0:0:
96,162,14669,1,8,1:0:0:0:
96,96,14841,1,0,1:0:0:0:
96,162,15013,1,8,1:0:0:0:
96,96,15186,1,0,1:0:0:0:
96,162,15358,1,8,1:0:0:0:
96,96,15703,1,0,1:0:0:0:
96,162,15875,1,8,1:0:0:0:
96,96,16048,1,0,1:0:0:0:
96,96,16134,1,0,1:0:0:0:
96,96,16220,1,0,1:0:0:0:
96,162,16393,1,8,1:0:0:0:
96,96,16565,1,0,1:0:0:0:
96,96,16738,1,0,1:0:0:0:
96,96,17082,1,0,1:0:0:0:
96,162,17169,1,8,1:0:0:0:
96,162,17255,1,8,1:0:0:0:
96,96,17427,1,0,1:0:0:0:
96,162,17600,1,8,1:0:0:0:
96,96,17772,1,0,1:0:0:0:
96,162,17944,1,8,1:0:0:0:
96,162,18117,1,8,1:0:0:0:
96,96,18289,1,0,1:0:0:0:
96,162,18462,1,8,1:0:0:0:
96,96,18548,1,0,1:0:0:0:
96,162,18634,1,8,1:0:0:0:
96,96,18807,1,0,1:0:0:0:
96,96,19151,1,0,1:0:0:0:
96,162,19324,1,8,1:0:0:0:
96,96,19496,1,0,1:0:0:0:
96,162,19669,1,8,1:0:0:0:
96,162,19841,1,8,1:0:0:0:
96,162,19927,1,8,1:0:0:0:
96,96,20013,1,0,1:0:0:0:
96,96,20186,1,0,1:0:0:0:
96,162,20358,1,8,1:0:0:0:
96,162,20531,1,8,1:0:0:0:
96,96,20703,1,0,1:0:0:0:
96,96,21048,1,0,1:0:0:0:
96,96,21220,1,0,1:0:0:0:
96,96,21307,1,0,1:0:0:0:
96,162,21393,1,8,1:0:0:0:
96,96,21738,1,0,1:0:0:0:
96,96,21910,1,0,1:0:0:0:
409,219,22082,1,12,1:0:0:0:
96,162,22427,1,8,1:0:0:0:
96,96,22600,1,0,1:0:0:0:
96,96,22686,1,0,1:0:0:0:
96,162,22772,1,8,1:0:0:0:
96,162,22944,1,8,1:0:0:0:
96,96,23117,1,0,1:0:0:0:
96,162,23289,1,8,1:0:0:0:
96,96,23462,1,0,1:0:0:0:
96,162,23634,1,8,1:0:0:0:
96,96,23979,1,0,1:0:0:0:
96,162,24151,1,8,1:0:0:0:
96,162,24324,1,8,1:0:0:0:
96,162,24410,1,8,1:0:0:0:
96,96,24496,1,0,1:0:0:0:
96,162,24669,1,8,1:0:0:0:
96,96,24841,1,0,1:0:0:0:
96,162,25013,1,8,1:0:0:0:
96,96,25358,1,8,1:0:0:0:
96,162,25444,1,8,1:0:0:0:
96,162,25531,1,0,1:0:0:0:
96,96,25703,1,0,1:0:0:0:
96,162,25875,1,8,1:0:0:0:
96,96,26048,1,0,1:0:0:0:
96,162,26220,1,8,1:0:0:0:
96,162,26393,1,8,1:0:0:0:
96,96,26565,1,0,1:0:0:0:
96,162,26738,1,0,1:0:0:0:
96,96,26824,1,8,1:0:0:0:
96,162,26910,1,0,1:0:0:0:
96,96,27082,1,8,1:0:0:0:
96,162,27427,1,8,1:0:0:0:
96,96,27600,1,0,1:0:0:0:
96,96,28117,1,0,1:0:0:0:
96,96,28634,1,0,1:0:0:0:
96,96,28979,1,0,1:0:0:0:
409,219,30358,1,12,1:0:0:0:
96,160,30531,1,8,1:0:0:0:
96,162,30617,1,8,1:0:0:0:
96,96,30703,1,0,1:0:0:0:
96,162,30875,1,8,1:0:0:0:
96,96,31048,1,0,1:0:0:0:
96,96,31134,1,0,1:0:0:0:
96,162,31220,1,8,1:0:0:0:
96,162,31307,1,8,1:0:0:0:
96,96,31393,1,0,1:0:0:0:
96,96,31565,1,8,1:0:0:0:
96,96,31738,1,0,1:0:0:0:
96,162,31910,1,8,1:0:0:0:
96,96,31996,1,0,1:0:0:0:
96,162,32082,1,8,1:0:0:0:
96,96,32255,1,0,1:0:0:0:
96,96,32427,1,0,1:0:0:0:
96,96,32513,1,0,1:0:0:0:
96,162,32600,1,8,1:0:0:0:
96,162,32686,1,8,1:0:0:0:
96,162,32772,1,0,1:0:0:0:
96,96,32944,1,0,1:0:0:0:
96,162,33117,1,8,1:0:0:0:
96,96,33289,1,0,1:0:0:0:
96,96,33375,1,0,1:0:0:0:
96,162,33462,1,8,1:0:0:0:
96,96,33634,1,0,1:0:0:0:
96,162,33979,1,8,1:0:0:0:
96,162,34151,1,8,1:0:0:0:
96,96,34324,1,0,1:0:0:0:
96,162,34496,1,8,1:0:0:0:
96,96,34669,1,0,1:0:0:0:
96,96,34755,1,0,1:0:0:0:
96,162,34841,1,8,1:0:0:0:
96,162,35013,1,8,1:0:0:0:
96,96,35186,1,0,0:0:0:0:
96,96,35272,1,0,1:0:0:0:
96,162,35358,1,8,1:0:0:0:
96,96,35531,1,0,1:0:0:0:
96,162,35703,1,8,1:0:0:0:
96,96,35875,1,0,1:0:0:0:
96,96,36048,1,8,0:0:0:0:
96,96,36134,1,8,0:0:0:0:
96,96,36220,1,0,1:0:0:0:
96,96,36393,1,0,1:0:0:0:
96,162,36565,1,8,1:0:0:0:
96,162,36651,1,0,1:0:0:0:
96,96,36738,1,8,1:0:0:0:
96,96,36910,1,0,1:0:0:0:
96,96,37255,1,0,1:0:0:0:
96,96,37427,1,0,1:0:0:0:
96,96,37513,1,8,1:0:0:0:
96,162,37600,1,8,1:0:0:0:
96,96,37772,1,0,1:0:0:0:
96,162,37944,1,8,1:0:0:0:
96,162,38031,1,8,1:0:0:0:
96,96,38117,1,0,1:0:0:0:
96,96,38289,1,0,1:0:0:0:
96,162,38462,1,8,1:0:0:0:
96,96,38634,1,0,1:0:0:0:
96,96,38807,1,0,0:0:0:0:
96,162,38893,1,8,1:0:0:0:
96,96,38979,1,0,1:0:0:0:
96,162,39151,1,8,1:0:0:0:
411,298,39324,1,4,1:0:0:0:
96,96,40013,1,0,1:0:0:0:
96,96,40186,1,0,1:0:0:0:
96,162,40272,1,8,1:0:0:0:
96,162,40358,1,8,1:0:0:0:
96,162,40531,1,8,1:0:0:0:
96,162,40703,1,8,1:0:0:0:
96,162,40789,1,8,1:0:0:0:
96,96,40875,1,0,1:0:0:0:
96,96,40962,1,0,1:0:0:0:
96,162,41048,1,8,1:0:0:0:
96,96,41220,1,0,1:0:0:0:
409,219,41393,1,12,1:0:0:0:
96,96,41565,1,0,1:0:0:0:
96,162,41651,1,0,1:0:0:0:
96,96,41738,1,8,1:0:0:0:
96,162,41910,1,0,1:0:0:0:
96,96,42082,1,8,1:0:0:0:
96,96,42169,1,0,1:0:0:0:
96,162,42255,1,8,1:0:0:0:
96,162,42341,1,8,1:0:0:0:
96,96,42427,1,0,1:0:0:0:
96,96,42600,1,8,1:0:0:0:
96,96,42772,1,0,1:0:0:0:
96,162,42944,1,8,1:0:0:0:
96,96,43031,1,8,1:0:0:0:
96,162,43117,1,0,1:0:0:0:
96,96,43289,1,8,1:0:0:0:
96,96,43462,1,0,1:0:0:0:
96,162,43548,1,8,1:0:0:0:
96,162,43634,1,0,1:0:0:0:
96,162,43720,1,0,1:0:0:0:
96,96,43807,1,8,1:0:0:0:
96,96,43979,1,0,1:0:0:0:
96,162,44151,1,8,1:0:0:0:
96,96,44324,1,0,1:0:0:0:
96,96,44410,1,8,1:0:0:0:
96,162,44496,1,8,1:0:0:0:
96,96,44669,1,0,1:0:0:0:
96,162,45013,1,8,1:0:0:0:
96,162,45186,1,0,1:0:0:0:
96,96,45358,1,8,1:0:0:0:
96,162,45531,1,0,1:0:0:0:
96,96,45703,1,0,1:0:0:0:
96,96,45789,1,8,1:0:0:0:
96,162,45875,1,8,1:0:0:0:
96,162,46048,1,0,1:0:0:0:
96,96,46220,1,0,1:0:0:0:
96,96,46307,1,8,1:0:0:0:
96,162,46393,1,8,1:0:0:0:
96,96,46565,1,8,1:0:0:0:
96,162,46738,1,0,1:0:0:0:
96,96,46910,1,8,1:0:0:0:
96,96,47082,1,0,1:0:0:0:
96,162,47169,1,8,1:0:0:0:
96,96,47255,1,0,1:0:0:0:
96,96,47427,1,0,1:0:0:0:
96,162,47600,1,8,1:0:0:0:
96,162,47686,1,8,1:0:0:0:
96,96,47772,1,0,1:0:0:0:
96,96,47944,1,8,1:0:0:0:
96,96,48289,1,0,1:0:0:0:
96,96,48462,1,8,1:0:0:0:
96,96,48548,1,8,1:0:0:0:
96,162,48634,1,0,1:0:0:0:
96,96,48807,1,8,1:0:0:0:
96,162,48979,1,0,1:0:0:0:
96,162,49065,1,8,1:0:0:0:
96,96,49151,1,0,1:0:0:0:
96,96,49324,1,8,1:0:0:0:
96,162,49496,1,0,1:0:0:0:
96,96,49669,1,8,1:0:0:0:
96,162,49841,1,0,1:0:0:0:
96,162,49927,1,8,1:0:0:0:
96,96,50013,1,8,1:0:0:0:
96,162,50186,1,8,1:0:0:0:
411,298,50358,1,4,1:0:0:0:
96,96,51048,1,0,1:0:0:0:
96,96,51220,1,8,1:0:0:0:
96,162,51307,1,0,1:0:0:0:
96,162,51393,1,8,1:0:0:0:
96,162,51565,1,0,1:0:0:0:
96,162,51738,1,8,1:0:0:0:
96,162,51824,1,0,1:0:0:0:
96,96,51910,1,8,1:0:0:0:
96,96,51996,1,8,1:0:0:0:
96,162,52082,1,0,1:0:0:0:
96,96,52255,1,8,1:0:0:0:
411,298,52427,1,4,1:0:0:0:
411,298,52772,1,4,1:0:0:0:
411,298,53117,1,4,1:0:0:0:
411,298,53462,1,4,1:0:0:0:
411,298,53807,1,4,1:0:0:0:
409,219,55186,1,12,1:0:0:0:
96,162,55531,1,8,1:0:0:0:
96,96,55703,1,0,1:0:0:0:
96,96,55789,1,0,1:0:0:0:
96,162,55875,1,8,1:0:0:0:
96,96,56048,1,0,1:0:0:0:
96,162,56220,1,8,1:0:0:0:
96,96,56307,1,0,1:0:0:0:
96,96,56393,1,0,1:0:0:0:
96,162,56479,1,0,1:0:0:0:
96,96,56565,1,8,1:0:0:0:
96,96,56738,1,0,1:0:0:0:
96,162,56910,1,8,1:0:0:0:
96,96,57082,1,0,1:0:0:0:
96,96,57169,1,0,1:0:0:0:
96,162,57255,1,8,1:0:0:0:
96,96,57427,1,0,1:0:0:0:
96,162,57600,1,8,1:0:0:0:
96,162,57772,1,8,1:0:0:0:
96,96,57944,1,0,1:0:0:0:
96,162,58289,1,8,1:0:0:0:
96,162,58462,1,8,1:0:0:0:
96,162,58548,1,8,1:0:0:0:
96,96,58634,1,0,1:0:0:0:
96,96,58807,1,0,1:0:0:0:
96,162,58979,1,8,1:0:0:0:
96,162,59065,1,8,1:0:0:0:
96,96,59151,1,0,1:0:0:0:
96,96,59238,1,0,1:0:0:0:
96,162,59324,1,8,1:0:0:0:
96,96,59496,1,0,1:0:0:0:
96,96,59669,1,0,1:0:0:0:
96,162,59841,1,8,1:0:0:0:
96,162,60013,1,8,1:0:0:0:
96,96,60186,1,0,1:0:0:0:
96,96,60272,1,0,1:0:0:0:
96,162,60358,1,8,1:0:0:0:
96,162,60531,1,8,1:0:0:0:
96,96,60703,1,0,1:0:0:0:
96,162,61048,1,8,1:0:0:0:
96,96,61220,1,0,1:0:0:0:
96,96,61307,1,0,1:0:0:0:
96,162,61393,1,8,1:0:0:0:
96,96,61565,1,0,1:0:0:0:
96,162,61738,1,8,1:0:0:0:
96,162,61824,1,8,1:0:0:0:
96,96,61910,1,0,1:0:0:0:
96,96,62082,1,0,1:0:0:0:
96,96,62255,1,0,1:0:0:0:
96,162,62427,1,8,1:0:0:0:
96,162,62600,1,8,1:0:0:0:
96,96,62686,1,0,1:0:0:0:
96,96,62772,1,8,1:0:0:0:
96,96,62858,1,8,1:0:0:0:
96,96,62944,1,0,1:0:0:0:
96,162,63117,1,8,1:0:0:0:
96,96,63289,1,0,1:0:0:0:
96,162,63462,1,8,1:0:0:0:
96,162,63807,1,8,1:0:0:0:
96,96,63979,1,0,1:0:0:0:
96,162,64151,1,8,1:0:0:0:
96,162,64496,1,8,1:0:0:0:
96,96,64669,1,0,1:0:0:0:
96,96,64755,1,0,1:0:0:0:
96,162,64841,1,8,1:0:0:0:
96,96,65013,1,0,1:0:0:0:
96,96,65186,1,0,1:0:0:0:
96,162,65358,1,8,1:0:0:0:
96,96,65531,1,0,1:0:0:0:
96,96,65703,1,0,1:0:0:0:
96,162,65875,1,8,1:0:0:0:
96,162,66048,1,0,1:0:0:0:
411,298,66220,1,12,1:0:0:0:
96,162,66565,1,8,1:0:0:0:
96,96,66738,1,0,1:0:0:0:
96,96,66824,1,0,1:0:0:0:
96,162,66910,1,8,1:0:0:0:
96,162,67082,1,8,1:0:0:0:
96,96,67255,1,0,1:0:0:0:
96,162,67427,1,8,1:0:0:0:
96,96,67600,1,0,1:0:0:0:
96,162,67772,1,8,1:0:0:0:
96,96,68117,1,0,1:0:0:0:
96,162,68289,1,8,1:0:0:0:
96,96,68462,1,0,1:0:0:0:
96,96,68548,1,0,1:0:0:0:
96,96,68634,1,0,1:0:0:0:
96,162,68807,1,8,1:0:0:0:
96,96,68979,1,0,1:0:0:0:
96,96,69151,1,0,1:0:0:0:
96,96,69496,1,0,1:0:0:0:
96,162,69582,1,8,1:0:0:0:
96,162,69669,1,8,1:0:0:0:
96,96,69841,1,0,1:0:0:0:
96,162,70013,1,8,1:0:0:0:
96,96,70186,1,0,1:0:0:0:
96,162,70358,1,8,1:0:0:0:
96,162,70531,1,8,1:0:0:0:
96,96,70703,1,0,1:0:0:0:
96,162,70875,1,8,1:0:0:0:
96,96,70962,1,0,1:0:0:0:
96,162,71048,1,8,1:0:0:0:
96,96,71220,1,0,1:0:0:0:
96,96,71565,1,0,1:0:0:0:
96,162,71738,1,8,1:0:0:0:
96,96,71910,1,0,1:0:0:0:
96,162,72082,1,8,1:0:0:0:
96,162,72255,1,8,1:0:0:0:
96,162,72341,1,8,1:0:0:0:
96,96,72427,1,0,1:0:0:0:
96,96,72600,1,0,1:0:0:0:
96,162,72772,1,8,1:0:0:0:
96,162,72944,1,8,1:0:0:0:
96,96,73117,1,0,1:0:0:0:
96,96,73462,1,0,1:0:0:0:
96,96,73634,1,0,1:0:0:0:
96,96,73720,1,0,1:0:0:0:
96,162,73807,1,8,1:0:0:0:
96,96,74151,1,0,1:0:0:0:
96,96,74324,1,0,1:0:0:0:
409,219,74496,1,12,1:0:0:0:
96,162,74841,1,8,1:0:0:0:
96,96,75013,1,0,1:0:0:0:
96,96,75100,1,0,1:0:0:0:
96,162,75186,1,8,1:0:0:0:
96,162,75358,1,8,1:0:0:0:
96,96,75531,1,0,1:0:0:0:
96,162,75703,1,8,1:0:0:0:
96,96,75875,1,0,1:0:0:0:
96,162,76048,1,8,1:0:0:0:
96,96,76393,1,0,1:0:0:0:
96,162,76565,1,8,1:0:0:0:
96,162,76738,1,8,1:0:0:0:
96,162,76824,1,8,1:0:0:0:
96,96,76910,1,0,1:0:0:0:
96,162,77082,1,8,1:0:0:0:
96,96,77255,1,0,1:0:0:0:
96,162,77427,1,8,1:0:0:0:
96,96,77772,1,8,1:0:0:0:
96,162,77858,1,0,1:0:0:0:
96,162,77944,1,8,1:0:0:0:
96,96,78117,1,0,1:0:0:0:
96,162,78289,1,8,1:0:0:0:
96,96,78462,1,0,1:0:0:0:
96,162,78634,1,8,1:0:0:0:
96,162,78807,1,8,1:0:0:0:
96,96,78979,1,0,1:0:0:0:
96,162,79151,1,8,1:0:0:0:
96,96,79238,1,8,1:0:0:0:
96,162,79324,1,0,1:0:0:0:
96,96,79496,1,8,1:0:0:0:
96,162,79841,1,8,1:0:0:0:
96,96,80013,1,0,1:0:0:0:
96,96,80531,1,0,1:0:0:0:
96,96,81048,1,0,1:0:0:0:
96,96,81393,1,0,1:0:0:0:
409,219,82772,1,4,1:0:0:0:
96,96,82944,1,8,1:0:0:0:
96,162,83031,1,8,1:0:0:0:
96,96,83117,1,0,1:0:0:0:
96,162,83289,1,8,1:0:0:0:
96,96,83462,1,0,1:0:0:0:
96,96,83548,1,0,1:0:0:0:
96,162,83634,1,8,1:0:0:0:
96,162,83720,1,8,1:0:0:0:
96,96,83807,1,0,1:0:0:0:
96,160,83979,1,8,1:0:0:0:
96,96,84151,1,0,1:0:0:0:
96,162,84324,1,8,1:0:0:0:
96,96,84410,1,0,1:0:0:0:
96,162,84496,1,8,1:0:0:0:
96,96,84669,1,0,1:0:0:0:
96,96,84841,1,8,1:0:0:0:
96,96,84927,1,0,1:0:0:0:
96,162,85013,1,8,1:0:0:0:
96,162,85100,1,8,1:0:0:0:
96,162,85186,1,0,1:0:0:0:
96,96,85358,1,0,1:0:0:0:
96,162,85531,1,8,1:0:0:0:
96,96,85703,1,0,1:0:0:0:
96,96,85789,1,8,1:0:0:0:
96,162,85875,1,8,1:0:0:0:
96,96,86048,1,0,1:0:0:0:
96,162,86393,1,0,1:0:0:0:
96,162,86565,1,8,1:0:0:0:
96,96,86738,1,8,1:0:0:0:
96,162,86910,1,0,1:0:0:0:
96,96,87082,1,8,1:0:0:0:
96,96,87169,1,8,1:0:0:0:
96,162,87255,1,0,1:0:0:0:
96,162,87427,1,8,1:0:0:0:
96,96,87600,1,0,1:0:0:0:
96,96,87686,1,8,1:0:0:0:
96,162,87772,1,0,1:0:0:0:
96,96,87944,1,8,1:0:0:0:
96,162,88117,1,8,1:0:0:0:
96,96,88289,1,0,1:0:0:0:
96,96,88462,1,0,1:0:0:0:
96,162,88548,1,8,1:0:0:0:
96,96,88634,1,8,1:0:0:0:
96,96,88807,1,0,1:0:0:0:
96,162,88979,1,8,1:0:0:0:
96,96,89065,1,0,1:0:0:0:
96,96,89151,1,0,1:0:0:0:
96,96,89324,1,8,1:0:0:0:
96,96,89669,1,0,1:0:0:0:
96,96,89841,1,8,1:0:0:0:
96,96,89927,1,8,1:0:0:0:
96,162,90013,1,0,1:0:0:0:
96,96,90186,1,8,1:0:0:0:
96,162,90358,1,0,1:0:0:0:
96,162,90444,1,8,1:0:0:0:
96,96,90531,1,0,1:0:0:0:
96,96,90703,1,8,1:0:0:0:
96,162,90875,1,8,1:0:0:0:
96,96,91048,1,0,1:0:0:0:
96,96,91220,1,8,1:0:0:0:
96,162,91307,1,0,1:0:0:0:
96,96,91393,1,8,1:0:0:0:
96,162,91565,1,8,1:0:0:0:
411,298,91738,1,4,1:0:0:0:
96,96,92427,1,0,1:0:0:0:
96,96,92600,1,8,1:0:0:0:
96,162,92686,1,0,1:0:0:0:
96,162,92772,1,8,1:0:0:0:
96,162,92944,1,0,1:0:0:0:
96,162,93117,1,8,1:0:0:0:
96,162,93203,1,8,1:0:0:0:
96,96,93289,1,0,1:0:0:0:
96,96,93375,1,0,1:0:0:0:
96,162,93462,1,8,1:0:0:0:
96,96,93634,1,0,1:0:0:0:
409,219,93807,1,12,1:0:0:0:
96,96,93979,1,0,1:0:0:0:
96,162,94065,1,8,1:0:0:0:
96,96,94151,1,8,1:0:0:0:
96,162,94324,1,0,1:0:0:0:
96,96,94496,1,8,1:0:0:0:
96,96,94582,1,8,1:0:0:0:
96,162,94669,1,0,1:0:0:0:
96,162,94755,1,0,1:0:0:0:
96,96,94841,1,8,1:0:0:0:
96,162,95013,1,0,1:0:0:0:
96,96,95186,1,8,1:0:0:0:
96,162,95358,1,0,1:0:0:0:
96,96,95444,1,8,1:0:0:0:
96,162,95531,1,0,1:0:0:0:
96,96,95703,1,8,1:0:0:0:
96,96,95875,1,0,1:0:0:0:
96,162,95962,1,0,1:0:0:0:
96,162,96048,1,8,1:0:0:0:
96,162,96134,1,8,1:0:0:0:
96,96,96220,1,0,1:0:0:0:
96,96,96393,1,8,1:0:0:0:
96,162,96565,1,0,1:0:0:0:
96,96,96738,1,8,1:0:0:0:
96,96,96824,1,8,1:0:0:0:
96,162,96910,1,0,1:0:0:0:
96,96,97082,1,8,1:0:0:0:
96,162,97427,1,0,1:0:0:0:
96,162,97600,1,8,1:0:0:0:
96,96,97772,1,0,1:0:0:0:
96,162,97944,1,8,1:0:0:0:
96,96,98117,1,8,1:0:0:0:
96,96,98203,1,8,1:0:0:0:
96,162,98289,1,8,1:0:0:0:
96,96,98462,1,0,1:0:0:0:
96,96,98807,1,8,1:0:0:0:
96,162,98979,1,0,1:0:0:0:
96,96,99151,1,8,1:0:0:0:
96,162,99324,1,0,1:0:0:0:
96,96,99496,1,0,1:0:0:0:
96,162,99582,1,8,1:0:0:0:
96,96,99669,1,0,1:0:0:0:
96,96,99841,1,0,1:0:0:0:
96,162,100013,1,8,1:0:0:0:
96,162,100100,1,8,1:0:0:0:
96,96,100186,1,0,1:0:0:0:
96,162,100358,1,8,1:0:0:0:
96,96,100531,1,0,1:0:0:0:
96,162,100703,1,8,1:0:0:0:
96,96,100789,1,0,1:0:0:0:
96,162,100875,1,8,1:0:0:0:
96,162,101048,1,8,1:0:0:0:
96,96,101220,1,0,1:0:0:0:
96,162,101393,1,8,1:0:0:0:
96,162,101479,1,8,1:0:0:0:
96,96,101565,1,0,1:0:0:0:
96,162,101738,1,8,1:0:0:0:
96,96,101910,1,0,1:0:0:0:
96,162,102082,1,8,1:0:0:0:
96,96,102255,1,0,1:0:0:0:
96,160,102341,1,8,1:0:0:0:
96,96,102427,1,8,1:0:0:0:
96,162,102600,1,0,1:0:0:0:
96,162,102772,1,8,1:0:0:0:
96,162,102858,1,0,1:0:0:0:
96,96,102944,1,0,1:0:0:0:
96,96,103117,1,8,1:0:0:0:
96,162,103203,1,8,1:0:0:0:
96,162,103289,1,0,1:0:0:0:
96,162,103375,1,0,1:0:0:0:
96,162,103462,1,8,1:0:0:0:
411,298,104841,1,12,1:0:0:0:
96,96,105186,1,0,1:0:0:0:
96,96,105358,1,0,1:0:0:0:
96,162,105531,1,8,1:0:0:0:
96,96,105703,1,0,1:0:0:0:
96,96,106048,1,0,1:0:0:0:
96,162,106220,1,8,1:0:0:0:
96,96,106565,1,0,1:0:0:0:
96,96,106738,1,0,1:0:0:0:
96,162,106910,1,8,1:0:0:0:
96,96,107255,1,0,1:0:0:0:
96,96,107600,1,0,1:0:0:0:
96,96,107772,1,0,1:0:0:0:
96,162,107944,1,8,1:0:0:0:
96,162,108289,1,8,1:0:0:0:
96,96,108462,1,0,1:0:0:0:
96,162,108634,1,8,1:0:0:0:
96,96,108979,1,0,1:0:0:0:
96,96,109151,1,0,1:0:0:0:
96,162,109324,1,8,1:0:0:0:
96,96,109496,1,0,1:0:0:0:
96,162,109669,1,8,1:0:0:0:
96,96,110013,1,0,1:0:0:0:
96,162,110358,1,8,1:0:0:0:
96,96,110703,1,0,1:0:0:0:
96,96,110875,1,0,1:0:0:0:
96,162,111048,1,8,1:0:0:0:
96,96,111220,1,0,1:0:0:0:
96,96,111565,1,0,1:0:0:0:
96,162,111738,1,8,1:0:0:0:
96,96,112082,1,0,1:0:0:0:
96,96,112255,1,0,1:0:0:0:
96,162,112427,1,8,1:0:0:0:
96,96,112772,1,0,1:0:0:0:
96,162,113117,1,8,1:0:0:0:
96,162,113289,1,8,1:0:0:0:
96,96,113462,1,0,1:0:0:0:
96,162,113807,1,8,1:0:0:0:
96,96,113979,1,0,1:0:0:0:
96,162,114151,1,8,1:0:0:0:
96,96,114496,1,0,1:0:0:0:
96,96,114841,1,8,1:0:0:0:
96,96,115186,1,8,1:0:0:0:
96,96,115531,1,0,1:0:0:0:
411,298,115875,1,12,1:0:0:0:
96,96,116220,1,0,1:0:0:0:
96,96,116393,1,0,1:0:0:0:
96,162,116565,1,8,1:0:0:0:
96,96,116738,1,0,1:0:0:0:
96,96,117082,1,0,1:0:0:0:
96,162,117255,1,8,1:0:0:0:
96,96,117600,1,0,1:0:0:0:
96,96,117772,1,0,1:0:0:0:
96,162,117944,1,8,1:0:0:0:
96,96,118289,1,0,1:0:0:0:
96,96,118634,1,0,1:0:0:0:
96,96,118807,1,0,1:0:0:0:
96,162,118979,1,8,1:0:0:0:
96,162,119324,1,8,1:0:0:0:
96,96,119496,1,0,1:0:0:0:
96,162,119669,1,8,1:0:0:0:
96,96,120013,1,0,1:0:0:0:
96,96,120186,1,0,1:0:0:0:
96,162,120358,1,8,1:0:0:0:
96,96,120531,1,0,1:0:0:0:
96,162,120703,1,8,1:0:0:0:
96,96,121048,1,0,1:0:0:0:
96,162,121393,1,8,1:0:0:0:
96,96,121738,1,0,1:0:0:0:
96,96,121910,1,0,1:0:0:0:
96,162,122082,1,8,1:0:0:0:
96,96,122255,1,0,1:0:0:0:
96,96,122600,1,0,1:0:0:0:
96,162,122772,1,8,1:0:0:0:
96,96,123117,1,0,1:0:0:0:
96,96,123289,1,0,1:0:0:0:
96,162,123462,1,8,1:0:0:0:
96,96,123807,1,0,1:0:0:0:
96,162,124151,1,8,1:0:0:0:
96,162,124324,1,8,1:0:0:0:
96,96,124496,1,0,1:0:0:0:
96,162,124841,1,8,1:0:0:0:
96,96,125013,1,0,1:0:0:0:
96,162,125186,1,8,1:0:0:0:
96,96,125531,1,0,1:0:0:0:
96,96,126220,1,8,1:0:0:0:
411,298,126910,1,4,1:0:0:0:
96,96,127255,1,0,1:0:0:0:
96,162,127427,1,8,1:0:0:0:
96,162,127600,1,8,1:0:0:0:
96,96,127772,1,0,1:0:0:0:
96,162,128117,1,8,1:0:0:0:
96,96,128289,1,0,1:0:0:0:
96,162,128634,1,8,1:0:0:0:
96,96,128807,1,0,1:0:0:0:
96,162,128979,1,8,1:0:0:0:
96,96,129324,1,0,1:0:0:0:
96,96,129669,1,0,1:0:0:0:
96,96,129841,1,0,1:0:0:0:
96,162,130013,1,8,1:0:0:0:
96,162,130358,1,8,1:0:0:0:
96,96,130531,1,0,1:0:0:0:
96,162,130703,1,8,1:0:0:0:
96,96,131048,1,0,1:0:0:0:
96,96,131220,1,0,1:0:0:0:
96,162,131393,1,8,1:0:0:0:
96,162,131565,1,8,1:0:0:0:
96,96,131738,1,0,1:0:0:0:
96,96,132082,1,0,1:0:0:0:
96,162,132427,1,8,1:0:0:0:
96,96,132772,1,0,1:0:0:0:
96,96,132944,1,0,1:0:0:0:
96,162,133117,1,8,1:0:0:0:
96,96,133289,1,0,1:0:0:0:
96,96,133634,1,0,1:0:0:0:
96,162,133807,1,8,1:0:0:0:
96,96,134151,1,8,1:0:0:0:
96,96,134324,1,8,1:0:0:0:
96,162,134496,1,0,1:0:0:0:
96,96,134841,1,8,1:0:0:0:
96,162,135186,1,0,1:0:0:0:
96,162,135358,1,0,1:0:0:0:
96,96,135531,1,8,1:0:0:0:
96,162,135875,1,8,1:0:0:0:
96,96,136048,1,0,1:0:0:0:
96,162,136220,1,8,1:0:0:0:
96,96,136565,1,0,1:0:0:0:
96,96,136910,1,8,1:0:0:0:
96,96,137255,1,8,1:0:0:0:
96,96,137600,1,0,1:0:0:0:
411,298,137944,1,12,1:0:0:0:
96,96,138289,1,0,1:0:0:0:
96,96,138462,1,0,1:0:0:0:
96,162,138634,1,8,1:0:0:0:
96,96,138807,1,8,1:0:0:0:
96,96,139151,1,0,1:0:0:0:
96,162,139324,1,8,1:0:0:0:
96,96,139669,1,8,1:0:0:0:
96,96,139841,1,0,1:0:0:0:
96,162,140013,1,8,1:0:0:0:
96,96,140358,1,0,1:0:0:0:
96,96,140703,1,0,1:0:0:0:
96,96,140875,1,8,1:0:0:0:
96,162,141048,1,8,1:0:0:0:
96,162,141393,1,8,1:0:0:0:
96,96,141565,1,8,1:0:0:0:
96,162,141738,1,0,1:0:0:0:
96,96,142082,1,0,1:0:0:0:
96,162,142255,1,8,1:0:0:0:
96,162,142427,1,8,1:0:0:0:
96,96,142600,1,0,1:0:0:0:
96,162,142772,1,8,1:0:0:0:
96,96,143117,1,0,1:0:0:0:
96,162,143462,1,8,1:0:0:0:
96,96,143807,1,0,1:0:0:0:
96,96,143979,1,8,1:0:0:0:
96,162,144151,1,8,1:0:0:0:
96,96,144324,1,0,1:0:0:0:
96,96,144669,1,8,1:0:0:0:
96,162,144841,1,0,1:0:0:0:
96,96,145186,1,8,1:0:0:0:
96,96,145358,1,8,1:0:0:0:
96,162,145531,1,0,1:0:0:0:
96,96,145875,1,0,1:0:0:0:
96,162,146220,1,8,1:0:0:0:
96,162,146393,1,8,1:0:0:0:
96,96,146565,1,0,1:0:0:0:
96,162,146910,1,8,1:0:0:0:
96,96,147082,1,0,1:0:0:0:
96,162,147255,1,8,1:0:0:0:
96,96,147600,1,0,1:0:0:0:
96,96,148979,1,0,1:0:0:0:
256,192,149669,1,8,1:0:0:0:
256,192,150186,1,8,1:0:0:0:
256,192,150531,1,0,1:0:0:0:
256,192,150875,1,8,1:0:0:0:
256,192,151220,1,0,1:0:0:0:
256,192,151738,1,8,1:0:0:0:
256,192,152427,1,0,1:0:0:0:
256,192,153117,1,8,1:0:0:0:
256,192,154496,1,0,1:0:0:0:
256,192,155013,1,8,1:0:0:0:
256,192,155358,1,8,1:0:0:0:
256,192,155875,1,0,1:0:0:0:
256,192,156565,1,8,1:0:0:0:
256,192,157255,1,0,1:0:0:0:
256,192,157772,1,8,1:0:0:0:
256,192,158117,1,0,1:0:0:0:
256,192,158634,1,8,1:0:0:0:
256,192,160013,1,0,1:0:0:0:
256,192,160703,1,8,1:0:0:0:
256,192,161393,1,8,1:0:0:0:
256,192,162082,1,0,1:0:0:0:
256,192,162772,1,8,1:0:0:0:
256,192,163289,1,0,1:0:0:0:
256,192,163634,1,0,1:0:0:0:
256,192,164151,1,8,1:0:0:0:
256,192,164669,1,0,1:0:0:0:
256,192,165531,1,8,1:0:0:0:
256,192,166220,1,0,1:0:0:0:
256,192,166910,1,8,1:0:0:0:
256,192,167600,1,0,1:0:0:0:
256,192,168289,1,8,1:0:0:0:
256,192,168979,1,8,1:0:0:0:
256,192,169324,1,0,1:0:0:0:
240,192,170013,1,8,1:0:0:0:
411,298,171048,5,4,1:0:0:0:
96,162,171393,1,8,1:0:0:0:
96,96,171565,1,0,1:0:0:0:
96,96,171651,1,0,1:0:0:0:
96,162,171738,1,8,1:0:0:0:
96,162,171910,1,8,1:0:0:0:
96,96,172082,1,0,1:0:0:0:
96,162,172255,1,8,1:0:0:0:
96,96,172427,1,0,1:0:0:0:
96,162,172600,1,8,1:0:0:0:
96,96,172944,1,0,1:0:0:0:
96,162,173117,1,8,1:0:0:0:
96,96,173289,1,0,1:0:0:0:
96,96,173375,1,0,1:0:0:0:
96,96,173462,1,0,1:0:0:0:
96,162,173634,1,8,1:0:0:0:
96,96,173807,1,0,1:0:0:0:
96,96,174151,1,0,1:0:0:0:
96,96,174324,1,0,1:0:0:0:
96,162,174410,1,8,1:0:0:0:
96,162,174496,1,8,1:0:0:0:
96,96,174669,1,0,1:0:0:0:
96,162,174841,1,8,1:0:0:0:
96,96,175013,1,0,1:0:0:0:
96,162,175186,1,8,1:0:0:0:
96,162,175358,1,8,1:0:0:0:
96,96,175531,1,0,1:0:0:0:
96,162,175703,1,8,1:0:0:0:
96,96,175789,1,0,1:0:0:0:
96,162,175875,1,8,1:0:0:0:
96,96,176048,1,0,1:0:0:0:
96,96,176393,1,0,1:0:0:0:
96,162,176565,1,8,1:0:0:0:
96,96,176738,1,0,1:0:0:0:
96,162,176910,1,8,1:0:0:0:
96,162,177082,1,8,1:0:0:0:
96,162,177169,1,8,1:0:0:0:
96,96,177255,1,0,1:0:0:0:
96,96,177427,1,0,1:0:0:0:
96,162,177600,1,8,1:0:0:0:
96,162,177772,1,8,1:0:0:0:
96,96,177944,1,0,1:0:0:0:
96,96,178289,1,0,1:0:0:0:
96,96,178462,1,0,1:0:0:0:
96,96,178548,1,0,1:0:0:0:
96,162,178634,1,8,1:0:0:0:
96,96,178979,1,0,1:0:0:0:
96,96,179151,1,0,1:0:0:0:
409,219,179324,1,12,1:0:0:0:
96,162,179669,1,8,1:0:0:0:
96,96,179841,1,0,1:0:0:0:
96,96,179927,1,0,1:0:0:0:
96,162,180013,1,8,1:0:0:0:
96,162,180186,1,8,1:0:0:0:
96,96,180358,1,0,1:0:0:0:
96,162,180531,1,8,1:0:0:0:
96,96,180703,1,0,1:0:0:0:
96,162,180875,1,8,1:0:0:0:
96,96,181220,1,0,1:0:0:0:
96,162,181393,1,8,1:0:0:0:
96,162,181565,1,8,1:0:0:0:
96,162,181651,1,8,1:0:0:0:
96,96,181738,1,0,1:0:0:0:
96,162,181910,1,8,1:0:0:0:
96,96,182082,1,0,1:0:0:0:
96,162,182427,1,8,1:0:0:0:
96,96,182600,1,0,1:0:0:0:
96,162,182686,1,0,1:0:0:0:
96,162,182772,1,8,1:0:0:0:
96,96,182944,1,0,1:0:0:0:
96,162,183117,1,8,1:0:0:0:
96,96,183289,1,0,1:0:0:0:
96,162,183462,1,8,1:0:0:0:
96,162,183634,1,8,1:0:0:0:
96,96,183807,1,0,1:0:0:0:
96,162,183979,1,8,1:0:0:0:
96,96,184065,1,8,1:0:0:0:
96,162,184151,1,0,1:0:0:0:
96,96,184324,1,8,1:0:0:0:
96,162,184669,1,8,1:0:0:0:
96,96,184841,1,0,1:0:0:0:
96,96,185358,1,0,1:0:0:0:
96,96,185875,1,0,1:0:0:0:
96,96,186220,1,0,1:0:0:0:
409,219,187600,1,12,1:0:0:0:
96,162,187772,1,0,1:0:0:0:
96,162,187858,1,8,1:0:0:0:
96,96,187944,1,8,1:0:0:0:
96,162,188117,1,0,1:0:0:0:
96,96,188289,1,8,1:0:0:0:
96,96,188375,1,0,1:0:0:0:
96,162,188462,1,8,1:0:0:0:
96,162,188548,1,8,1:0:0:0:
96,96,188634,1,0,1:0:0:0:
96,160,188807,1,0,1:0:0:0:
96,96,188979,1,8,1:0:0:0:
96,162,189151,1,0,1:0:0:0:
96,96,189238,1,8,1:0:0:0:
96,162,189324,1,8,1:0:0:0:
96,96,189496,1,0,1:0:0:0:
96,96,189669,1,0,1:0:0:0:
96,96,189755,1,8,1:0:0:0:
96,162,189841,1,0,1:0:0:0:
96,162,189927,1,0,1:0:0:0:
96,162,190013,1,8,1:0:0:0:
96,96,190186,1,0,1:0:0:0:
96,162,190358,1,8,1:0:0:0:
96,96,190531,1,0,1:0:0:0:
96,96,190617,1,0,1:0:0:0:
96,162,190703,1,8,1:0:0:0:
96,96,190875,1,0,1:0:0:0:
96,162,191220,1,8,1:0:0:0:
96,162,191393,1,0,1:0:0:0:
96,96,191565,1,8,1:0:0:0:
96,162,191738,1,0,1:0:0:0:
96,96,191910,1,8,1:0:0:0:
96,96,191996,1,8,1:0:0:0:
96,162,192082,1,0,1:0:0:0:
96,162,192255,1,8,1:0:0:0:
96,162,192427,1,0,1:0:0:0:
96,96,192513,1,8,1:0:0:0:
96,162,192600,1,8,1:0:0:0:
96,96,192772,1,0,1:0:0:0:
96,162,192944,1,8,1:0:0:0:
96,96,193117,1,0,1:0:0:0:
96,162,193289,1,8,1:0:0:0:
96,162,193375,1,8,1:0:0:0:
96,96,193462,1,0,1:0:0:0:
96,96,193634,1,0,1:0:0:0:
96,162,193807,1,0,1:0:0:0:
96,162,193893,1,8,1:0:0:0:
96,96,193979,1,0,1:0:0:0:
96,162,194151,1,8,1:0:0:0:
96,96,194496,1,0,1:0:0:0:
96,96,194669,1,8,1:0:0:0:
96,160,194755,1,8,1:0:0:0:
96,162,194841,1,0,1:0:0:0:
96,96,195013,1,0,1:0:0:0:
96,162,195186,1,0,1:0:0:0:
96,162,195272,1,8,1:0:0:0:
96,96,195358,1,8,1:0:0:0:
96,96,195531,1,0,1:0:0:0:
96,162,195703,1,8,1:0:0:0:
96,96,195875,1,0,1:0:0:0:
96,96,196048,1,8,1:0:0:0:
96,162,196134,1,0,1:0:0:0:
96,96,196220,1,8,1:0:0:0:
96,162,196393,1,8,1:0:0:0:
411,298,196565,1,4,1:0:0:0:
96,96,197255,1,8,1:0:0:0:
96,96,197427,1,0,1:0:0:0:
96,162,197513,1,8,1:0:0:0:
96,162,197600,1,8,1:0:0:0:
96,162,197772,1,0,1:0:0:0:
96,162,197944,1,8,1:0:0:0:
96,162,198031,1,8,1:0:0:0:
96,96,198117,1,0,1:0:0:0:
96,96,198203,1,0,1:0:0:0:
96,162,198289,1,8,1:0:0:0:
96,96,198462,1,0,1:0:0:0:
409,219,198634,1,12,1:0:0:0:
96,96,198807,1,0,1:0:0:0:
96,162,198893,1,8,1:0:0:0:
96,96,198979,1,8,1:0:0:0:
96,162,199151,1,0,1:0:0:0:
96,96,199324,1,8,1:0:0:0:
96,96,199410,1,0,1:0:0:0:
96,162,199496,1,8,1:0:0:0:
96,162,199582,1,8,1:0:0:0:
96,96,199669,1,0,1:0:0:0:
96,162,199841,1,8,1:0:0:0:
96,96,200013,1,0,1:0:0:0:
96,162,200186,1,8,1:0:0:0:
96,96,200272,1,8,1:0:0:0:
96,162,200358,1,0,1:0:0:0:
96,96,200531,1,8,1:0:0:0:
96,96,200703,1,0,1:0:0:0:
96,162,200789,1,8,1:0:0:0:
96,162,200875,1,0,1:0:0:0:
96,162,200962,1,0,1:0:0:0:
96,96,201048,1,8,1:0:0:0:
96,96,201220,1,0,1:0:0:0:
96,162,201393,1,8,1:0:0:0:
96,96,201565,1,8,1:0:0:0:
96,96,201651,1,8,1:0:0:0:
96,162,201738,1,0,1:0:0:0:
96,96,201910,1,8,1:0:0:0:
96,162,202255,1,0,1:0:0:0:
96,162,202427,1,8,1:0:0:0:
96,96,202600,1,0,1:0:0:0:
96,162,202772,1,8,1:0:0:0:
96,96,202944,1,0,1:0:0:0:
96,96,203031,1,8,1:0:0:0:
96,162,203117,1,8,1:0:0:0:
96,162,203289,1,0,1:0:0:0:
96,96,203462,1,8,1:0:0:0:
96,96,203548,1,0,1:0:0:0:
96,162,203634,1,8,1:0:0:0:
96,96,203807,1,0,1:0:0:0:
96,162,203979,1,8,1:0:0:0:
96,96,204151,1,0,1:0:0:0:
96,96,204324,1,8,1:0:0:0:
96,162,204410,1,8,1:0:0:0:
96,96,204496,1,0,1:0:0:0:
96,96,204669,1,8,1:0:0:0:
96,162,204841,1,0,1:0:0:0:
96,162,204927,1,0,1:0:0:0:
96,162,205013,1,8,1:0:0:0:
96,162,205186,1,0,1:0:0:0:
96,96,205531,1,8,1:0:0:0:
96,96,205703,1,0,1:0:0:0:
96,162,205789,1,0,1:0:0:0:
96,162,205875,1,8,1:0:0:0:
96,96,206048,1,0,1:0:0:0:
96,162,206220,1,8,1:0:0:0:
96,162,206307,1,8,1:0:0:0:
96,96,206393,1,0,1:0:0:0:
96,96,206565,1,8,1:0:0:0:
96,162,206738,1,8,1:0:0:0:
96,96,206910,1,0,1:0:0:0:
96,96,207082,1,0,1:0:0:0:
96,162,207169,1,8,1:0:0:0:
96,96,207255,1,8,1:0:0:0:
96,162,207427,1,8,1:0:0:0:
411,298,207600,1,4,1:0:0:0:
96,96,208289,1,0,1:0:0:0:
96,162,208462,1,8,1:0:0:0:
96,162,208548,1,0,1:0:0:0:
96,96,208634,1,8,1:0:0:0:
96,96,208807,1,8,1:0:0:0:
96,96,208893,1,0,1:0:0:0:
96,162,208979,1,8,1:0:0:0:
96,96,209065,1,8,1:0:0:0:
96,96,209151,1,0,1:0:0:0:
96,162,209324,1,0,1:0:0:0:
96,96,209410,1,0,1:0:0:0:
96,96,209496,1,0,1:0:0:0:
409,219,209669,1,12,1:0:0:0:
96,96,209841,1,0,1:0:0:0:
96,162,209927,1,0,1:0:0:0:
96,96,210013,1,8,1:0:0:0:
96,162,210186,1,0,1:0:0:0:
96,96,210358,1,8,1:0:0:0:
96,96,210444,1,0,1:0:0:0:
96,162,210531,1,8,1:0:0:0:
96,162,210617,1,8,1:0:0:0:
96,96,210703,1,0,1:0:0:0:
96,162,210875,1,8,1:0:0:0:
96,96,211048,1,0,1:0:0:0:
96,162,211220,1,8,1:0:0:0:
96,96,211307,1,8,1:0:0:0:
96,162,211393,1,0,1:0:0:0:
96,96,211565,1,0,1:0:0:0:
96,96,211738,1,8,1:0:0:0:
96,96,211824,1,0,1:0:0:0:
96,162,211910,1,0,1:0:0:0:
96,162,211996,1,0,1:0:0:0:
96,162,212082,1,8,1:0:0:0:
96,96,212255,1,0,1:0:0:0:
96,162,212427,1,8,1:0:0:0:
96,96,212600,1,0,1:0:0:0:
96,96,212686,1,8,1:0:0:0:
96,162,212772,1,8,1:0:0:0:
96,96,212944,1,0,1:0:0:0:
96,162,213289,1,8,1:0:0:0:
96,162,213462,1,8,1:0:0:0:
96,96,213634,1,0,1:0:0:0:
96,162,213807,1,8,1:0:0:0:
96,96,213979,1,0,1:0:0:0:
96,96,214065,1,8,1:0:0:0:
96,162,214151,1,8,1:0:0:0:
96,162,214324,1,0,1:0:0:0:
96,96,214496,1,8,1:0:0:0:
96,96,214582,1,8,1:0:0:0:
96,162,214669,1,0,1:0:0:0:
96,96,214841,1,8,1:0:0:0:
96,162,215013,1,8,1:0:0:0:
96,96,215186,1,0,1:0:0:0:
96,96,215358,1,0,1:0:0:0:
96,162,215444,1,8,1:0:0:0:
96,96,215531,1,0,1:0:0:0:
96,96,215703,1,8,1:0:0:0:
96,162,215875,1,0,1:0:0:0:
96,162,215962,1,8,1:0:0:0:
96,96,216048,1,8,1:0:0:0:
96,96,216220,1,0,1:0:0:0:
96,96,216565,1,8,1:0:0:0:
96,96,216651,1,8,1:0:0:0:
96,162,216738,1,0,1:0:0:0:
96,96,216824,1,0,1:0:0:0:
96,162,216910,1,8,1:0:0:0:
96,96,217082,1,0,1:0:0:0:
96,162,217255,1,8,1:0:0:0:
96,162,217341,1,0,1:0:0:0:
96,96,217427,1,8,1:0:0:0:
96,96,217600,1,0,1:0:0:0:
96,162,217772,1,8,1:0:0:0:
96,96,217944,1,0,1:0:0:0:
96,162,218117,1,0,1:0:0:0:
96,162,218203,1,8,1:0:0:0:
96,96,218289,1,0,1:0:0:0:
96,162,218462,1,8,1:0:0:0:
411,298,218634,1,4,1:0:0:0:
96,96,219324,1,8,1:0:0:0:
96,96,219496,1,0,1:0:0:0:
96,162,219582,1,8,1:0:0:0:
96,162,219669,1,8,1:0:0:0:
96,162,219841,1,0,1:0:0:0:
96,162,220013,1,8,1:0:0:0:
96,162,220100,1,0,1:0:0:0:
96,96,220186,1,8,1:0:0:0:
96,96,220272,1,8,1:0:0:0:
96,162,220358,1,0,1:0:0:0:
96,96,220531,1,0,1:0:0:0:
409,219,220703,1,12,1:0:0:0:
96,96,220875,1,0,1:0:0:0:
96,162,220962,1,8,1:0:0:0:
96,96,221048,1,8,1:0:0:0:
96,162,221220,1,0,1:0:0:0:
96,96,221393,1,8,1:0:0:0:
96,96,221479,1,8,1:0:0:0:
96,162,221565,1,0,1:0:0:0:
96,162,221651,1,0,1:0:0:0:
96,96,221738,1,8,1:0:0:0:
96,160,221910,1,0,1:0:0:0:
96,96,222082,1,8,1:0:0:0:
96,162,222255,1,0,1:0:0:0:
96,96,222341,1,8,1:0:0:0:
96,162,222427,1,0,1:0:0:0:
96,96,222600,1,0,1:0:0:0:
96,96,222772,1,8,1:0:0:0:
96,162,222858,1,0,1:0:0:0:
96,162,222944,1,8,1:0:0:0:
96,162,223031,1,8,1:0:0:0:
96,96,223117,1,0,1:0:0:0:
96,96,223289,1,8,1:0:0:0:
96,162,223462,1,0,1:0:0:0:
96,96,223634,1,8,1:0:0:0:
96,96,223720,1,8,1:0:0:0:
96,162,223807,1,0,1:0:0:0:
96,96,223979,1,8,1:0:0:0:
96,162,224324,1,0,1:0:0:0:
96,162,224496,1,8,1:0:0:0:
96,96,224669,1,8,1:0:0:0:
96,162,224841,1,0,1:0:0:0:
96,96,225013,1,8,1:0:0:0:
96,96,225100,1,0,1:0:0:0:
96,162,225186,1,8,1:0:0:0:
96,162,225358,1,0,1:0:0:0:
96,162,225703,1,0,1:0:0:0:
96,96,225875,1,8,1:0:0:0:
96,162,226048,1,0,1:0:0:0:
96,162,226220,1,8,1:0:0:0:
96,96,226393,1,8,1:0:0:0:
96,162,226479,1,8,1:0:0:0:
96,96,226565,1,0,1:0:0:0:
96,96,226738,1,0,1:0:0:0:
96,162,226910,1,0,1:0:0:0:
96,162,226996,1,8,1:0:0:0:
96,96,227082,1,8,1:0:0:0:
96,162,227255,1,0,1:0:0:0:
96,96,227427,1,8,1:0:0:0:
96,162,227600,1,0,1:0:0:0:
96,96,227686,1,8,1:0:0:0:
96,162,227772,1,0,1:0:0:0:
96,162,227944,1,8,1:0:0:0:
96,96,228117,1,0,1:0:0:0:
96,162,228289,1,8,1:0:0:0:
96,162,228375,1,8,1:0:0:0:
96,96,228462,1,0,1:0:0:0:
96,162,228634,1,0,1:0:0:0:
96,96,228807,1,8,1:0:0:0:
96,162,228979,1,0,1:0:0:0:
96,96,229151,1,8,1:0:0:0:
96,160,229238,1,0,1:0:0:0:
96,96,229324,1,8,1:0:0:0:
96,162,229496,1,0,1:0:0:0:
96,162,229669,1,8,1:0:0:0:
96,162,229755,1,8,1:0:0:0:
96,96,229841,1,0,1:0:0:0:
96,96,230013,1,0,1:0:0:0:
96,162,230100,1,0,1:0:0:0:
96,162,230186,1,8,1:0:0:0:
96,162,230272,1,8,1:0:0:0:
96,162,230358,1,0,1:0:0:0:
96,96,231048,5,0,1:0:0:0:
96,96,231393,1,0,1:0:0:0:
411,298,231738,5,12,1:0:0:0:
96,162,232082,1,8,1:0:0:0:
96,162,232427,1,8,1:0:0:0:
96,96,232600,1,0,1:0:0:0:
96,162,232772,1,8,1:0:0:0:
96,162,232944,1,8,1:0:0:0:
96,96,233117,1,0,1:0:0:0:
96,96,233289,1,0,1:0:0:0:
96,162,233462,1,8,1:0:0:0:
96,162,233807,1,8,1:0:0:0:
96,162,233979,1,0,1:0:0:0:
96,162,234151,1,8,1:0:0:0:
411,298,234496,1,4,1:0:0:0:
411,298,234841,1,4,1:0:0:0:
96,162,235186,1,8,1:0:0:0:
96,96,235358,1,0,1:0:0:0:
96,162,235531,1,8,1:0:0:0:
96,96,235703,1,0,1:0:0:0:
96,162,235875,1,8,1:0:0:0:
96,162,236048,1,8,1:0:0:0:
96,162,236220,1,8,1:0:0:0:
96,96,236393,1,0,1:0:0:0:
96,162,236565,1,8,1:0:0:0:
96,162,236738,1,8,1:0:0:0:
96,96,236910,1,0,1:0:0:0:
411,298,237255,1,4,1:0:0:0:
411,298,237600,1,0,1:0:0:0:
96,162,237944,1,8,1:0:0:0:
96,162,238117,1,8,1:0:0:0:
96,96,238289,1,0,1:0:0:0:
96,162,238462,1,8,1:0:0:0:
96,96,238634,1,0,1:0:0:0:
96,96,238807,1,0,1:0:0:0:
96,162,238979,1,8,1:0:0:0:
96,162,239324,1,8,1:0:0:0:
96,162,239496,1,8,1:0:0:0:
96,162,239669,1,8,1:0:0:0:
96,96,240013,1,4,1:0:0:0:
96,96,240358,1,0,1:0:0:0:
96,162,240531,1,8,1:0:0:0:
96,96,240617,1,0,1:0:0:0:
96,162,240703,1,8,1:0:0:0:
96,96,240875,1,0,1:0:0:0:
96,162,241048,1,8,1:0:0:0:
96,162,241220,1,8,1:0:0:0:
96,162,241307,1,8,1:0:0:0:
96,96,241393,1,0,1:0:0:0:
96,96,241565,1,0,1:0:0:0:
96,96,241738,1,0,1:0:0:0:
96,162,241910,1,8,1:0:0:0:
96,96,242082,1,0,1:0:0:0:
96,96,242255,1,0,1:0:0:0:
96,162,242427,1,8,1:0:0:0:
96,162,242600,1,8,1:0:0:0:
411,298,242772,1,4,1:0:0:0:
96,162,243117,1,8,1:0:0:0:
96,162,243462,1,8,1:0:0:0:
96,96,243634,1,0,1:0:0:0:
96,162,243807,1,8,1:0:0:0:
96,162,243979,1,8,1:0:0:0:
96,96,244151,1,0,1:0:0:0:
96,96,244324,1,0,1:0:0:0:
96,162,244496,1,8,1:0:0:0:
96,162,244841,1,8,1:0:0:0:
96,162,245013,1,0,1:0:0:0:
96,162,245186,1,8,1:0:0:0:
411,298,245531,1,4,1:0:0:0:
411,298,245875,1,4,1:0:0:0:
96,162,246220,1,8,1:0:0:0:
96,96,246393,1,0,1:0:0:0:
96,162,246565,1,8,1:0:0:0:
96,96,246738,1,0,1:0:0:0:
96,162,246910,1,8,1:0:0:0:
96,162,247082,1,8,1:0:0:0:
96,162,247255,1,8,1:0:0:0:
96,96,247427,1,0,1:0:0:0:
96,162,247600,1,8,1:0:0:0:
96,162,247772,1,8,1:0:0:0:
96,96,247944,1,0,1:0:0:0:
411,298,248289,1,4,1:0:0:0:
411,298,248634,1,0,1:0:0:0:
96,162,248979,1,8,1:0:0:0:
96,162,249151,1,8,1:0:0:0:
96,96,249324,1,0,1:0:0:0:
96,162,249496,1,8,1:0:0:0:
96,96,249669,1,0,1:0:0:0:
96,96,249841,1,0,1:0:0:0:
96,162,250013,1,8,1:0:0:0:
96,96,250186,1,0,1:0:0:0:
96,162,250358,1,8,1:0:0:0:
96,162,250531,1,8,1:0:0:0:
96,162,250703,1,8,1:0:0:0:
96,96,251048,1,4,1:0:0:0:
96,96,251393,1,0,1:0:0:0:
96,162,251565,1,8,1:0:0:0:
96,96,251651,1,0,1:0:0:0:
96,162,251738,1,8,1:0:0:0:
96,96,251910,1,0,1:0:0:0:
96,162,252082,1,8,1:0:0:0:
96,162,252255,1,8,1:0:0:0:
96,162,252341,1,8,1:0:0:0:
96,96,252427,1,0,1:0:0:0:
96,96,252600,1,0,1:0:0:0:
96,96,252772,1,0,1:0:0:0:
96,162,252944,1,8,1:0:0:0:
96,96,253117,1,0,1:0:0:0:
96,96,253289,1,0,1:0:0:0:
96,162,253462,1,8,1:0:0:0:
96,96,253634,1,0,1:0:0:0:
409,219,253807,1,12,1:0:0:0:
256,192,253979,12,0,260703,1:0:0:0:
