osu file format v14

[General]
AudioFilename: audio.mp3
AudioLeadIn: 0
PreviewTime: 82729
Countdown: 0
SampleSet: Normal
StackLeniency: 0.7
Mode: 1
LetterboxInBreaks: 0
WidescreenStoryboard: 0

[Editor]
Bookmarks: 73807,99281,104841,115875,126910,137944,228979
DistanceSpacing: 0.9
BeatDivisor: 4
GridSize: 16
TimelineZoom: 2.2

[Metadata]
Title:I Can't Fix You feat. Crusher-P
TitleUnicode:I Can't Fix You feat. Crusher-P
Artist:The Living Tombstone
ArtistUnicode:The Living Tombstone
Creator:Molybdenum
Version:Defective
Source:
Tags:_hellfly_ electronic dnb d'n'b drum and bass english rock pop cant crusherp cien rojas miller omega destroyer dictator bunny lord female vocals vocalist 5 five nights at freddys freddy's sister location fnafsl tlt thelivingtombstone
BeatmapID:4087350
BeatmapSetID:1970073

[Difficulty]
HPDrainRate:5
CircleSize:5
OverallDifficulty:6
ApproachRate:10
SliderMultiplier:1.4
SliderTickRate:1

[Events]
//Background and Video events
0,0,"i_can_t_fix_you_by_yingyang48_dard6b9.png",0,70
//Break Periods
//Storyboard Layer 0 (Background)
//Storyboard Layer 1 (Fail)
//Storyboard Layer 2 (Pass)
//Storyboard Layer 3 (Foreground)
//Storyboard Layer 4 (Overlay)
//Storyboard Sound Samples

[TimingPoints]
18,517.241379310345,4,1,0,50,1,0
18,-142.857142857143,4,1,0,50,0,0
13764,-100,4,1,0,70,0,0
13807,344.827586206897,4,1,0,70,1,0
21350,-102.040816326531,4,1,0,70,0,0
21436,-104.166666666667,4,1,0,70,0,0
21522,-106.382978723404,4,1,0,70,0,0
21694,-111.111111111111,4,1,0,70,0,0
21867,-116.279069767442,4,1,0,70,0,0
22039,-100,4,1,0,70,0,0
30315,-100,4,1,0,75,0,0
30358,-90.9090909090909,4,1,0,75,0,1
39324,-90.9090909090909,4,1,0,75,0,0
39970,-111.111111111111,4,1,0,75,0,0
41393,-90.9090909090909,4,1,0,75,0,1
50358,-90.9090909090909,4,1,0,75,0,0
52384,-71.4285714285714,4,1,0,75,0,0
52729,-66.6666666666667,4,1,0,75,0,0
53074,-62.5,4,1,0,75,0,0
53419,-58.8235294117647,4,1,0,75,0,0
53764,-55.5555555555556,4,1,0,75,0,0
55143,-50,4,1,0,70,0,0
55488,-90.9090909090909,4,1,0,70,0,0
58246,-74.0740740740741,4,1,0,70,0,0
58332,-76.9230769230769,4,1,0,70,0,0
58419,-80,4,1,0,70,0,0
58505,-83.3333333333333,4,1,0,70,0,0
58591,-86.9565217391304,4,1,0,70,0,0
58763,-90.9090909090909,4,1,0,70,0,0
63763,-90.9090909090909,4,1,0,70,0,0
63936,-95.2380952380952,4,1,0,70,0,0
64108,-100,4,1,0,70,0,0
64453,-100,4,1,0,70,0,0
64669,-91.743119266055,4,1,0,70,0,0
64726,-92.5925925925929,4,1,0,70,0,0
64784,-93.4579439252339,4,1,0,70,0,0
64841,-94.3396226415097,4,1,0,70,0,0
65013,-97.0873786407766,4,1,0,70,0,0
65186,-99.9999999999999,4,1,0,70,0,0
65358,-103.092783505155,4,1,0,70,0,0
65531,-106.382978723404,4,1,0,70,0,0
65703,-109.89010989011,4,1,0,70,0,0
65875,-113.636363636364,4,1,0,70,0,0
66048,-117.647058823529,4,1,0,70,0,0
66220,-100,4,1,0,70,0,0
73763,-102.040816326531,4,1,0,70,0,0
73850,-104.166666666667,4,1,0,70,0,0
73936,-106.382978723404,4,1,0,70,0,0
74108,-111.111111111111,4,1,0,70,0,0
74281,-116.279069767442,4,1,0,70,0,0
74453,-100,4,1,0,70,0,0
82729,-90.9090909090909,4,1,0,70,0,0
82772,-90.9090909090909,4,1,0,70,0,1
91738,-90.9090909090909,4,1,0,70,0,0
92384,-111.111111111111,4,1,0,70,0,0
93764,-90.9090909090908,4,1,0,70,0,0
93807,-90.9090909090908,4,1,0,70,0,1
99281,-90.9090909090909,4,1,0,50,0,1
99324,-90.90909,4,1,0,50,0,0
99409,-91.80761,4,1,0,51,0,0
99495,-92.71342,4,1,0,52,0,0
99581,-93.6373,4,1,0,53,0,0
99668,-94.59084,4,1,0,54,0,0
99754,-95.55269,4,1,0,55,0,0
99840,-96.53432,4,1,0,56,0,0
99926,-97.536316,4,1,0,57,0,0
100013,-98.57137,4,1,0,58,0,0
100099,-99.616325,4,1,0,59,0,0
100185,-100.683685,4,1,0,60,0,0
100271,-101.774155,4,1,0,61,0,0
100357,-102.88852,4,1,0,62,0,0
100444,-104.04095,4,1,0,63,0,0
100530,-105.20577,4,1,0,64,0,0
100616,-106.39699,4,1,0,65,0,0
100702,-90.91932,4,1,0,66,0,0
100788,-91.80761,4,1,0,67,0,0
100875,-92.72405,4,1,0,68,0,0
100961,-93.64814,4,1,0,69,0,0
101047,-94.59084,4,1,0,70,0,0
101133,-95.55269,4,1,0,71,0,0
101219,-96.53432,4,1,0,72,0,0
101306,-97.54809,4,1,0,72,0,0
101392,-98.57137,4,1,0,72,0,0
101478,-99.616325,4,1,0,72,0,0
101564,-100.683685,4,1,0,72,0,0
101650,-101.77417,4,1,0,72,0,0
101737,-102.90162,4,1,0,72,0,0
101823,-104.04095,4,1,0,72,0,0
101909,-105.20577,4,1,0,72,0,0
101995,-106.39699,4,1,0,72,0,0
102081,-90.899506,4,1,0,72,0,0
102168,-90.07362,4,1,0,72,0,0
102254,-89.27185,4,1,0,72,0,0
102340,-88.48422,4,1,0,72,0,0
102426,-87.71037,4,1,0,72,0,0
102513,-86.94118,4,1,0,72,0,0
102599,-86.19397,4,1,0,72,0,0
102685,-85.4595,4,1,0,72,0,0
102771,-84.737434,4,1,0,72,0,0
102857,-84.02747,4,1,0,72,0,0
102943,-83.32931,4,1,0,72,0,0
103030,-82.634735,4,1,0,72,0,0
103116,-81.95943,4,1,0,72,0,0
103202,-81.29507,4,1,0,72,0,0
103288,-80.641396,4,1,0,72,0,0
103374,-79.998146,4,1,0,72,0,0
103461,-79.35778,4,1,0,72,0,0
104840,-90.91936,4,1,0,72,0,0
105185,-94.60571,4,1,0,72,0,0
105357,-96.5575,4,1,0,72,0,0
105443,-97.56393,4,1,0,72,0,0
105530,-98.603615,4,1,0,72,0,0
105702,-100.72572,4,1,0,72,0,0
105788,-101.8214,4,1,0,72,0,0
105874,-102.94117,4,1,0,72,0,0
106047,-105.270035,4,1,0,72,0,0
106219,-107.692314,4,1,0,72,0,0
106392,-110.24376,4,1,0,72,0,0
106737,-115.71079,4,1,0,72,0,0
106909,-118.64407,4,1,0,72,0,0
106995,-120.16718,4,1,0,72,0,0
107081,-121.729935,4,1,0,72,0,0
107254,-125,4,1,0,72,0,0
107599,-90.90909,4,1,0,72,0,0
107943,-94.58665,4,1,0,72,0,0
108116,-96.550896,4,1,0,72,0,0
108202,-97.558014,4,1,0,72,0,0
108288,-98.586365,4,1,0,72,0,0
108461,-100.72212,4,1,0,72,0,0
108547,-101.81864,4,1,0,72,0,0
108633,-102.93929,4,1,0,72,0,0
108806,-105.27005,4,1,0,72,0,0
108978,-107.69437,4,1,0,72,0,0
109150,-110.23299,4,1,0,72,0,0
109495,-115.70367,4,1,0,72,0,0
109668,-118.65656,4,1,0,72,0,0
109754,-120.18129,4,1,0,72,0,0
109840,-121.74572,4,1,0,72,0,0
110012,-125,4,1,0,72,0,0
110357,-90.90909,4,1,0,72,0,0
110702,-94.59618,4,1,0,72,0,0
110874,-96.548416,4,1,0,72,0,0
110961,-97.56689,4,1,0,72,0,0
111047,-98.59501,4,1,0,72,0,0
111219,-100.71762,4,1,0,72,0,0
111306,-101.826454,4,1,0,72,0,0
111392,-102.94682,4,1,0,72,0,0
111564,-105.26316,4,1,0,72,0,0
111737,-107.700554,4,1,0,72,0,0
111909,-110.23837,4,1,0,72,0,0
112254,-115.70724,4,1,0,72,0,0
112426,-118.64157,4,1,0,72,0,0
112512,-120.165276,4,1,0,72,0,0
112599,-121.74703,4,1,0,72,0,0
112771,-125,4,1,0,72,0,0
113116,-90.90909,4,1,0,72,0,0
113461,-97.566154,4,1,0,72,0,0
113633,-101.26303,4,1,0,72,0,0
113719,-103.21855,4,1,0,72,0,0
113806,-105.27521,4,1,0,72,0,0
113978,-109.59231,4,1,0,72,0,0
114064,-111.886406,4,1,0,72,0,0
114150,-114.27862,4,1,0,72,0,0
114323,-119.41462,4,1,0,72,0,0
114495,-125,4,1,0,72,0,0
115874,-90.90909,4,1,0,72,0,0
116219,-94.59618,4,1,0,72,0,0
116392,-96.56,4,1,0,72,0,0
116478,-97.56689,4,1,0,72,0,0
116564,-98.59501,4,1,0,72,0,0
116737,-100.73023,4,1,0,72,0,0
116823,-101.826454,4,1,0,72,0,0
116909,-102.94682,4,1,0,72,0,0
117081,-105.26316,4,1,0,72,0,0
117254,-107.700554,4,1,0,72,0,0
117426,-110.23837,4,1,0,72,0,0
117771,-115.70724,4,1,0,72,0,0
117943,-118.64157,4,1,0,72,0,0
118029,-120.165276,4,1,0,72,0,0
118115,-121.728615,4,1,0,72,0,0
118288,-125,4,1,0,72,0,0
118633,-90.90909,4,1,0,72,0,0
118977,-94.58506,4,1,0,72,0,0
119150,-96.548416,4,1,0,72,0,0
119236,-97.55505,4,1,0,72,0,0
119322,-98.582924,4,1,0,72,0,0
119495,-100.71762,4,1,0,72,0,0
119581,-101.813576,4,1,0,72,0,0
119667,-102.933655,4,1,0,72,0,0
119840,-105.26316,4,1,0,72,0,0
120012,-107.68613,4,1,0,72,0,0
120184,-110.223274,4,1,0,72,0,0
120529,-115.6906,4,1,0,72,0,0
120702,-118.64157,4,1,0,72,0,0
120788,-120.165276,4,1,0,72,0,0
120874,-121.728615,4,1,0,72,0,0
121046,-124.98059,4,1,0,72,0,0
121391,-90.89881,4,1,0,72,0,0
121736,-94.58506,4,1,0,72,0,0
121908,-96.53683,4,1,0,72,0,0
121995,-97.55505,4,1,0,72,0,0
122081,-98.582924,4,1,0,72,0,0
122253,-100.70502,4,1,0,72,0,0
122340,-101.813576,4,1,0,72,0,0
122426,-102.933655,4,1,0,72,0,0
122598,-105.24939,4,1,0,72,0,0
122771,-107.68613,4,1,0,72,0,0
122943,-110.223274,4,1,0,72,0,0
123288,-115.6906,4,1,0,72,0,0
123460,-118.62408,4,1,0,72,0,0
123546,-120.14732,4,1,0,72,0,0
123633,-121.728615,4,1,0,72,0,0
123805,-124.98059,4,1,0,72,0,0
124150,-90.90909,4,1,0,72,0,0
124495,-97.560974,4,1,0,72,0,0
124668,-101.27696,4,1,0,72,0,0
124754,-103.2316,4,1,0,72,0,0
124840,-105.26316,4,1,0,72,0,0
125012,-109.57599,4,1,0,72,0,0
125099,-111.894905,4,1,0,72,0,0
125185,-114.28571,4,1,0,72,0,0
125357,-119.38749,4,1,0,72,0,0
125530,-125,4,1,0,72,0,0
126910,-90.9090909090909,4,1,0,72,0,0
128288,-90.90909,4,1,0,72,0,0
128461,-93.341576,4,1,0,72,0,0
128633,-95.89258,4,1,0,72,0,0
128806,-98.60305,4,1,0,72,0,0
128892,-100.00828,4,1,0,72,0,0
128978,-101.45414,4,1,0,72,0,0
129150,-104.47503,4,1,0,72,0,0
129236,-106.05395,4,1,0,72,0,0
129322,-107.68133,4,1,0,72,0,0
129495,-111.11111,4,1,0,72,0,0
129669,-90.90909,4,1,0,72,0,0
131047,-90.90909,4,1,0,72,0,0
131219,-93.32715,4,1,0,72,0,0
131392,-95.89258,4,1,0,72,0,0
131564,-98.58694,4,1,0,72,0,0
131650,-99.991714,4,1,0,72,0,0
131737,-101.45414,4,1,0,72,0,0
131909,-104.47503,4,1,0,72,0,0
131995,-106.05395,4,1,0,72,0,0
132082,-107.70054,4,1,0,72,0,0
132254,-111.11111,4,1,0,72,0,0
132427,-90.90909,4,1,0,72,0,0
133806,-90.90909,4,1,0,72,0,0
133978,-93.3292,4,1,0,72,0,0
134150,-95.8817,4,1,0,72,0,0
134323,-98.59385,4,1,0,72,0,0
134409,-100,4,1,0,72,0,0
134495,-101.44683,4,1,0,72,0,0
134668,-104.48796,4,1,0,72,0,0
134754,-106.068596,4,1,0,72,0,0
134840,-107.6978,4,1,0,72,0,0
135012,-111.11111,4,1,0,72,0,0
135186,-90.90909,4,1,0,72,0,0
137944,-90.90909,4,1,0,72,0,0
139322,-90.895386,4,1,0,72,0,0
139495,-93.32715,4,1,0,72,0,0
139667,-95.87736,4,1,0,72,0,0
139840,-98.58694,4,1,0,72,0,0
139926,-99.991714,4,1,0,72,0,0
140012,-101.437096,4,1,0,72,0,0
140184,-104.45693,4,1,0,72,0,0
140270,-106.03531,4,1,0,72,0,0
140356,-107.66211,4,1,0,72,0,0
140529,-111.090645,4,1,0,72,0,0
140703,-90.90909,4,1,0,72,0,0
142081,-90.90909,4,1,0,72,0,0
142253,-93.32715,4,1,0,72,0,0
142426,-95.89258,4,1,0,72,0,0
142598,-98.58694,4,1,0,72,0,0
142684,-99.991714,4,1,0,72,0,0
142771,-101.45414,4,1,0,72,0,0
142943,-104.47503,4,1,0,72,0,0
143029,-106.05395,4,1,0,72,0,0
143116,-107.70054,4,1,0,72,0,0
143288,-111.11111,4,1,0,72,0,0
143462,-90.90909,4,1,0,72,0,0
144840,-90.90909,4,1,0,72,0,0
145012,-93.32715,4,1,0,72,0,0
145184,-95.87736,4,1,0,72,0,0
145357,-98.58694,4,1,0,72,0,0
145443,-99.991714,4,1,0,72,0,0
145529,-101.437096,4,1,0,72,0,0
145702,-104.47503,4,1,0,72,0,0
145788,-106.05395,4,1,0,72,0,0
145874,-107.68133,4,1,0,72,0,0
146046,-111.090645,4,1,0,72,0,0
146219,-90.90909,4,1,0,72,0,0
148936,-100,4,1,0,72,0,0
149022,-100,4,1,0,50,0,0
159970,-100,4,1,0,50,0,0
171005,-100,4,1,0,70,0,0
178591,-102.040816326531,4,1,0,70,0,0
178677,-104.166666666667,4,1,0,70,0,0
178763,-106.382978723404,4,1,0,70,0,0
178936,-111.111111111111,4,1,0,70,0,0
179108,-116.279069767442,4,1,0,70,0,0
179281,-100,4,1,0,70,0,0
187557,-100,4,1,0,75,0,0
187600,-90.9090909090909,4,1,0,75,0,1
196565,-90.9090909090909,4,1,0,75,0,0
197212,-111.111111111111,4,1,0,75,0,0
198634,-90.9090909090908,4,1,0,75,0,1
207600,-90.9090909090908,4,1,0,75,0,0
209669,-90.9090909090908,4,1,0,75,0,1
218634,-90.9090909090908,4,1,0,75,0,0
219281,-111.111111111111,4,1,0,75,0,0
220703,-90.9090909090908,4,1,0,75,0,1
226220,-90.90909,4,1,0,75,0,0
226306,-91.80761,4,1,0,75,0,0
226392,-92.71342,4,1,0,75,0,0
226478,-93.6373,4,1,0,75,0,0
226564,-94.57977,4,1,0,75,0,0
226650,-95.5414,4,1,0,75,0,0
226737,-96.53432,4,1,0,75,0,0
226823,-97.536316,4,1,0,75,0,0
226909,-98.55934,4,1,0,75,0,0
226995,-99.60405,4,1,0,75,0,0
227081,-100.67114,4,1,0,75,0,0
227168,-101.77417,4,1,0,75,0,0
227254,-102.88852,4,1,0,75,0,0
227340,-104.02755,4,1,0,75,0,0
227426,-105.19208,4,1,0,75,0,0
227513,-106.39699,4,1,0,75,0,0
227599,-90.90909,4,1,0,75,0,0
227685,-91.79718,4,1,0,75,0,0
227771,-92.70278,4,1,0,75,0,0
227857,-93.62645,4,1,0,75,0,0
227944,-94.57977,4,1,0,75,0,0
228030,-95.5414,4,1,0,75,0,0
228116,-96.52278,4,1,0,75,0,0
228202,-97.52454,4,1,0,75,0,0
228288,-98.54732,4,1,0,75,0,0
228375,-99.60405,4,1,0,75,0,0
228461,-100.67114,4,1,0,75,0,0
228547,-101.76134,4,1,0,75,0,0
228633,-102.87542,4,1,0,75,0,0
228719,-104.01416,4,1,0,75,0,0
228806,-105.19208,4,1,0,75,0,0
228892,-106.38298,4,1,0,75,0,0
228978,-90.90909,4,1,0,75,0,0
229064,-90.09186,4,1,0,75,0,0
229150,-89.289185,4,1,0,75,0,0
229237,-88.4916,4,1,0,75,0,0
229323,-87.717064,4,1,0,75,0,0
229409,-86.95597,4,1,0,75,0,0
229495,-86.20797,4,1,0,75,0,0
229581,-85.472725,4,1,0,75,0,0
229668,-84.7416,4,1,0,75,0,0
229754,-84.03105,4,1,0,75,0,0
229840,-83.33233,4,1,0,75,0,0
229926,-82.645134,4,1,0,75,0,0
230013,-81.96137,4,1,0,75,0,0
230099,-81.2965,4,1,0,75,0,0
230185,-80.642334,4,1,0,75,0,0
230271,-79.99861,4,1,0,75,0,0
230357,-79.36508,4,1,0,75,0,0
231738,-33.3333333333333,4,1,0,75,0,1
232427,-100,4,1,0,75,0,0
232600,-90.9090909090909,4,1,0,75,0,0
232772,-83.3333333333333,4,1,0,75,0,0
232944,-76.9230769230769,4,1,0,75,0,0
233117,-71.4285714285714,4,1,0,75,0,0
233289,-66.6666666666667,4,1,0,75,0,0
233419,-66.6666666666667,4,1,0,75,0,0
233461,-67.998146,4,1,0,75,0,0
233518,-69.847336,4,1,0,75,0,0
233576,-71.83514,4,1,0,75,0,0
233633,-73.90207,4,1,0,75,0,0
233806,-80.97345,4,1,0,75,0,0
233978,-89.48655,4,1,0,75,0,0
234150,-100,4,1,0,75,0,0
234410,-62.5,4,1,0,75,0,0
235186,-100,4,1,0,75,0,0
235358,-90.9090909090909,4,1,0,75,0,0
235531,-83.3333333333333,4,1,0,75,0,0
235703,-76.9230769230769,4,1,0,75,0,0
235875,-71.4285714285714,4,1,0,75,0,0
236048,-66.6666666666667,4,1,0,75,0,0
236220,-62.5,4,1,0,75,0,0
236393,-58.8235294117647,4,1,0,75,0,0
236522,-58.8235294117647,4,1,0,75,0,0
236564,-60.74766,4,1,0,75,0,0
236622,-63.55161,4,1,0,75,0,0
236679,-66.571396,4,1,0,75,0,0
236737,-69.9537,4,1,0,75,0,0
236909,-82.363335,4,1,0,75,0,0
237081,-100.12539,4,1,0,75,0,0
237212,-62.5,4,1,0,75,0,0
237944,-100,4,1,0,75,0,0
238117,-90.9090909090909,4,1,0,75,0,0
238289,-83.3333333333333,4,1,0,75,0,0
238462,-76.9230769230769,4,1,0,75,0,0
238634,-71.4285714285714,4,1,0,75,0,0
238807,-66.6666666666667,4,1,0,75,0,0
238936,-66.6666666666667,4,1,0,75,0,0
238978,-67.99629,4,1,0,75,0,0
239035,-69.84278,4,1,0,75,0,0
239093,-71.82754,4,1,0,75,0,0
239150,-73.89113,4,1,0,75,0,0
239323,-80.94976,4,1,0,75,0,0
239495,-89.444786,4,1,0,75,0,0
239668,-100,4,1,0,75,0,0
241220,-84.0336134453781,4,1,0,75,0,0
241307,-84.7457627118644,4,1,0,75,0,0
241393,-85.4700854700855,4,1,0,75,0,0
241565,-86.9565217391304,4,1,0,75,0,0
241738,-88.4955752212389,4,1,0,75,0,0
241910,-90.0900900900901,4,1,0,75,0,0
242082,-91.743119266055,4,1,0,75,0,0
242255,-93.4579439252339,4,1,0,75,0,0
242427,-95.2380952380954,4,1,0,75,0,0
242600,-97.0873786407766,4,1,0,75,0,0
242772,-33.3333333333333,4,1,0,75,0,1
243462,-100,4,1,0,75,0,0
243634,-90.9090909090909,4,1,0,75,0,0
243807,-83.3333333333333,4,1,0,75,0,0
243979,-76.9230769230769,4,1,0,75,0,0
244151,-71.4285714285714,4,1,0,75,0,0
244324,-66.6666666666667,4,1,0,75,0,0
244453,-66.6666666666667,4,1,0,75,0,0
244495,-67.99629,4,1,0,75,0,0
244553,-69.876076,4,1,0,75,0,0
244610,-71.82754,4,1,0,75,0,0
244668,-73.92839,4,1,0,75,0,0
244840,-80.94976,4,1,0,75,0,0
245013,-89.49939,4,1,0,75,0,0
245185,-100,4,1,0,75,0,0
245488,-62.5,4,1,0,75,0,0
246220,-100,4,1,0,75,0,0
246393,-90.9090909090909,4,1,0,75,0,0
246565,-83.3333333333333,4,1,0,75,0,0
246738,-76.9230769230769,4,1,0,75,0,0
246910,-71.4285714285714,4,1,0,75,0,0
247082,-66.6666666666667,4,1,0,75,0,0
247255,-62.5,4,1,0,75,0,0
247427,-58.8235294117647,4,1,0,75,0,0
247557,-58.8235294117647,4,1,0,75,0,0
247599,-60.744114,4,1,0,75,0,0
247656,-63.49206,4,1,0,75,0,0
247714,-66.55574,4,1,0,75,0,0
247771,-69.868996,4,1,0,75,0,0
247944,-82.30453,4,1,0,75,0,0
248116,-100,4,1,0,75,0,0
248246,-62.5,4,1,0,75,0,0
248979,-100,4,1,0,75,0,0
249151,-90.9090909090909,4,1,0,75,0,0
249324,-83.3333333333333,4,1,0,75,0,0
249496,-76.9230769230769,4,1,0,75,0,0
249669,-71.4285714285714,4,1,0,75,0,0
249841,-66.6666666666667,4,1,0,75,0,0
249970,-66.6666666666667,4,1,0,75,0,0
250012,-67.99629,4,1,0,75,0,0
250070,-69.876076,4,1,0,75,0,0
250127,-71.82754,4,1,0,75,0,0
250185,-73.92839,4,1,0,75,0,0
250357,-80.94976,4,1,0,75,0,0
250530,-89.49939,4,1,0,75,0,0
250702,-100,4,1,0,75,0,0
252255,-84.0336134453781,4,1,0,75,0,0
252312,-84.7457627118644,4,1,0,75,0,0
252370,-85.4700854700855,4,1,0,75,0,0
252427,-86.2068965517241,4,1,0,75,0,0
252600,-88.4955752212389,4,1,0,75,0,0
252772,-90.9090909090909,4,1,0,75,0,0
252944,-93.4579439252339,4,1,0,75,0,0
253117,-96.153846153846,4,1,0,75,0,0
253289,-99.0099009900991,4,1,0,75,0,0
253462,-102.040816326531,4,1,0,75,0,0
253634,-105.263157894737,4,1,0,75,0,0
253807,-108.695652173913,4,1,0,75,0,0
253850,-33.3333333333333,4,1,0,75,0,0
253970,-100.57599,4,1,0,74,0,0
254056,-101.21879,4,1,0,73,0,0
254143,-101.87747,4,1,0,72,0,0
254229,-102.53708,4,1,0,72,0,0
254315,-103.20527,4,1,0,71,0,0
254401,-103.88224,4,1,0,70,0,0
254487,-104.56814,4,1,0,69,0,0
254574,-105.27129,4,1,0,68,0,0
254660,-105.975716,4,1,0,67,0,0
254746,-106.689644,4,1,0,66,0,0
254832,-107.413246,4,1,0,65,0,0
254918,-108.146736,4,1,0,64,0,0
255005,-108.89902,4,1,0,64,0,0
255091,-109.653015,4,1,0,63,0,0
255177,-110.41752,4,1,0,62,0,0
255263,-111.19275,4,1,0,61,0,0
255350,-111.98816,4,1,0,60,0,0
255436,-112.7857,4,1,0,59,0,0
255522,-113.594666,4,1,0,58,0,0
255608,-114.41533,4,1,0,57,0,0
255694,-115.247925,4,1,0,56,0,0
255781,-116.10263,4,1,0,56,0,0
255867,-116.96007,4,1,0,55,0,0
255953,-117.83026,4,1,0,54,0,0
256039,-118.7135,4,1,0,53,0,0
256125,-119.610085,4,1,0,52,0,0
256212,-120.530975,4,1,0,51,0,0
256298,-121.45532,4,1,0,50,0,0
256384,-122.39396,4,1,0,49,0,0
256470,-123.34721,4,1,0,49,0,0
256556,-124.315445,4,1,0,48,0,0
256643,-125.31051,4,1,0,47,0,0
256729,-126.30994,4,1,0,46,0,0
256815,-127.32541,4,1,0,45,0,0
256901,-128.35738,4,1,0,44,0,0
256987,-129.40617,4,1,0,43,0,0
257074,-130.48477,4,1,0,42,0,0
257160,-131.56879,4,1,0,41,0,0
257246,-132.67096,4,1,0,41,0,0
257332,-133.79176,4,1,0,40,0,0
257418,-134.93164,4,1,0,39,0,0
257505,-136.10472,4,1,0,38,0,0
257591,-137.28456,4,1,0,37,0,0
257677,-138.485,4,1,0,36,0,0
257763,-139.70665,4,1,0,35,0,0
257849,-140.95001,4,1,0,34,0,0
257936,-142.23058,4,1,0,33,0,0
258022,-143.51949,4,1,0,33,0,0
258108,-144.83199,4,1,0,32,0,0
258194,-146.1687,4,1,0,31,0,0
258280,-147.53033,4,1,0,30,0,0
258367,-148.93385,4,1,0,29,0,0
258453,-150.34772,4,1,0,28,0,0
258539,-151.7887,4,1,0,27,0,0
258625,-153.25757,4,1,0,26,0,0
258711,-154.75513,4,1,0,25,0,0
258798,-156.30022,4,1,0,25,0,0
258884,-157.85815,4,1,0,24,0,0
258970,-159.44743,4,1,0,23,0,0
259056,-161.06906,4,1,0,22,0,0
259142,-162.72401,4,1,0,21,0,0
259229,-164.43318,4,1,0,20,0,0
259315,-166.15834,4,1,0,19,0,0
259401,-167.92012,4,1,0,18,0,0
259487,-169.71962,4,1,0,17,0,0
259573,-171.55814,4,1,0,17,0,0
259660,-173.459,4,1,0,16,0,0
259746,-175.37988,4,1,0,15,0,0
259832,-177.34375,4,1,0,14,0,0
259918,-179.35214,4,1,0,13,0,0
260004,-181.40651,4,1,0,12,0,0
260091,-183.53322,4,1,0,11,0,0
260177,-185.68507,4,1,0,10,0,0
260263,-187.888,4,1,0,10,0,0
260349,-190.1438,4,1,0,9,0,0
260435,-192.45444,4,1,0,8,0,0
260522,-194.8498,4,1,0,7,0,0
260608,-197.27693,4,1,0,6,0,0
260694,-199.76532,4,1,0,5,0,0

[HitObjects]
113,127,18,5,0,0:0:0:0:
113,127,535,1,8,0:0:0:0:
113,127,1052,1,8,0:0:0:0:
113,127,1569,1,0,0:0:0:0:
113,127,2086,1,0,0:0:0:0:
113,127,2604,1,8,0:0:0:0:
113,127,3121,1,8,0:0:0:0:
113,127,3638,1,0,0:0:0:0:
113,127,4155,1,8,0:0:0:0:
113,127,4673,1,0,0:0:0:0:
113,127,5190,1,8,0:0:0:0:
113,127,5707,1,0,0:0:0:0:
113,127,6224,1,8,0:0:0:0:
113,127,6742,1,0,0:0:0:0:
113,127,7259,1,8,0:0:0:0:
113,127,7776,1,0,0:0:0:0:
113,127,8293,1,8,0:0:0:0:
113,127,8811,1,8,0:0:0:0:
113,127,9328,1,0,0:0:0:0:
113,127,9845,1,0,0:0:0:0:
113,127,10362,1,8,0:0:0:0:
113,127,10880,1,0,0:0:0:0:
256,192,11052,12,0,13466,0:0:0:0:
113,127,13807,5,12,0:0:0:0:
113,127,14151,1,8,0:0:0:0:
113,127,14324,1,0,0:0:0:0:
113,127,14496,1,8,0:0:0:0:
113,127,14582,1,0,0:0:0:0:
113,127,14669,1,8,0:0:0:0:
113,127,14841,1,0,0:0:0:0:
113,127,15013,1,8,0:0:0:0:
113,127,15100,1,8,0:0:0:0:
113,127,15186,1,0,0:0:0:0:
113,127,15358,1,8,0:0:0:0:
113,127,15444,1,8,0:0:0:0:
113,127,15531,1,0,0:0:0:0:
113,127,15703,1,0,0:0:0:0:
113,127,15875,1,8,0:0:0:0:
113,127,15962,1,8,0:0:0:0:
113,127,16048,1,0,0:0:0:0:
113,127,16220,1,0,0:0:0:0:
113,127,16393,1,8,0:0:0:0:
113,127,16479,1,0,0:0:0:0:
113,127,16565,1,0,0:0:0:0:
113,127,16738,1,8,0:0:0:0:
113,127,16824,1,0,0:0:0:0:
113,127,16910,1,0,0:0:0:0:
113,127,17082,1,0,0:0:0:0:
113,127,17255,1,8,0:0:0:0:
113,127,17341,1,0,0:0:0:0:
113,127,17427,1,8,0:0:0:0:
113,127,17600,1,0,0:0:0:0:
113,127,17772,1,0,0:0:0:0:
113,127,17944,1,8,0:0:0:0:
113,127,18031,1,8,0:0:0:0:
113,127,18117,1,0,0:0:0:0:
113,127,18203,1,0,0:0:0:0:
113,127,18289,1,8,0:0:0:0:
113,127,18462,1,0,0:0:0:0:
113,127,18634,1,8,0:0:0:0:
113,127,18720,1,8,0:0:0:0:
113,127,18807,1,0,0:0:0:0:
113,127,18979,1,8,0:0:0:0:
113,127,19151,1,0,0:0:0:0:
113,127,19324,1,0,0:0:0:0:
113,127,19496,1,8,0:0:0:0:
113,127,19669,1,8,0:0:0:0:
113,127,19841,1,0,0:0:0:0:
113,127,20013,1,0,0:0:0:0:
113,127,20186,1,8,0:0:0:0:
113,127,20358,1,8,0:0:0:0:
113,127,20531,1,0,0:0:0:0:
113,127,20703,1,0,0:0:0:0:
113,127,21220,1,0,0:0:0:0:
113,127,21393,1,8,0:0:0:0:
113,127,21479,1,8,0:0:0:0:
113,127,21565,1,0,0:0:0:0:
113,127,21738,1,8,0:0:0:0:
113,127,21910,1,8,0:0:0:0:
113,127,22082,1,4,0:0:0:0:
113,127,22255,1,8,0:0:0:0:
113,127,22427,1,0,0:0:0:0:
113,127,22600,1,8,0:0:0:0:
113,127,22772,1,8,0:0:0:0:
113,127,22858,1,8,0:0:0:0:
113,127,22944,1,0,0:0:0:0:
113,127,23117,1,0,0:0:0:0:
113,127,23289,1,8,0:0:0:0:
113,127,23375,1,8,0:0:0:0:
113,127,23462,1,0,0:0:0:0:
113,127,23634,1,8,0:0:0:0:
113,127,23720,1,8,0:0:0:0:
113,127,23807,1,0,0:0:0:0:
113,127,23979,1,0,0:0:0:0:
113,127,24151,1,8,0:0:0:0:
113,127,24238,1,0,0:0:0:0:
113,127,24324,1,8,0:0:0:0:
113,127,24496,1,0,0:0:0:0:
113,127,24669,1,8,0:0:0:0:
113,127,24755,1,0,0:0:0:0:
113,127,24841,1,0,0:0:0:0:
113,127,25013,1,8,0:0:0:0:
113,127,25100,1,0,0:0:0:0:
113,127,25186,1,0,0:0:0:0:
113,127,25358,1,0,0:0:0:0:
113,127,25531,1,8,0:0:0:0:
113,127,25617,1,8,0:0:0:0:
113,127,25703,1,0,0:0:0:0:
113,127,25875,1,8,0:0:0:0:
113,127,26048,1,0,0:0:0:0:
113,127,26220,1,8,0:0:0:0:
113,127,26307,1,0,0:0:0:0:
113,127,26393,1,8,0:0:0:0:
113,127,26479,1,0,0:0:0:0:
113,127,26565,1,8,0:0:0:0:
113,127,26738,1,0,0:0:0:0:
113,127,26910,1,8,0:0:0:0:
113,127,27082,1,0,0:0:0:0:
113,127,27255,1,8,0:0:0:0:
113,127,27427,1,0,0:0:0:0:
113,127,27600,1,0,0:0:0:0:
113,127,28117,1,0,0:0:0:0:
113,127,28634,1,0,0:0:0:0:
113,127,28979,1,0,0:0:0:0:
113,127,30358,1,12,0:0:0:0:
113,127,30531,1,0,0:0:0:0:
113,127,30617,1,8,0:0:0:0:
113,127,30703,1,8,0:0:0:0:
113,127,30875,1,0,0:0:0:0:
113,127,30962,1,0,0:0:0:0:
113,127,31048,1,0,0:0:0:0:
113,127,31134,1,0,0:0:0:0:
113,127,31220,1,8,0:0:0:0:
113,127,31393,1,8,0:0:0:0:
113,127,31565,1,0,0:0:0:0:
113,127,31738,1,0,0:0:0:0:
113,127,31910,1,0,0:0:0:0:
113,127,31996,1,8,0:0:0:0:
113,127,32082,1,8,0:0:0:0:
113,127,32255,1,0,0:0:0:0:
113,127,32427,1,0,0:0:0:0:
113,127,32513,1,8,0:0:0:0:
113,127,32600,1,8,0:0:0:0:
113,127,32686,1,0,0:0:0:0:
113,127,32772,1,0,0:0:0:0:
113,127,32944,1,8,0:0:0:0:
113,127,33117,1,0,0:0:0:0:
113,127,33289,1,0,0:0:0:0:
113,127,33375,1,8,0:0:0:0:
113,127,33462,1,8,0:0:0:0:
113,127,33634,1,0,0:0:0:0:
113,127,33807,1,0,0:0:0:0:
113,127,33893,1,8,0:0:0:0:
113,127,33979,1,8,0:0:0:0:
113,127,34151,1,8,0:0:0:0:
113,127,34324,1,0,0:0:0:0:
113,127,34496,1,0,0:0:0:0:
113,127,34669,1,0,0:0:0:0:
113,127,34755,1,8,0:0:0:0:
113,127,34841,1,8,0:0:0:0:
113,127,35013,1,8,0:0:0:0:
113,127,35100,1,8,0:0:0:0:
113,127,35186,1,0,0:0:0:0:
113,127,35272,1,8,0:0:0:0:
113,127,35358,1,8,0:0:0:0:
113,127,35444,1,0,0:0:0:0:
113,127,35531,1,0,0:0:0:0:
113,127,35703,1,8,0:0:0:0:
113,127,35875,1,0,0:0:0:0:
113,127,35962,1,0,0:0:0:0:
113,127,36048,1,0,0:0:0:0:
113,127,36134,1,0,0:0:0:0:
113,127,36220,1,8,0:0:0:0:
113,127,36393,1,0,0:0:0:0:
113,127,36565,1,0,0:0:0:0:
113,127,36651,1,0,0:0:0:0:
113,127,36738,1,8,0:0:0:0:
113,127,36910,1,0,0:0:0:0:
113,127,37082,1,8,0:0:0:0:
113,127,37255,1,0,0:0:0:0:
113,127,37341,1,0,0:0:0:0:
113,127,37427,1,0,0:0:0:0:
113,127,37513,1,8,0:0:0:0:
113,127,37600,1,8,0:0:0:0:
113,127,37772,1,0,0:0:0:0:
113,127,37944,1,0,0:0:0:0:
113,127,38031,1,8,0:0:0:0:
113,127,38117,1,8,0:0:0:0:
113,127,38289,1,0,0:0:0:0:
113,127,38462,1,8,0:0:0:0:
113,127,38634,1,8,0:0:0:0:
113,127,38720,1,0,0:0:0:0:
113,127,38807,1,0,0:0:0:0:
113,127,38893,1,0,0:0:0:0:
113,127,38979,1,8,0:0:0:0:
113,127,39151,1,8,0:0:0:0:
113,127,39324,1,4,0:0:0:0:
113,127,40013,1,0,0:0:0:0:
113,127,40186,1,0,0:0:0:0:
113,127,40272,1,0,0:0:0:0:
113,127,40358,1,8,0:0:0:0:
113,127,40444,1,8,0:0:0:0:
113,127,40531,1,0,0:0:0:0:
113,127,40703,1,8,0:0:0:0:
113,127,40789,1,8,0:0:0:0:
113,127,40875,1,0,0:0:0:0:
113,127,40962,1,0,0:0:0:0:
113,127,41048,1,8,0:0:0:0:
113,127,41220,1,8,0:0:0:0:
113,127,41393,1,4,0:0:0:0:
113,127,41565,1,0,0:0:0:0:
113,127,41651,1,8,0:0:0:0:
113,127,41738,1,8,0:0:0:0:
113,127,41910,1,0,0:0:0:0:
113,127,41996,1,0,0:0:0:0:
113,127,42082,1,0,0:0:0:0:
113,127,42169,1,0,0:0:0:0:
113,127,42255,1,8,0:0:0:0:
113,127,42427,1,0,0:0:0:0:
113,127,42600,1,8,0:0:0:0:
113,127,42772,1,0,0:0:0:0:
113,127,42944,1,0,0:0:0:0:
113,127,43031,1,8,0:0:0:0:
113,127,43117,1,8,0:0:0:0:
113,127,43289,1,0,0:0:0:0:
113,127,43462,1,0,0:0:0:0:
113,127,43548,1,8,0:0:0:0:
113,127,43634,1,8,0:0:0:0:
113,127,43720,1,0,0:0:0:0:
113,127,43807,1,0,0:0:0:0:
113,127,43979,1,8,0:0:0:0:
113,127,44151,1,0,0:0:0:0:
113,127,44324,1,0,0:0:0:0:
113,127,44410,1,8,0:0:0:0:
113,127,44496,1,8,0:0:0:0:
113,127,44669,1,0,0:0:0:0:
113,127,44841,1,8,0:0:0:0:
113,127,45013,1,8,0:0:0:0:
113,127,45100,1,8,0:0:0:0:
113,127,45186,1,0,0:0:0:0:
113,127,45358,1,8,0:0:0:0:
113,127,45531,1,0,0:0:0:0:
113,127,45703,1,0,0:0:0:0:
113,127,45789,1,8,0:0:0:0:
113,127,45875,1,8,0:0:0:0:
113,127,46048,1,8,0:0:0:0:
113,127,46134,1,8,0:0:0:0:
113,127,46220,1,0,0:0:0:0:
113,127,46307,1,8,0:0:0:0:
113,127,46393,1,8,0:0:0:0:
113,127,46479,1,0,0:0:0:0:
113,127,46565,1,0,0:0:0:0:
113,127,46738,1,8,0:0:0:0:
113,127,46910,1,0,0:0:0:0:
113,127,46996,1,0,0:0:0:0:
113,127,47082,1,0,0:0:0:0:
113,127,47169,1,8,0:0:0:0:
113,127,47255,1,8,0:0:0:0:
113,127,47427,1,0,0:0:0:0:
113,127,47600,1,0,0:0:0:0:
113,127,47686,1,0,0:0:0:0:
113,127,47772,1,8,0:0:0:0:
113,127,47944,1,0,0:0:0:0:
113,127,48117,1,0,0:0:0:0:
113,127,48289,1,0,0:0:0:0:
113,127,48375,1,0,0:0:0:0:
113,127,48462,1,0,0:0:0:0:
113,127,48548,1,8,0:0:0:0:
113,127,48634,1,8,0:0:0:0:
113,127,48807,1,0,0:0:0:0:
113,127,48979,1,0,0:0:0:0:
113,127,49065,1,8,0:0:0:0:
113,127,49151,1,8,0:0:0:0:
113,127,49324,1,0,0:0:0:0:
113,127,49496,1,8,0:0:0:0:
113,127,49669,1,8,0:0:0:0:
113,127,49755,1,0,0:0:0:0:
113,127,49841,1,0,0:0:0:0:
113,127,49927,1,0,0:0:0:0:
113,127,50013,1,8,0:0:0:0:
113,127,50186,1,8,0:0:0:0:
113,127,50358,1,4,0:0:0:0:
113,127,51048,1,0,0:0:0:0:
113,127,51220,1,0,0:0:0:0:
113,127,51307,1,0,0:0:0:0:
113,127,51393,1,8,0:0:0:0:
113,127,51479,1,8,0:0:0:0:
113,127,51565,1,0,0:0:0:0:
113,127,51738,1,8,0:0:0:0:
113,127,51824,1,8,0:0:0:0:
113,127,51910,1,0,0:0:0:0:
113,127,51996,1,0,0:0:0:0:
113,127,52082,1,8,0:0:0:0:
113,127,52255,1,8,0:0:0:0:
113,127,52427,1,4,0:0:0:0:
113,127,52772,1,4,0:0:0:0:
113,127,53117,1,4,0:0:0:0:
113,127,53462,1,4,0:0:0:0:
113,127,53807,1,4,0:0:0:0:
113,127,55186,1,12,0:0:0:0:
113,127,55531,1,8,0:0:0:0:
113,127,55617,1,0,0:0:0:0:
113,127,55703,1,0,0:0:0:0:
113,127,55789,1,0,0:0:0:0:
113,127,55875,1,8,0:0:0:0:
113,127,56048,1,0,0:0:0:0:
113,127,56220,1,8,0:0:0:0:
113,127,56307,1,0,0:0:0:0:
113,127,56393,1,0,0:0:0:0:
113,127,56565,1,8,0:0:0:0:
113,127,56738,1,0,0:0:0:0:
113,127,56910,1,0,0:0:0:0:
113,127,56996,1,8,0:0:0:0:
113,127,57082,1,0,0:0:0:0:
113,127,57255,1,8,0:0:0:0:
113,127,57427,1,0,0:0:0:0:
113,127,57600,1,8,0:0:0:0:
113,127,57686,1,8,0:0:0:0:
113,127,57772,1,8,0:0:0:0:
113,127,57858,1,8,0:0:0:0:
113,127,57944,1,0,0:0:0:0:
113,127,58289,1,8,0:0:0:0:
113,127,58375,1,0,0:0:0:0:
113,127,58462,1,8,0:0:0:0:
113,127,58548,1,0,0:0:0:0:
113,127,58634,1,8,0:0:0:0:
113,127,58807,1,0,0:0:0:0:
113,127,58979,1,8,0:0:0:0:
113,127,59065,1,8,0:0:0:0:
113,127,59151,1,0,0:0:0:0:
113,127,59324,1,8,0:0:0:0:
113,127,59496,1,0,0:0:0:0:
113,127,59582,1,0,0:0:0:0:
113,127,59669,1,8,0:0:0:0:
113,127,59755,1,0,0:0:0:0:
113,127,59841,1,8,0:0:0:0:
113,127,59898,1,8,0:0:0:0:
113,127,59956,1,8,0:0:0:0:
113,127,60013,1,0,0:0:0:0:
113,127,60186,1,0,0:0:0:0:
113,127,60272,1,0,0:0:0:0:
113,127,60358,1,8,0:0:0:0:
113,127,60444,1,8,0:0:0:0:
113,127,60531,1,0,0:0:0:0:
113,127,60703,1,8,0:0:0:0:
113,127,61048,1,8,0:0:0:0:
113,127,61134,1,0,0:0:0:0:
113,127,61220,1,0,0:0:0:0:
113,127,61393,1,8,0:0:0:0:
113,127,61565,1,0,0:0:0:0:
113,127,61738,1,8,0:0:0:0:
113,127,61824,1,8,0:0:0:0:
113,127,61910,1,0,0:0:0:0:
113,127,61996,1,0,0:0:0:0:
113,127,62082,1,8,0:0:0:0:
113,127,62255,1,0,0:0:0:0:
113,127,62427,1,8,0:0:0:0:
113,127,62513,1,0,0:0:0:0:
113,127,62600,1,8,0:0:0:0:
113,127,62772,1,0,0:0:0:0:
113,127,62944,1,0,0:0:0:0:
113,127,63117,1,8,0:0:0:0:
113,127,63203,1,8,0:0:0:0:
113,127,63289,1,0,0:0:0:0:
113,127,63375,1,0,0:0:0:0:
113,127,63462,1,8,0:0:0:0:
113,127,63807,1,8,0:0:0:0:
113,127,63979,1,0,0:0:0:0:
113,127,64151,1,8,0:0:0:0:
113,127,64496,1,8,0:0:0:0:
113,127,64669,1,0,0:0:0:0:
113,127,64726,1,8,0:0:0:0:
113,127,64784,1,8,0:0:0:0:
113,127,64841,1,8,0:0:0:0:
113,127,65013,1,0,0:0:0:0:
113,127,65186,1,0,0:0:0:0:
113,127,65358,1,8,0:0:0:0:
113,127,65531,1,0,0:0:0:0:
113,127,65703,1,0,0:0:0:0:
113,127,65875,1,8,0:0:0:0:
113,127,66048,1,0,0:0:0:0:
113,127,66220,1,12,0:0:0:0:
113,127,66565,1,8,0:0:0:0:
113,127,66738,1,0,0:0:0:0:
113,127,66910,1,8,0:0:0:0:
113,127,66996,1,0,0:0:0:0:
113,127,67082,1,8,0:0:0:0:
113,127,67255,1,0,0:0:0:0:
113,127,67427,1,8,0:0:0:0:
113,127,67513,1,8,0:0:0:0:
113,127,67600,1,0,0:0:0:0:
113,127,67772,1,8,0:0:0:0:
113,127,67858,1,8,0:0:0:0:
113,127,67944,1,0,0:0:0:0:
113,127,68117,1,0,0:0:0:0:
113,127,68289,1,8,0:0:0:0:
113,127,68375,1,0,0:0:0:0:
113,127,68462,1,8,0:0:0:0:
113,127,68634,1,0,0:0:0:0:
113,127,68807,1,8,0:0:0:0:
113,127,68893,1,0,0:0:0:0:
113,127,68979,1,0,0:0:0:0:
113,127,69151,1,8,0:0:0:0:
113,127,69238,1,0,0:0:0:0:
113,127,69324,1,0,0:0:0:0:
113,127,69496,1,0,0:0:0:0:
113,127,69669,1,8,0:0:0:0:
113,127,69755,1,8,0:0:0:0:
113,127,69841,1,0,0:0:0:0:
113,127,70013,1,8,0:0:0:0:
113,127,70186,1,0,0:0:0:0:
113,127,70358,1,8,0:0:0:0:
113,127,70444,1,0,0:0:0:0:
113,127,70531,1,0,0:0:0:0:
113,127,70617,1,0,0:0:0:0:
113,127,70703,1,8,0:0:0:0:
113,127,70875,1,0,0:0:0:0:
113,127,71048,1,8,0:0:0:0:
113,127,71134,1,8,0:0:0:0:
113,127,71220,1,0,0:0:0:0:
113,127,71393,1,8,0:0:0:0:
113,127,71565,1,0,0:0:0:0:
113,127,71738,1,0,0:0:0:0:
113,127,71910,1,8,0:0:0:0:
113,127,72082,1,8,0:0:0:0:
113,127,72255,1,0,0:0:0:0:
113,127,72427,1,0,0:0:0:0:
113,127,72600,1,8,0:0:0:0:
113,127,72772,1,8,0:0:0:0:
113,127,72944,1,0,0:0:0:0:
113,127,73117,1,0,0:0:0:0:
113,127,73634,1,0,0:0:0:0:
113,127,73807,1,8,0:0:0:0:
113,127,73893,1,8,0:0:0:0:
113,127,73979,1,0,0:0:0:0:
113,127,74151,1,8,0:0:0:0:
113,127,74324,1,8,0:0:0:0:
113,127,74496,1,4,0:0:0:0:
113,127,74841,1,8,0:0:0:0:
113,127,75013,1,8,0:0:0:0:
113,127,75186,1,8,0:0:0:0:
113,127,75272,1,0,0:0:0:0:
113,127,75358,1,8,0:0:0:0:
113,127,75531,1,0,0:0:0:0:
113,127,75703,1,8,0:0:0:0:
113,127,75789,1,8,0:0:0:0:
113,127,75875,1,0,0:0:0:0:
113,127,76048,1,8,0:0:0:0:
113,127,76134,1,8,0:0:0:0:
113,127,76220,1,0,0:0:0:0:
113,127,76393,1,0,0:0:0:0:
113,127,76565,1,8,0:0:0:0:
113,127,76651,1,0,0:0:0:0:
113,127,76738,1,8,0:0:0:0:
113,127,76910,1,0,0:0:0:0:
113,127,77082,1,8,0:0:0:0:
113,127,77169,1,0,0:0:0:0:
113,127,77255,1,0,0:0:0:0:
113,127,77427,1,8,0:0:0:0:
113,127,77513,1,0,0:0:0:0:
113,127,77600,1,0,0:0:0:0:
113,127,77772,1,0,0:0:0:0:
113,127,77944,1,8,0:0:0:0:
113,127,78031,1,0,0:0:0:0:
113,127,78117,1,8,0:0:0:0:
113,127,78289,1,8,0:0:0:0:
113,127,78462,1,0,0:0:0:0:
113,127,78634,1,8,0:0:0:0:
113,127,78720,1,0,0:0:0:0:
113,127,78807,1,0,0:0:0:0:
113,127,78893,1,0,0:0:0:0:
113,127,78979,1,8,0:0:0:0:
113,127,79151,1,0,0:0:0:0:
113,127,79324,1,8,0:0:0:0:
113,127,79410,1,8,0:0:0:0:
113,127,79496,1,0,0:0:0:0:
113,127,79669,1,8,0:0:0:0:
113,127,79841,1,8,0:0:0:0:
113,127,80013,1,0,0:0:0:0:
113,127,80531,1,0,0:0:0:0:
113,127,81048,1,0,0:0:0:0:
113,127,81393,1,0,0:0:0:0:
113,127,82772,1,4,0:0:0:0:
113,127,82944,1,0,0:0:0:0:
113,127,83117,1,8,0:0:0:0:
113,127,83289,1,0,0:0:0:0:
113,127,83462,1,8,0:0:0:0:
113,127,83548,1,8,0:0:0:0:
113,127,83634,1,8,0:0:0:0:
113,127,83807,1,0,0:0:0:0:
113,127,83979,1,8,0:0:0:0:
113,127,84065,1,8,0:0:0:0:
113,127,84151,1,0,0:0:0:0:
113,127,84324,1,8,0:0:0:0:
113,127,84410,1,8,0:0:0:0:
113,127,84496,1,0,0:0:0:0:
113,127,84669,1,8,0:0:0:0:
113,127,84841,1,0,0:0:0:0:
113,127,85013,1,0,0:0:0:0:
113,127,85186,1,8,0:0:0:0:
113,127,85358,1,0,0:0:0:0:
113,127,85444,1,8,0:0:0:0:
113,127,85531,1,8,0:0:0:0:
113,127,85703,1,0,0:0:0:0:
113,127,85875,1,8,0:0:0:0:
113,127,86048,1,0,0:0:0:0:
113,127,86134,1,8,0:0:0:0:
113,127,86220,1,8,0:0:0:0:
113,127,86393,1,0,0:0:0:0:
113,127,86565,1,0,0:0:0:0:
113,127,86738,1,8,0:0:0:0:
113,127,86824,1,8,0:0:0:0:
113,127,86910,1,0,0:0:0:0:
113,127,87082,1,8,0:0:0:0:
113,127,87169,1,8,0:0:0:0:
113,127,87255,1,0,0:0:0:0:
113,127,87427,1,8,0:0:0:0:
113,127,87513,1,8,0:0:0:0:
113,127,87600,1,0,0:0:0:0:
113,127,87686,1,0,0:0:0:0:
113,127,87772,1,8,0:0:0:0:
113,127,87858,1,0,0:0:0:0:
113,127,87944,1,8,0:0:0:0:
113,127,88117,1,8,0:0:0:0:
113,127,88203,1,8,0:0:0:0:
113,127,88289,1,0,0:0:0:0:
113,127,88462,1,0,0:0:0:0:
113,127,88548,1,0,0:0:0:0:
113,127,88634,1,8,0:0:0:0:
113,127,88807,1,8,0:0:0:0:
113,127,88979,1,0,0:0:0:0:
113,127,89065,1,0,0:0:0:0:
113,127,89151,1,0,0:0:0:0:
113,127,89324,1,8,0:0:0:0:
113,127,89669,1,0,0:0:0:0:
113,127,89841,1,0,0:0:0:0:
113,127,90013,1,8,0:0:0:0:
113,127,90100,1,8,0:0:0:0:
113,127,90186,1,8,0:0:0:0:
113,127,90358,1,0,0:0:0:0:
113,127,90531,1,0,0:0:0:0:
113,127,90703,1,8,0:0:0:0:
113,127,91048,1,0,0:0:0:0:
113,127,91220,1,0,0:0:0:0:
113,127,91393,1,8,0:0:0:0:
113,127,91479,1,8,0:0:0:0:
113,127,91565,1,8,0:0:0:0:
113,127,91738,1,4,0:0:0:0:
113,127,92427,1,0,0:0:0:0:
113,127,92600,1,0,0:0:0:0:
113,127,92686,1,0,0:0:0:0:
113,127,92772,1,8,0:0:0:0:
113,127,92858,1,8,0:0:0:0:
113,127,92944,1,0,0:0:0:0:
113,127,93117,1,8,0:0:0:0:
113,127,93203,1,8,0:0:0:0:
113,127,93289,1,0,0:0:0:0:
113,127,93375,1,0,0:0:0:0:
113,127,93462,1,8,0:0:0:0:
113,127,93634,1,8,0:0:0:0:
113,127,93807,1,4,0:0:0:0:
113,127,93979,1,0,0:0:0:0:
113,127,94151,1,8,0:0:0:0:
113,127,94324,1,0,0:0:0:0:
113,127,94496,1,8,0:0:0:0:
113,127,94582,1,8,0:0:0:0:
113,127,94669,1,8,0:0:0:0:
113,127,94841,1,0,0:0:0:0:
113,127,95013,1,8,0:0:0:0:
113,127,95100,1,8,0:0:0:0:
113,127,95186,1,0,0:0:0:0:
113,127,95358,1,8,0:0:0:0:
113,127,95444,1,8,0:0:0:0:
113,127,95531,1,0,0:0:0:0:
113,127,95703,1,8,0:0:0:0:
113,127,95875,1,8,0:0:0:0:
113,127,96048,1,0,0:0:0:0:
113,127,96220,1,0,0:0:0:0:
113,127,96393,1,0,0:0:0:0:
113,127,96479,1,8,0:0:0:0:
113,127,96565,1,8,0:0:0:0:
113,127,96738,1,8,0:0:0:0:
113,127,96910,1,8,0:0:0:0:
113,127,97082,1,0,0:0:0:0:
113,127,97169,1,8,0:0:0:0:
113,127,97255,1,8,0:0:0:0:
113,127,97427,1,8,0:0:0:0:
113,127,97600,1,8,0:0:0:0:
113,127,97772,1,0,0:0:0:0:
113,127,97858,1,0,0:0:0:0:
113,127,97944,1,8,0:0:0:0:
113,127,98117,1,0,0:0:0:0:
113,127,98203,1,0,0:0:0:0:
113,127,98289,1,8,0:0:0:0:
113,127,98462,1,8,0:0:0:0:
113,127,98548,1,8,0:0:0:0:
113,127,98634,1,0,0:0:0:0:
113,127,98720,1,0,0:0:0:0:
113,127,98807,1,8,0:0:0:0:
113,127,98893,1,0,0:0:0:0:
113,127,98979,1,8,0:0:0:0:
113,127,99151,1,8,0:0:0:0:
113,127,99324,1,8,0:0:0:0:
113,127,99410,1,8,0:0:0:0:
113,127,99496,1,0,0:0:0:0:
113,127,99582,1,0,0:0:0:0:
113,127,99669,1,8,0:0:0:0:
113,127,99755,1,8,0:0:0:0:
113,127,99841,1,0,0:0:0:0:
113,127,99927,1,0,0:0:0:0:
113,127,100013,1,8,0:0:0:0:
113,127,100100,1,8,0:0:0:0:
113,127,100186,1,0,0:0:0:0:
113,127,100272,1,0,0:0:0:0:
113,127,100358,1,8,0:0:0:0:
113,127,100444,1,8,0:0:0:0:
113,127,100531,1,0,0:0:0:0:
113,127,100617,1,0,0:0:0:0:
113,127,100703,1,8,0:0:0:0:
113,127,100789,1,8,0:0:0:0:
113,127,100875,1,0,0:0:0:0:
113,127,100962,1,0,0:0:0:0:
113,127,101048,1,8,0:0:0:0:
113,127,101134,1,8,0:0:0:0:
113,127,101220,1,0,0:0:0:0:
113,127,101307,1,0,0:0:0:0:
113,127,101393,1,8,0:0:0:0:
113,127,101479,1,8,0:0:0:0:
113,127,101565,1,0,0:0:0:0:
113,127,101651,1,0,0:0:0:0:
113,127,101738,1,8,0:0:0:0:
113,127,101824,1,8,0:0:0:0:
113,127,101910,1,0,0:0:0:0:
113,127,101996,1,0,0:0:0:0:
113,127,102082,1,8,0:0:0:0:
113,127,102169,1,0,0:0:0:0:
113,127,102255,1,8,0:0:0:0:
113,127,102341,1,0,0:0:0:0:
113,127,102427,1,8,0:0:0:0:
113,127,102513,1,8,0:0:0:0:
113,127,102600,1,0,0:0:0:0:
113,127,102686,1,0,0:0:0:0:
113,127,102772,1,8,0:0:0:0:
113,127,102858,1,0,0:0:0:0:
113,127,102944,1,8,0:0:0:0:
113,127,103031,1,0,0:0:0:0:
113,127,103117,1,8,0:0:0:0:
113,127,103203,1,8,0:0:0:0:
113,127,103289,1,0,0:0:0:0:
113,127,103375,1,0,0:0:0:0:
113,127,103462,1,8,0:0:0:0:
113,127,104841,1,4,0:0:0:0:
113,127,105186,1,0,0:0:0:0:
113,127,105358,1,8,0:0:0:0:
113,127,105444,1,8,0:0:0:0:
113,127,105531,1,0,0:0:0:0:
113,127,105703,1,8,0:0:0:0:
113,127,105789,1,8,0:0:0:0:
113,127,105875,1,0,0:0:0:0:
113,127,106048,1,8,0:0:0:0:
113,127,106220,1,0,0:0:0:0:
113,127,106393,1,0,0:0:0:0:
113,127,106738,1,8,0:0:0:0:
113,127,106910,1,0,0:0:0:0:
113,127,106996,1,0,0:0:0:0:
113,127,107082,1,0,0:0:0:0:
113,127,107255,1,0,0:0:0:0:
113,127,107600,1,8,0:0:0:0:
113,127,107944,1,8,0:0:0:0:
113,127,108117,1,0,0:0:0:0:
113,127,108203,1,8,0:0:0:0:
113,127,108289,1,8,0:0:0:0:
113,127,108462,1,0,0:0:0:0:
113,127,108548,1,8,0:0:0:0:
113,127,108634,1,8,0:0:0:0:
113,127,108807,1,8,0:0:0:0:
113,127,108979,1,0,0:0:0:0:
113,127,109151,1,8,0:0:0:0:
113,127,109496,1,8,0:0:0:0:
113,127,109669,1,0,0:0:0:0:
113,127,109755,1,0,0:0:0:0:
113,127,109841,1,0,0:0:0:0:
113,127,110013,1,0,0:0:0:0:
113,127,110358,1,8,0:0:0:0:
113,127,110703,1,0,0:0:0:0:
113,127,110875,1,8,0:0:0:0:
113,127,110962,1,8,0:0:0:0:
113,127,111048,1,0,0:0:0:0:
113,127,111220,1,8,0:0:0:0:
113,127,111307,1,8,0:0:0:0:
113,127,111393,1,0,0:0:0:0:
113,127,111565,1,8,0:0:0:0:
113,127,111738,1,0,0:0:0:0:
113,127,111910,1,0,0:0:0:0:
113,127,112255,1,8,0:0:0:0:
113,127,112427,1,0,0:0:0:0:
113,127,112513,1,0,0:0:0:0:
113,127,112600,1,0,0:0:0:0:
113,127,112772,1,0,0:0:0:0:
113,127,113117,1,8,0:0:0:0:
113,127,113462,1,0,0:0:0:0:
113,127,113634,1,8,0:0:0:0:
113,127,113720,1,8,0:0:0:0:
113,127,113807,1,0,0:0:0:0:
113,127,113979,1,8,0:0:0:0:
113,127,114065,1,8,0:0:0:0:
113,127,114151,1,0,0:0:0:0:
113,127,114324,1,0,0:0:0:0:
113,127,114496,1,8,0:0:0:0:
113,127,115875,1,4,0:0:0:0:
113,127,116220,1,0,0:0:0:0:
113,127,116393,1,8,0:0:0:0:
113,127,116479,1,8,0:0:0:0:
113,127,116565,1,0,0:0:0:0:
113,127,116738,1,8,0:0:0:0:
113,127,116824,1,8,0:0:0:0:
113,127,116910,1,0,0:0:0:0:
113,127,117082,1,8,0:0:0:0:
113,127,117255,1,0,0:0:0:0:
113,127,117427,1,0,0:0:0:0:
113,127,117772,1,8,0:0:0:0:
113,127,117944,1,0,0:0:0:0:
113,127,118031,1,0,0:0:0:0:
113,127,118117,1,0,0:0:0:0:
113,127,118289,1,0,0:0:0:0:
113,127,118634,1,8,0:0:0:0:
113,127,118979,1,8,0:0:0:0:
113,127,119151,1,0,0:0:0:0:
113,127,119238,1,8,0:0:0:0:
113,127,119324,1,8,0:0:0:0:
113,127,119496,1,0,0:0:0:0:
113,127,119582,1,8,0:0:0:0:
113,127,119669,1,8,0:0:0:0:
113,127,119841,1,8,0:0:0:0:
113,127,120013,1,0,0:0:0:0:
113,127,120186,1,8,0:0:0:0:
113,127,120531,1,8,0:0:0:0:
113,127,120703,1,0,0:0:0:0:
113,127,120789,1,0,0:0:0:0:
113,127,120875,1,0,0:0:0:0:
113,127,121048,1,0,0:0:0:0:
113,127,121393,1,8,0:0:0:0:
113,127,121738,1,0,0:0:0:0:
113,127,121910,1,8,0:0:0:0:
113,127,121996,1,8,0:0:0:0:
113,127,122082,1,0,0:0:0:0:
113,127,122255,1,8,0:0:0:0:
113,127,122341,1,8,0:0:0:0:
113,127,122427,1,0,0:0:0:0:
113,127,122600,1,8,0:0:0:0:
113,127,122772,1,0,0:0:0:0:
113,127,122944,1,0,0:0:0:0:
113,127,123289,1,8,0:0:0:0:
113,127,123462,1,0,0:0:0:0:
113,127,123548,1,0,0:0:0:0:
113,127,123634,1,0,0:0:0:0:
113,127,123807,1,0,0:0:0:0:
113,127,124151,1,8,0:0:0:0:
113,127,124496,1,0,0:0:0:0:
113,127,124669,1,8,0:0:0:0:
113,127,124755,1,8,0:0:0:0:
113,127,124841,1,0,0:0:0:0:
113,127,125013,1,8,0:0:0:0:
113,127,125100,1,8,0:0:0:0:
113,127,125186,1,0,0:0:0:0:
113,127,125358,1,0,0:0:0:0:
113,127,125531,1,8,0:0:0:0:
113,127,126910,1,4,0:0:0:0:
113,127,127255,1,0,0:0:0:0:
113,127,127427,1,0,0:0:0:0:
113,127,127600,1,8,0:0:0:0:
113,127,127686,1,8,0:0:0:0:
113,127,127772,1,8,0:0:0:0:
113,127,127944,1,8,0:0:0:0:
113,127,128117,1,8,0:0:0:0:
113,127,128289,1,0,0:0:0:0:
113,127,128462,1,8,0:0:0:0:
113,127,128634,1,0,0:0:0:0:
113,127,128807,1,8,0:0:0:0:
113,127,128893,1,8,0:0:0:0:
113,127,128979,1,0,0:0:0:0:
113,127,129151,1,8,0:0:0:0:
113,127,129238,1,8,0:0:0:0:
113,127,129324,1,0,0:0:0:0:
113,127,129496,1,0,0:0:0:0:
113,127,129669,1,8,0:0:0:0:
113,127,130013,1,8,0:0:0:0:
113,127,130186,1,0,0:0:0:0:
113,127,130358,1,8,0:0:0:0:
113,127,130444,1,8,0:0:0:0:
113,127,130531,1,8,0:0:0:0:
113,127,130703,1,8,0:0:0:0:
113,127,130875,1,8,0:0:0:0:
113,127,131048,1,0,0:0:0:0:
113,127,131220,1,8,0:0:0:0:
113,127,131393,1,8,0:0:0:0:
113,127,131565,1,0,0:0:0:0:
113,127,131651,1,8,0:0:0:0:
113,127,131738,1,8,0:0:0:0:
113,127,131910,1,0,0:0:0:0:
113,127,131996,1,8,0:0:0:0:
113,127,132082,1,8,0:0:0:0:
113,127,132255,1,0,0:0:0:0:
113,127,132427,1,8,0:0:0:0:
113,127,132772,1,0,0:0:0:0:
113,127,132944,1,0,0:0:0:0:
113,127,133117,1,8,0:0:0:0:
113,127,133203,1,8,0:0:0:0:
113,127,133289,1,8,0:0:0:0:
113,127,133462,1,8,0:0:0:0:
113,127,133634,1,8,0:0:0:0:
113,127,133807,1,0,0:0:0:0:
113,127,133979,1,8,0:0:0:0:
113,127,134151,1,0,0:0:0:0:
113,127,134324,1,8,0:0:0:0:
113,127,134410,1,8,0:0:0:0:
113,127,134496,1,0,0:0:0:0:
113,127,134669,1,8,0:0:0:0:
113,127,134755,1,8,0:0:0:0:
113,127,134841,1,0,0:0:0:0:
113,127,135013,1,0,0:0:0:0:
113,127,135186,1,8,0:0:0:0:
113,127,135531,1,0,0:0:0:0:
113,127,135703,1,8,0:0:0:0:
113,127,135875,1,0,0:0:0:0:
113,127,136048,1,8,0:0:0:0:
113,127,136393,1,0,0:0:0:0:
113,127,136565,1,8,0:0:0:0:
113,127,137944,1,4,0:0:0:0:
113,127,138289,1,0,0:0:0:0:
113,127,138462,1,0,0:0:0:0:
113,127,138634,1,8,0:0:0:0:
113,127,138720,1,8,0:0:0:0:
113,127,138807,1,8,0:0:0:0:
113,127,138979,1,8,0:0:0:0:
113,127,139151,1,8,0:0:0:0:
113,127,139324,1,0,0:0:0:0:
113,127,139496,1,8,0:0:0:0:
113,127,139669,1,0,0:0:0:0:
113,127,139841,1,8,0:0:0:0:
113,127,139927,1,8,0:0:0:0:
113,127,140013,1,0,0:0:0:0:
113,127,140186,1,8,0:0:0:0:
113,127,140272,1,8,0:0:0:0:
113,127,140358,1,0,0:0:0:0:
113,127,140531,1,0,0:0:0:0:
113,127,140703,1,8,0:0:0:0:
113,127,141048,1,8,0:0:0:0:
113,127,141220,1,0,0:0:0:0:
113,127,141393,1,8,0:0:0:0:
113,127,141479,1,8,0:0:0:0:
113,127,141565,1,8,0:0:0:0:
113,127,141738,1,8,0:0:0:0:
113,127,141910,1,8,0:0:0:0:
113,127,142082,1,0,0:0:0:0:
113,127,142255,1,8,0:0:0:0:
113,127,142427,1,8,0:0:0:0:
113,127,142600,1,0,0:0:0:0:
113,127,142686,1,8,0:0:0:0:
113,127,142772,1,8,0:0:0:0:
113,127,142944,1,0,0:0:0:0:
113,127,143031,1,8,0:0:0:0:
113,127,143117,1,8,0:0:0:0:
113,127,143289,1,0,0:0:0:0:
113,127,143462,1,8,0:0:0:0:
113,127,143807,1,0,0:0:0:0:
113,127,143979,1,0,0:0:0:0:
113,127,144151,1,8,0:0:0:0:
113,127,144238,1,8,0:0:0:0:
113,127,144324,1,8,0:0:0:0:
113,127,144496,1,8,0:0:0:0:
113,127,144669,1,8,0:0:0:0:
113,127,144841,1,0,0:0:0:0:
113,127,145013,1,8,0:0:0:0:
113,127,145186,1,0,0:0:0:0:
113,127,145358,1,8,0:0:0:0:
113,127,145444,1,8,0:0:0:0:
113,127,145531,1,0,0:0:0:0:
113,127,145703,1,8,0:0:0:0:
113,127,145789,1,8,0:0:0:0:
113,127,145875,1,0,0:0:0:0:
113,127,146048,1,0,0:0:0:0:
113,127,146220,1,8,0:0:0:0:
113,127,146565,1,0,0:0:0:0:
113,127,146738,1,8,0:0:0:0:
113,127,146910,1,0,0:0:0:0:
113,127,147082,1,8,0:0:0:0:
113,127,147427,1,0,0:0:0:0:
113,127,147600,1,8,0:0:0:0:
113,127,148979,1,0,0:0:0:0:
113,127,149669,1,8,0:0:0:0:
113,127,150186,1,8,0:0:0:0:
113,127,150531,1,0,0:0:0:0:
113,127,150875,1,8,0:0:0:0:
113,127,151220,1,0,0:0:0:0:
113,127,151738,1,8,0:0:0:0:
113,127,152427,1,8,0:0:0:0:
113,127,153117,1,8,0:0:0:0:
113,127,154496,1,0,0:0:0:0:
113,127,155013,1,8,0:0:0:0:
113,127,155358,1,0,0:0:0:0:
113,127,155703,1,8,0:0:0:0:
113,127,156048,1,0,0:0:0:0:
113,127,156565,1,0,0:0:0:0:
113,127,157255,1,8,0:0:0:0:
113,127,157772,1,0,0:0:0:0:
113,127,158117,1,8,0:0:0:0:
113,127,158634,1,8,0:0:0:0:
174,158,160013,1,8,0:0:0:0:
174,158,160703,1,0,0:0:0:0:
174,158,161220,1,8,0:0:0:0:
174,158,161565,1,0,0:0:0:0:
174,158,161910,1,8,0:0:0:0:
174,158,162255,1,0,0:0:0:0:
174,158,162772,1,8,0:0:0:0:
174,158,163289,1,0,0:0:0:0:
174,158,163634,1,0,0:0:0:0:
174,158,164151,1,8,0:0:0:0:
174,158,164669,1,8,0:0:0:0:
174,158,165531,1,0,0:0:0:0:
174,158,166220,1,0,0:0:0:0:
174,158,166910,1,0,0:0:0:0:
174,158,167600,1,0,0:0:0:0:
174,158,168289,1,8,0:0:0:0:
174,158,168979,1,8,0:0:0:0:
174,158,169324,1,8,0:0:0:0:
174,158,170013,1,0,0:0:0:0:
113,127,171048,1,12,0:0:0:0:
113,127,171220,1,0,0:0:0:0:
113,127,171393,1,8,0:0:0:0:
113,127,171565,1,0,0:0:0:0:
113,127,171738,1,8,0:0:0:0:
113,127,171824,1,0,0:0:0:0:
113,127,171910,1,8,0:0:0:0:
113,127,172082,1,0,0:0:0:0:
113,127,172255,1,8,0:0:0:0:
113,127,172341,1,8,0:0:0:0:
113,127,172427,1,0,0:0:0:0:
113,127,172600,1,8,0:0:0:0:
113,127,172686,1,8,0:0:0:0:
113,127,172772,1,0,0:0:0:0:
113,127,172944,1,0,0:0:0:0:
113,127,173117,1,8,0:0:0:0:
113,127,173203,1,0,0:0:0:0:
113,127,173289,1,8,0:0:0:0:
113,127,173462,1,0,0:0:0:0:
113,127,173634,1,8,0:0:0:0:
113,127,173720,1,0,0:0:0:0:
113,127,173807,1,0,0:0:0:0:
113,127,173979,1,8,0:0:0:0:
113,127,174065,1,0,0:0:0:0:
113,127,174151,1,0,0:0:0:0:
113,127,174324,1,0,0:0:0:0:
113,127,174496,1,8,0:0:0:0:
113,127,174582,1,0,0:0:0:0:
113,127,174669,1,8,0:0:0:0:
113,127,174841,1,8,0:0:0:0:
113,127,175013,1,0,0:0:0:0:
113,127,175186,1,8,0:0:0:0:
113,127,175272,1,0,0:0:0:0:
113,127,175358,1,0,0:0:0:0:
113,127,175444,1,0,0:0:0:0:
113,127,175531,1,8,0:0:0:0:
113,127,175703,1,0,0:0:0:0:
113,127,175875,1,8,0:0:0:0:
113,127,176048,1,0,0:0:0:0:
113,127,176220,1,8,0:0:0:0:
113,127,176393,1,0,0:0:0:0:
113,127,176565,1,0,0:0:0:0:
113,127,176738,1,8,0:0:0:0:
113,127,176910,1,8,0:0:0:0:
113,127,177082,1,0,0:0:0:0:
113,127,177255,1,0,0:0:0:0:
113,127,177427,1,8,0:0:0:0:
113,127,177600,1,8,0:0:0:0:
113,127,177772,1,0,0:0:0:0:
113,127,177944,1,0,0:0:0:0:
113,127,178462,1,0,0:0:0:0:
113,127,178634,1,8,0:0:0:0:
113,127,178720,1,8,0:0:0:0:
113,127,178807,1,0,0:0:0:0:
113,127,178979,1,8,0:0:0:0:
113,127,179151,1,8,0:0:0:0:
113,127,179324,1,4,0:0:0:0:
113,127,179496,1,0,0:0:0:0:
113,127,179669,1,8,0:0:0:0:
113,127,179841,1,0,0:0:0:0:
113,127,180013,1,8,0:0:0:0:
113,127,180100,1,0,0:0:0:0:
113,127,180186,1,8,0:0:0:0:
113,127,180358,1,0,0:0:0:0:
113,127,180531,1,8,0:0:0:0:
113,127,180617,1,8,0:0:0:0:
113,127,180703,1,0,0:0:0:0:
113,127,180875,1,8,0:0:0:0:
113,127,180962,1,8,0:0:0:0:
113,127,181048,1,0,0:0:0:0:
113,127,181220,1,0,0:0:0:0:
113,127,181393,1,8,0:0:0:0:
113,127,181479,1,0,0:0:0:0:
113,127,181565,1,8,0:0:0:0:
113,127,181738,1,8,0:0:0:0:
113,127,181910,1,8,0:0:0:0:
113,127,181996,1,0,0:0:0:0:
113,127,182082,1,0,0:0:0:0:
113,127,182255,1,8,0:0:0:0:
113,127,182341,1,0,0:0:0:0:
113,127,182427,1,0,0:0:0:0:
113,127,182600,1,0,0:0:0:0:
113,127,182772,1,8,0:0:0:0:
113,127,182858,1,8,0:0:0:0:
113,127,182944,1,0,0:0:0:0:
113,127,183117,1,8,0:0:0:0:
113,127,183289,1,0,0:0:0:0:
113,127,183462,1,8,0:0:0:0:
113,127,183548,1,0,0:0:0:0:
113,127,183634,1,8,0:0:0:0:
113,127,183720,1,0,0:0:0:0:
113,127,183807,1,8,0:0:0:0:
113,127,183979,1,0,0:0:0:0:
113,127,184151,1,8,0:0:0:0:
113,127,184324,1,8,0:0:0:0:
113,127,184496,1,0,0:0:0:0:
113,127,184669,1,8,0:0:0:0:
113,127,184841,1,0,0:0:0:0:
113,127,185358,1,0,0:0:0:0:
113,127,185875,1,0,0:0:0:0:
113,127,186220,1,0,0:0:0:0:
113,127,187600,1,12,0:0:0:0:
113,127,187772,1,0,0:0:0:0:
113,127,187858,1,8,0:0:0:0:
113,127,187944,1,8,0:0:0:0:
113,127,188117,1,0,0:0:0:0:
113,127,188203,1,0,0:0:0:0:
113,127,188289,1,0,0:0:0:0:
113,127,188375,1,0,0:0:0:0:
113,127,188462,1,8,0:0:0:0:
113,127,188634,1,8,0:0:0:0:
113,127,188807,1,0,0:0:0:0:
113,127,188979,1,8,0:0:0:0:
113,127,189151,1,0,0:0:0:0:
113,127,189238,1,8,0:0:0:0:
113,127,189324,1,8,0:0:0:0:
113,127,189496,1,0,0:0:0:0:
113,127,189669,1,0,0:0:0:0:
113,127,189755,1,8,0:0:0:0:
113,127,189841,1,8,0:0:0:0:
113,127,189927,1,0,0:0:0:0:
113,127,190013,1,0,0:0:0:0:
113,127,190186,1,8,0:0:0:0:
113,127,190358,1,0,0:0:0:0:
113,127,190531,1,0,0:0:0:0:
113,127,190617,1,8,0:0:0:0:
113,127,190703,1,8,0:0:0:0:
113,127,190875,1,0,0:0:0:0:
113,127,191048,1,8,0:0:0:0:
113,127,191220,1,8,0:0:0:0:
113,127,191307,1,8,0:0:0:0:
113,127,191393,1,0,0:0:0:0:
113,127,191479,1,0,0:0:0:0:
113,127,191565,1,8,0:0:0:0:
113,127,191738,1,0,0:0:0:0:
113,127,191910,1,0,0:0:0:0:
113,127,191996,1,8,0:0:0:0:
113,127,192082,1,8,0:0:0:0:
113,127,192255,1,8,0:0:0:0:
113,127,192341,1,8,0:0:0:0:
113,127,192427,1,0,0:0:0:0:
113,127,192513,1,8,0:0:0:0:
113,127,192600,1,8,0:0:0:0:
113,127,192686,1,0,0:0:0:0:
113,127,192772,1,0,0:0:0:0:
113,127,192944,1,8,0:0:0:0:
113,127,193117,1,8,0:0:0:0:
113,127,193203,1,0,0:0:0:0:
113,127,193289,1,0,0:0:0:0:
113,127,193375,1,8,0:0:0:0:
113,127,193462,1,8,0:0:0:0:
113,127,193634,1,0,0:0:0:0:
113,127,193807,1,0,0:0:0:0:
113,127,193893,1,0,0:0:0:0:
113,127,193979,1,8,0:0:0:0:
113,127,194151,1,0,0:0:0:0:
113,127,194324,1,8,0:0:0:0:
113,127,194496,1,0,0:0:0:0:
113,127,194582,1,0,0:0:0:0:
113,127,194669,1,0,0:0:0:0:
113,127,194755,1,8,0:0:0:0:
113,127,194841,1,8,0:0:0:0:
113,127,195013,1,0,0:0:0:0:
113,127,195186,1,0,0:0:0:0:
113,127,195272,1,8,0:0:0:0:
113,127,195358,1,8,0:0:0:0:
113,127,195531,1,0,0:0:0:0:
113,127,195703,1,8,0:0:0:0:
113,127,195875,1,8,0:0:0:0:
113,127,195962,1,0,0:0:0:0:
113,127,196048,1,0,0:0:0:0:
113,127,196134,1,8,0:0:0:0:
113,127,196220,1,8,0:0:0:0:
113,127,196393,1,8,0:0:0:0:
113,127,196565,1,4,0:0:0:0:
113,127,197255,1,0,0:0:0:0:
113,127,197427,1,0,0:0:0:0:
113,127,197513,1,0,0:0:0:0:
113,127,197600,1,8,0:0:0:0:
113,127,197686,1,8,0:0:0:0:
113,127,197772,1,0,0:0:0:0:
113,127,197944,1,8,0:0:0:0:
113,127,198031,1,8,0:0:0:0:
113,127,198117,1,0,0:0:0:0:
113,127,198203,1,0,0:0:0:0:
113,127,198289,1,8,0:0:0:0:
113,127,198462,1,8,0:0:0:0:
113,127,198634,1,4,0:0:0:0:
113,127,198807,1,0,0:0:0:0:
113,127,198893,1,8,0:0:0:0:
113,127,198979,1,8,0:0:0:0:
113,127,199151,1,0,0:0:0:0:
113,127,199238,1,0,0:0:0:0:
113,127,199324,1,0,0:0:0:0:
113,127,199410,1,0,0:0:0:0:
113,127,199496,1,8,0:0:0:0:
113,127,199669,1,0,0:0:0:0:
113,127,199841,1,8,0:0:0:0:
113,127,200013,1,0,0:0:0:0:
113,127,200186,1,0,0:0:0:0:
113,127,200272,1,8,0:0:0:0:
113,127,200358,1,8,0:0:0:0:
113,127,200531,1,0,0:0:0:0:
113,127,200703,1,0,0:0:0:0:
113,127,200789,1,8,0:0:0:0:
113,127,200875,1,8,0:0:0:0:
113,127,200962,1,0,0:0:0:0:
113,127,201048,1,0,0:0:0:0:
113,127,201220,1,8,0:0:0:0:
113,127,201393,1,0,0:0:0:0:
113,127,201565,1,0,0:0:0:0:
113,127,201651,1,8,0:0:0:0:
113,127,201738,1,8,0:0:0:0:
113,127,201910,1,0,0:0:0:0:
113,127,202082,1,8,0:0:0:0:
113,127,202255,1,8,0:0:0:0:
113,127,202341,1,0,0:0:0:0:
113,127,202427,1,0,0:0:0:0:
113,127,202600,1,8,0:0:0:0:
113,127,202772,1,0,0:0:0:0:
113,127,202944,1,0,0:0:0:0:
113,127,203031,1,8,0:0:0:0:
113,127,203117,1,8,0:0:0:0:
113,127,203289,1,0,0:0:0:0:
113,127,203375,1,8,0:0:0:0:
113,127,203462,1,0,0:0:0:0:
113,127,203548,1,8,0:0:0:0:
113,127,203634,1,8,0:0:0:0:
113,127,203720,1,0,0:0:0:0:
113,127,203807,1,0,0:0:0:0:
113,127,203979,1,8,0:0:0:0:
113,127,204151,1,0,0:0:0:0:
113,127,204238,1,0,0:0:0:0:
113,127,204324,1,0,0:0:0:0:
113,127,204410,1,8,0:0:0:0:
113,127,204496,1,8,0:0:0:0:
113,127,204669,1,0,0:0:0:0:
113,127,204841,1,0,0:0:0:0:
113,127,204927,1,8,0:0:0:0:
113,127,205013,1,8,0:0:0:0:
113,127,205186,1,0,0:0:0:0:
113,127,205358,1,8,0:0:0:0:
113,127,205531,1,8,0:0:0:0:
113,127,205617,1,8,0:0:0:0:
113,127,205703,1,0,0:0:0:0:
113,127,205789,1,0,0:0:0:0:
113,127,205875,1,8,0:0:0:0:
113,127,206048,1,0,0:0:0:0:
113,127,206220,1,0,0:0:0:0:
113,127,206307,1,8,0:0:0:0:
113,127,206393,1,8,0:0:0:0:
113,127,206565,1,8,0:0:0:0:
113,127,206738,1,0,0:0:0:0:
113,127,206910,1,8,0:0:0:0:
113,127,206996,1,0,0:0:0:0:
113,127,207082,1,0,0:0:0:0:
113,127,207169,1,0,0:0:0:0:
113,127,207255,1,8,0:0:0:0:
113,127,207427,1,8,0:0:0:0:
113,127,207600,1,4,0:0:0:0:
113,127,208289,1,0,0:0:0:0:
113,127,208462,1,8,0:0:0:0:
113,127,208548,1,8,0:0:0:0:
113,127,208634,1,8,0:0:0:0:
113,127,208720,1,8,0:0:0:0:
113,127,208807,1,0,0:0:0:0:
113,127,208893,1,0,0:0:0:0:
113,127,208979,1,8,0:0:0:0:
113,127,209065,1,8,0:0:0:0:
113,127,209151,1,8,0:0:0:0:
113,127,209238,1,8,0:0:0:0:
113,127,209324,1,0,0:0:0:0:
113,127,209410,1,0,0:0:0:0:
113,127,209496,1,8,0:0:0:0:
113,127,209582,1,8,0:0:0:0:
113,127,209669,1,4,0:0:0:0:
113,127,209841,1,0,0:0:0:0:
113,127,210013,1,8,0:0:0:0:
113,127,210186,1,0,0:0:0:0:
113,127,210358,1,8,0:0:0:0:
113,127,210444,1,0,0:0:0:0:
113,127,210531,1,8,0:0:0:0:
113,127,210703,1,0,0:0:0:0:
113,127,210875,1,8,0:0:0:0:
113,127,210962,1,8,0:0:0:0:
113,127,211048,1,0,0:0:0:0:
113,127,211220,1,8,0:0:0:0:
113,127,211307,1,8,0:0:0:0:
113,127,211393,1,0,0:0:0:0:
113,127,211565,1,0,0:0:0:0:
113,127,211738,1,8,0:0:0:0:
113,127,211824,1,8,0:0:0:0:
113,127,211910,1,8,0:0:0:0:
113,127,212082,1,0,0:0:0:0:
113,127,212255,1,8,0:0:0:0:
113,127,212341,1,0,0:0:0:0:
113,127,212427,1,0,0:0:0:0:
113,127,212600,1,8,0:0:0:0:
113,127,212772,1,8,0:0:0:0:
113,127,212944,1,8,0:0:0:0:
113,127,213031,1,0,0:0:0:0:
113,127,213117,1,0,0:0:0:0:
113,127,213289,1,8,0:0:0:0:
113,127,213462,1,8,0:0:0:0:
113,127,213634,1,8,0:0:0:0:
113,127,213720,1,8,0:0:0:0:
113,127,213807,1,0,0:0:0:0:
113,127,213979,1,8,0:0:0:0:
113,127,214065,1,8,0:0:0:0:
113,127,214151,1,0,0:0:0:0:
113,127,214324,1,8,0:0:0:0:
113,127,214410,1,8,0:0:0:0:
113,127,214496,1,0,0:0:0:0:
113,127,214582,1,0,0:0:0:0:
113,127,214669,1,8,0:0:0:0:
113,127,214755,1,8,0:0:0:0:
113,127,214841,1,0,0:0:0:0:
113,127,215013,1,8,0:0:0:0:
113,127,215100,1,8,0:0:0:0:
113,127,215186,1,0,0:0:0:0:
113,127,215272,1,0,0:0:0:0:
113,127,215358,1,0,0:0:0:0:
113,127,215444,1,0,0:0:0:0:
113,127,215531,1,8,0:0:0:0:
113,127,215703,1,8,0:0:0:0:
113,127,215875,1,0,0:0:0:0:
113,127,215962,1,8,0:0:0:0:
113,127,216048,1,8,0:0:0:0:
113,127,216220,1,0,0:0:0:0:
113,127,216393,1,8,0:0:0:0:
113,127,216565,1,0,0:0:0:0:
113,127,216651,1,0,0:0:0:0:
113,127,216738,1,0,0:0:0:0:
113,127,216824,1,0,0:0:0:0:
113,127,216910,1,8,0:0:0:0:
113,127,217082,1,0,0:0:0:0:
113,127,217255,1,0,0:0:0:0:
113,127,217341,1,8,0:0:0:0:
113,127,217427,1,8,0:0:0:0:
113,127,217600,1,0,0:0:0:0:
113,127,217772,1,8,0:0:0:0:
113,127,217944,1,0,0:0:0:0:
113,127,218031,1,0,0:0:0:0:
113,127,218117,1,0,0:0:0:0:
113,127,218203,1,0,0:0:0:0:
113,127,218289,1,8,0:0:0:0:
113,127,218462,1,8,0:0:0:0:
113,127,218634,1,4,0:0:0:0:
113,127,219324,1,0,0:0:0:0:
113,127,219496,1,0,0:0:0:0:
113,127,219582,1,0,0:0:0:0:
113,127,219669,1,8,0:0:0:0:
113,127,219755,1,8,0:0:0:0:
113,127,219841,1,0,0:0:0:0:
113,127,220013,1,8,0:0:0:0:
113,127,220100,1,8,0:0:0:0:
113,127,220186,1,0,0:0:0:0:
113,127,220272,1,0,0:0:0:0:
113,127,220358,1,8,0:0:0:0:
113,127,220531,1,0,0:0:0:0:
113,127,220703,1,12,0:0:0:0:
113,127,220875,1,0,0:0:0:0:
113,127,220962,1,0,0:0:0:0:
113,127,221048,1,8,0:0:0:0:
113,127,221220,1,0,0:0:0:0:
113,127,221393,1,8,0:0:0:0:
113,127,221479,1,0,0:0:0:0:
113,127,221565,1,8,0:0:0:0:
113,127,221738,1,8,0:0:0:0:
113,127,221910,1,8,0:0:0:0:
113,127,221996,1,8,0:0:0:0:
113,127,222082,1,0,0:0:0:0:
113,127,222255,1,8,0:0:0:0:
113,127,222341,1,8,0:0:0:0:
113,127,222427,1,0,0:0:0:0:
113,127,222600,1,0,0:0:0:0:
113,127,222772,1,8,0:0:0:0:
113,127,222858,1,8,0:0:0:0:
113,127,222944,1,8,0:0:0:0:
113,127,223117,1,0,0:0:0:0:
113,127,223289,1,0,0:0:0:0:
113,127,223375,1,8,0:0:0:0:
113,127,223462,1,8,0:0:0:0:
113,127,223634,1,8,0:0:0:0:
113,127,223807,1,8,0:0:0:0:
113,127,223979,1,0,0:0:0:0:
113,127,224065,1,8,0:0:0:0:
113,127,224151,1,8,0:0:0:0:
113,127,224324,1,8,0:0:0:0:
113,127,224496,1,8,0:0:0:0:
113,127,224669,1,0,0:0:0:0:
113,127,224755,1,0,0:0:0:0:
113,127,224841,1,8,0:0:0:0:
113,127,225013,1,0,0:0:0:0:
113,127,225100,1,0,0:0:0:0:
113,127,225186,1,8,0:0:0:0:
113,127,225358,1,8,0:0:0:0:
113,127,225444,1,8,0:0:0:0:
113,127,225531,1,0,0:0:0:0:
113,127,225617,1,0,0:0:0:0:
113,127,225703,1,8,0:0:0:0:
113,127,225789,1,0,0:0:0:0:
113,127,225875,1,8,0:0:0:0:
113,127,226048,1,0,0:0:0:0:
113,127,226220,1,8,0:0:0:0:
113,127,226307,1,8,0:0:0:0:
113,127,226393,1,0,0:0:0:0:
113,127,226479,1,0,0:0:0:0:
113,127,226565,1,8,0:0:0:0:
113,127,226651,1,8,0:0:0:0:
113,127,226738,1,0,0:0:0:0:
113,127,226824,1,0,0:0:0:0:
113,127,226910,1,8,0:0:0:0:
113,127,226996,1,8,0:0:0:0:
113,127,227082,1,0,0:0:0:0:
113,127,227169,1,0,0:0:0:0:
113,127,227255,1,8,0:0:0:0:
113,127,227341,1,8,0:0:0:0:
113,127,227427,1,0,0:0:0:0:
113,127,227513,1,0,0:0:0:0:
113,127,227600,1,8,0:0:0:0:
113,127,227686,1,8,0:0:0:0:
113,127,227772,1,0,0:0:0:0:
113,127,227858,1,0,0:0:0:0:
113,127,227944,1,8,0:0:0:0:
113,127,228031,1,8,0:0:0:0:
113,127,228117,1,0,0:0:0:0:
113,127,228203,1,0,0:0:0:0:
113,127,228289,1,8,0:0:0:0:
113,127,228375,1,8,0:0:0:0:
113,127,228462,1,0,0:0:0:0:
113,127,228548,1,0,0:0:0:0:
113,127,228634,1,8,0:0:0:0:
113,127,228720,1,8,0:0:0:0:
113,127,228807,1,0,0:0:0:0:
113,127,228893,1,0,0:0:0:0:
113,127,228979,1,8,0:0:0:0:
113,127,229065,1,0,0:0:0:0:
113,127,229151,1,8,0:0:0:0:
113,127,229238,1,0,0:0:0:0:
113,127,229324,1,8,0:0:0:0:
113,127,229410,1,8,0:0:0:0:
113,127,229496,1,0,0:0:0:0:
113,127,229582,1,0,0:0:0:0:
113,127,229669,1,8,0:0:0:0:
113,127,229755,1,0,0:0:0:0:
113,127,229841,1,8,0:0:0:0:
113,127,229927,1,0,0:0:0:0:
113,127,230013,1,8,0:0:0:0:
113,127,230100,1,8,0:0:0:0:
113,127,230186,1,8,0:0:0:0:
113,127,230272,1,8,0:0:0:0:
113,127,230358,1,8,0:0:0:0:
113,127,231048,1,8,0:0:0:0:
113,127,231091,1,8,0:0:0:0:
113,127,231393,1,8,0:0:0:0:
113,127,231436,1,8,0:0:0:0:
250,7,231738,2,4,L|477:368,1,420.000016021729
113,127,232427,1,0,0:0:0:0:
113,127,232600,1,0,0:0:0:0:
113,127,232772,1,0,0:0:0:0:
113,127,232944,1,0,0:0:0:0:
113,127,233117,1,0,0:0:0:0:
113,127,233289,1,0,0:0:0:0:
113,127,233462,1,8,0:0:0:0:
113,127,233519,1,8,0:0:0:0:
113,127,233577,1,8,0:0:0:0:
113,127,233634,1,0,0:0:0:0:
113,127,233807,1,8,0:0:0:0:
113,127,233979,1,8,0:0:0:0:
113,127,234151,1,0,0:0:0:0:
216,246,234496,1,4,0:0:0:0:
216,246,234841,1,4,0:0:0:0:
113,127,235186,1,8,0:0:0:0:
113,127,235358,1,8,0:0:0:0:
113,127,235531,1,8,0:0:0:0:
113,127,235703,1,8,0:0:0:0:
113,127,235875,1,8,0:0:0:0:
113,127,236048,1,8,0:0:0:0:
113,127,236220,1,8,0:0:0:0:
113,127,236393,1,8,0:0:0:0:
113,127,236565,1,0,0:0:0:0:
113,127,236623,1,0,0:0:0:0:
113,127,236680,1,0,0:0:0:0:
113,127,236738,1,8,0:0:0:0:
113,127,236910,1,0,0:0:0:0:
113,127,237082,1,8,0:0:0:0:
254,45,237255,2,4,L|256:280,1,224
113,127,237944,1,0,0:0:0:0:
113,127,238117,1,0,0:0:0:0:
113,127,238289,1,0,0:0:0:0:
113,127,238462,1,0,0:0:0:0:
113,127,238634,1,0,0:0:0:0:
113,127,238807,1,0,0:0:0:0:
113,127,238979,1,8,0:0:0:0:
113,127,239036,1,8,0:0:0:0:
113,127,239094,1,8,0:0:0:0:
113,127,239151,1,0,0:0:0:0:
113,127,239324,1,0,0:0:0:0:
113,127,239496,1,0,0:0:0:0:
113,127,239669,1,8,0:0:0:0:
113,127,240013,1,0,0:0:0:0:
113,127,240358,1,8,0:0:0:0:
113,127,240531,1,0,0:0:0:0:
113,127,240617,1,0,0:0:0:0:
113,127,240703,1,8,0:0:0:0:
113,127,240875,1,0,0:0:0:0:
113,127,241048,1,8,0:0:0:0:
113,127,241220,1,0,0:0:0:0:
113,127,241307,1,0,0:0:0:0:
113,127,241393,1,8,0:0:0:0:
113,127,241565,1,0,0:0:0:0:
113,127,241738,1,0,0:0:0:0:
113,127,241910,1,8,0:0:0:0:
113,127,242082,1,0,0:0:0:0:
113,127,242255,1,0,0:0:0:0:
113,127,242427,1,8,0:0:0:0:
113,127,242600,1,0,0:0:0:0:
102,209,242772,2,4,B|266:258|266:115|516:166,1,420.000016021729
113,127,243462,1,0,0:0:0:0:
113,127,243634,1,0,0:0:0:0:
113,127,243807,1,0,0:0:0:0:
113,127,243979,1,0,0:0:0:0:
113,127,244151,1,0,0:0:0:0:
113,127,244324,1,0,0:0:0:0:
113,127,244496,1,8,0:0:0:0:
113,127,244554,1,8,0:0:0:0:
113,127,244611,1,8,0:0:0:0:
113,127,244669,1,0,0:0:0:0:
113,127,244841,1,8,0:0:0:0:
113,127,245013,1,8,0:0:0:0:
113,127,245186,1,0,0:0:0:0:
256,195,245531,1,4,0:0:0:0:
256,195,245875,1,4,0:0:0:0:
113,127,246220,1,8,0:0:0:0:
113,127,246393,1,8,0:0:0:0:
113,127,246565,1,8,0:0:0:0:
113,127,246738,1,8,0:0:0:0:
113,127,246910,1,8,0:0:0:0:
113,127,247082,1,8,0:0:0:0:
113,127,247255,1,8,0:0:0:0:
113,127,247427,1,8,0:0:0:0:
113,127,247600,1,0,0:0:0:0:
113,127,247657,1,0,0:0:0:0:
113,127,247715,1,0,0:0:0:0:
113,127,247772,1,8,0:0:0:0:
113,127,247944,1,0,0:0:0:0:
113,127,248117,1,8,0:0:0:0:
248,308,248289,2,4,P|241:150|254:78,1,224
113,127,248979,1,0,0:0:0:0:
113,127,249151,1,0,0:0:0:0:
113,127,249324,1,0,0:0:0:0:
113,127,249496,1,0,0:0:0:0:
113,127,249669,1,0,0:0:0:0:
113,127,249841,1,0,0:0:0:0:
113,127,250013,1,8,0:0:0:0:
113,127,250071,1,8,0:0:0:0:
113,127,250128,1,8,0:0:0:0:
113,127,250186,1,0,0:0:0:0:
113,127,250358,1,8,0:0:0:0:
113,127,250531,1,8,0:0:0:0:
113,127,250703,1,0,0:0:0:0:
113,127,251048,1,0,0:0:0:0:
113,127,251393,1,0,0:0:0:0:
113,127,251565,1,0,0:0:0:0:
113,127,251738,1,8,0:0:0:0:
113,127,252255,1,0,0:0:0:0:
113,127,252312,1,0,0:0:0:0:
113,127,252370,1,0,0:0:0:0:
113,127,252427,1,8,0:0:0:0:
113,127,252600,1,0,0:0:0:0:
113,127,252772,1,0,0:0:0:0:
113,127,252944,1,8,0:0:0:0:
113,127,253117,1,0,0:0:0:0:
113,127,253289,1,0,0:0:0:0:
113,127,253462,1,8,0:0:0:0:
113,127,253634,1,0,0:0:0:0:
113,127,253807,1,12,0:0:0:0:
256,192,253893,12,0,260703,0:0:0:0:
