osu file format v14

[General]
AudioFilename: audio.mp3
AudioLeadIn: 0
PreviewTime: 78829
Countdown: 0
SampleSet: Normal
StackLeniency: 0.6
Mode: 0
LetterboxInBreaks: 0
WidescreenStoryboard: 1

[Editor]
DistanceSpacing: 2.2
BeatDivisor: 4
GridSize: 4
TimelineZoom: 1.2

[Metadata]
Title:Dog of Wisdom Remix BLUE feat. Joe Gran
TitleUnicode:Dog of Wisdom Remix BLUE feat. Joe Gran
Artist:The Living Tombstone
ArtistUnicode:The Living Tombstone
Creator:me irl memes
Version:Normal
Source:
Tags:dog of wisdom joe gran living tombstone woof bark doggo
BeatmapID:1052894
BeatmapSetID:494472

[Difficulty]
HPDrainRate:3.6
CircleSize:3.4
OverallDifficulty:4.5
ApproachRate:4.3
SliderMultiplier:1
SliderTickRate:1

[Events]
//Background and Video events
//Break Periods
2,33561,39890
2,93717,99890
2,138561,145046
//Storyboard Layer 0 (Background)
//Storyboard Layer 1 (Fail)
//Storyboard Layer 2 (Pass)
//Storyboard Layer 3 (Foreground)
//Storyboard Sound Samples

[TimingPoints]
0,468.75,4,1,0,100,1,0
0,-166.666666666667,4,1,0,100,0,0
3830,468.75,4,1,0,100,1,0
18830,-86.9565217391304,4,1,0,100,0,0
26095,-166.666666666667,4,1,0,100,0,0
33830,-100,4,1,0,100,0,1
63361,468.75,4,1,0,100,1,0
63361,-166.666666666667,4,1,0,100,0,0
78830,-100,4,1,0,100,0,0
138829,-100,4,1,0,100,0,1
168361,-100,4,1,0,100,0,0

[Colours]
Combo1 : 21,255,28
Combo2 : 5,216,73
Combo3 : 10,120,255
Combo4 : 80,58,118
Combo5 : 255,140,26
Combo6 : 249,218,0

[HitObjects]
256,48,3830,21,0,0:0:0:0:
368,136,4533,2,0,L|424:136,2,50
256,180,5470,1,0,0:0:0:0:
220,264,5705,2,0,L|272:264,4,50
208,108,7580,5,0,0:0:0:0:
336,168,8283,2,0,L|336:232,3,50
280,332,9455,2,0,L|224:320,1,50
144,312,9923,2,0,L|92:292,2,50
228,88,11095,70,0,L|288:88,1,50
376,148,12033,1,0,0:0:0:0:
352,208,12267,2,0,L|328:256,1,50
208,252,12970,2,0,L|148:252,5,50
108,156,15080,6,0,L|160:156,1,50
204,244,15783,2,0,L|264:244,1,50
324,200,16720,1,0,0:0:0:0:
300,280,16955,2,0,L|248:284,4,50
176,208,18361,1,0,0:0:0:0:
80,216,18830,6,0,B|80:84|176:78|176:78|208:186|208:186|260:176,1,345.000006580353
324,76,20705,2,0,B|528:160|402:202|402:202|260:196,1,345.000006580353
248,280,22580,2,0,B|160:326|160:326|164:248|92:124|80:344,1,345.000006580353
168,264,24455,2,0,B|256:248|256:248|304:152|350:315|350:315|370:275|420:264,1,345.000006580353
376,176,26095,54,0,L|416:180,1,29.9999990844727
296,84,27033,2,0,L|304:52,2,29.9999990844727
152,132,27970,2,0,P|148:148|148:172,5,29.9999990844727
232,56,30080,6,0,L|264:56,1,29.9999990844727
232,144,30783,2,0,L|272:144,1,29.9999990844727
144,228,31721,2,0,L|184:228,1,29.9999990844727,0|12,0:0|0:0,0:0:0:0:
232,176,32190,2,0,L|216:140,1,29.9999990844727,0|12,0:0|0:0,0:0:0:0:
140,140,32658,2,0,L|116:160,1,29.9999990844727,0|12,0:0|0:0,0:0:0:0:
76,272,33361,37,12,0:0:0:0:
248,152,41330,53,0,0:0:0:0:
264,272,42033,2,0,L|328:272,1,50
352,128,42736,1,0,0:0:0:0:
328,44,42970,2,0,P|296:48|272:72,5,50
136,112,44611,1,0,0:0:0:0:
96,192,44845,1,0,0:0:0:0:
176,196,45080,2,0,L|224:172,7,50
304,204,46955,2,0,L|300:256,4,50
400,276,48361,21,8,0:0:0:0:
212,152,48830,69,0,0:0:0:0:
412,152,49533,2,0,L|344:152,1,50
228,188,50236,1,0,0:0:0:0:
152,192,50470,2,0,L|128:144,5,50
248,56,52111,1,0,0:0:0:0:
316,112,52345,1,0,0:0:0:0:
372,184,52580,2,0,L|368:240,7,50
316,288,54455,1,0,0:0:0:0:
248,316,54689,1,0,0:0:0:0:
172,324,54923,2,0,L|120:292,2,50
156,100,56330,69,0,0:0:0:0:
184,212,57033,2,0,L|240:184,1,50
368,132,57736,1,0,0:0:0:0:
420,180,57970,2,0,L|436:232,5,50
288,260,59611,1,0,0:0:0:0:
224,220,59845,2,0,L|200:160,8,50
268,160,61955,2,0,L|328:164,4,50
260,72,63361,22,0,L|288:72,3,19.9999993896485
64,220,64767,1,0,0:0:0:0:
148,320,65236,1,0,0:0:0:0:
192,196,65705,1,0,0:0:0:0:
276,296,66173,1,0,0:0:0:0:
328,176,66642,1,0,0:0:0:0:
420,272,67111,1,0,0:0:0:0:
288,252,67580,2,0,B|240:268|222:304|222:304|180:300,1,119.999996337891
72,236,68986,1,0,0:0:0:0:
96,80,69455,1,0,0:0:0:0:
220,280,69923,1,0,0:0:0:0:
260,60,70392,1,0,0:0:0:0:
384,100,70861,6,0,L|408:76,3,19.9999993896485
240,76,72267,1,0,0:0:0:0:
108,100,72736,1,0,0:0:0:0:
92,232,73205,1,0,0:0:0:0:
192,316,73673,1,0,0:0:0:0:
260,204,74142,1,0,0:0:0:0:
348,304,74611,1,0,0:0:0:0:
220,280,75080,2,0,L|188:280,11,19.9999993896485
220,240,76955,69,8,0:0:0:0:
64,192,77423,1,8,0:0:0:0:
212,48,77892,1,8,0:0:0:0:
356,228,78361,2,8,L|376:248,3,19.9999993896485
144,112,79611,22,0,L|180:108,1,33.3333333333333
324,88,80080,1,0,0:0:0:0:
408,296,80548,2,0,L|388:324,1,33.3333333333333
244,292,81017,2,0,L|276:252,1,33.3333333333333
160,164,81486,2,0,L|120:180,1,33.3333333333333
256,56,82580,5,0,0:0:0:0:
396,252,83361,2,0,L|384:300,1,33.3333333333333
244,312,83830,2,0,L|252:364,1,33.3333333333333
132,160,84455,1,0,0:0:0:0:
248,68,84767,2,0,P|263:55|288:64,1,33.3333333333333
396,140,85236,2,0,P|417:141|432:164,1,33.3333333333333
228,304,86173,70,0,L|172:312,1,33.3333333333333
232,52,87111,2,0,L|220:96,1,33.3333333333333
180,224,87579,1,0,0:0:0:0:
80,156,88048,2,0,L|112:124,1,33.3333333333333
240,80,88517,2,0,L|272:92,1,33.3333333333333
396,168,88986,2,0,L|440:140,1,33.3333333333333
132,76,89923,6,0,L|176:84,1,33.3333333333333
312,76,90392,1,0,0:0:0:0:
256,288,90861,2,0,L|192:292,1,33.3333333333333
104,92,91798,2,0,L|144:76,1,33.3333333333333
244,176,92267,2,0,L|284:160,1,33.3333333333333
396,244,92736,2,0,L|436:228,1,33.3333333333333
284,288,93361,54,0,B|296:280|296:280|308:288|308:288|316:280,1,33.3333333333333,2|0,0:0|0:0,0:0:0:0:
120,128,101173,6,0,L|184:116,1,33.3333333333333
424,156,102111,2,0,L|416:200,1,33.3333333333333
348,316,102579,1,0,0:0:0:0:
140,248,103048,2,0,L|104:200,1,33.3333333333333
128,76,103517,2,0,L|168:52,1,33.3333333333333
284,132,103985,2,0,L|272:168,1,33.3333333333333
168,112,104923,6,0,L|220:108,1,33.3333333333333
348,88,105392,1,0,0:0:0:0:
252,304,105861,2,0,L|220:336,1,33.3333333333333
120,264,106798,2,0,L|128:212,1,33.3333333333333,0|12,0:0|0:0,0:0:0:0:
252,64,107267,2,0,L|252:112,1,33.3333333333333,0|12,0:0|0:0,0:0:0:0:
380,260,107736,2,0,L|368:220,1,33.3333333333333,0|12,0:0|0:0,0:0:0:0:
132,132,108361,53,2,0:0:0:0:
340,64,108829,69,0,0:0:0:0:
260,268,109298,1,0,0:0:0:0:
172,68,109767,1,0,0:0:0:0:
260,268,110236,1,0,0:0:0:0:
464,188,110704,1,0,0:0:0:0:
260,268,111173,1,0,0:0:0:0:
52,196,111642,1,0,0:0:0:0:
260,268,112111,1,0,0:0:0:0:
240,48,112579,5,0,0:0:0:0:
420,176,113048,1,0,0:0:0:0:
200,180,113517,1,0,0:0:0:0:
420,176,113986,1,0,0:0:0:0:
244,44,114454,1,0,0:0:0:0:
332,248,114923,1,0,0:0:0:0:
120,300,115392,1,0,0:0:0:0:
332,248,115861,1,0,0:0:0:0:
264,40,116329,69,0,0:0:0:0:
128,212,116798,1,0,0:0:0:0:
336,284,117267,1,0,0:0:0:0:
444,92,117736,1,0,0:0:0:0:
228,44,118204,1,0,0:0:0:0:
68,196,118673,1,0,0:0:0:0:
272,280,119142,1,0,0:0:0:0:
440,136,119611,1,0,0:0:0:0:
228,192,120079,5,0,0:0:0:0:
260,80,120548,1,0,0:0:0:0:
312,296,121017,1,0,0:0:0:0:
448,124,121486,1,0,0:0:0:0:
264,240,121954,1,0,0:0:0:0:
324,28,122423,1,0,0:0:0:0:
400,232,122892,1,0,0:0:0:0:
120,128,123361,1,0,0:0:0:0:
292,252,123829,70,0,L|400:212,3,100
264,92,125704,2,0,B|232:112|232:112|200:104|200:104|160:132,3,100
96,288,127579,5,0,0:0:0:0:
164,144,128048,1,0,0:0:0:0:
256,268,128517,1,0,0:0:0:0:
320,120,128986,1,0,0:0:0:0:
416,228,129454,1,0,0:0:0:0:
200,272,129923,1,0,0:0:0:0:
284,68,130392,1,0,0:0:0:0:
424,240,130861,1,0,0:0:0:0:
212,292,131329,69,0,0:0:0:0:
216,72,131798,1,0,0:0:0:0:
348,248,132267,1,0,0:0:0:0:
156,144,132736,1,0,0:0:0:0:
376,160,133204,1,0,0:0:0:0:
164,220,133673,1,0,0:0:0:0:
328,72,134142,1,0,0:0:0:0:
272,284,134611,1,0,0:0:0:0:
64,216,135079,5,0,0:0:0:0:
208,48,135548,1,0,0:0:0:0:
200,268,136017,1,0,0:0:0:0:
368,128,136486,1,0,0:0:0:0:
112,208,136954,1,2,0:0:0:0:
408,168,137423,1,0,0:0:0:0:
72,296,137892,1,2,0:0:0:0:
452,96,138361,1,0,0:0:0:0:
256,80,146329,37,0,0:0:0:0:
232,256,147032,1,0,0:0:0:0:
344,248,147267,1,0,0:0:0:0:
340,104,147736,2,0,L|284:112,3,50
184,92,148673,1,0,0:0:0:0:
88,148,148907,1,0,0:0:0:0:
164,228,149142,1,0,0:0:0:0:
288,308,149611,6,0,L|332:264,1,50
428,244,150079,2,0,L|488:216,3,50
444,116,151017,1,0,0:0:0:0:
352,52,151251,1,0,0:0:0:0:
320,156,151486,1,0,0:0:0:0:
248,76,151720,1,0,0:0:0:0:
160,144,151954,2,0,L|112:156,4,50
232,284,153361,21,8,0:0:0:0:
56,164,153829,37,0,0:0:0:0:
292,104,154532,1,0,0:0:0:0:
260,208,154767,1,0,0:0:0:0:
392,304,155236,2,0,L|448:280,4,50
284,324,156407,1,0,0:0:0:0:
172,320,156642,1,0,0:0:0:0:
56,192,157111,2,0,L|72:128,1,50
160,84,157579,2,0,L|220:84,7,50
320,72,159454,1,0,0:0:0:0:
408,136,159689,1,0,0:0:0:0:
376,240,159923,1,0,0:0:0:0:
288,176,160157,1,0,0:0:0:0:
240,276,160392,1,0,0:0:0:0:
384,80,161329,5,0,0:0:0:0:
388,236,162032,1,0,0:0:0:0:
312,316,162267,1,0,0:0:0:0:
152,272,162736,2,0,L|136:216,1,50
72,136,163204,1,0,0:0:0:0:
148,56,163439,1,0,0:0:0:0:
232,128,163673,2,0,L|296:128,2,50
440,56,164611,69,0,0:0:0:0:
436,164,164845,1,0,0:0:0:0:
332,192,165079,2,0,L|272:192,1,50
232,292,165548,2,0,L|160:292,1,50
76,256,166017,1,0,0:0:0:0:
44,152,166251,1,0,0:0:0:0:
136,92,166486,1,0,0:0:0:0:
160,200,166720,1,0,0:0:0:0:
260,152,166954,2,0,L|316:152,1,50
412,192,167423,2,0,L|376:252,1,50
292,292,167892,2,0,L|192:280,1,100,0|2,0:0|0:0,0:0:0:0:
256,44,168829,53,0,0:0:0:0:
