osu file format v14

[General]
AudioFilename: audio.mp3
AudioLeadIn: 0
PreviewTime: -1
Countdown: 0
SampleSet: None
StackLeniency: 0.7
Mode: 1
LetterboxInBreaks: 0
WidescreenStoryboard: 0

[Editor]
Bookmarks: 3834,18834,33834,48834,63834,78834,93834,108834,123834,138834,153834,168834
DistanceSpacing: 0.8
BeatDivisor: 6
GridSize: 8
TimelineZoom: 1.9

[Metadata]
Title:Dog of Wisdom Remix BLUE feat. Joe Gran
TitleUnicode:Dog of Wisdom Remix BLUE feat. Joe Gran
Artist:The Living Tombstone
ArtistUnicode:The Living Tombstone
Creator:cactusthegreat
Version:Muzukashii
Source:
Tags:
BeatmapID:1321441
BeatmapSetID:627052

[Difficulty]
HPDrainRate:5
CircleSize:4
OverallDifficulty:5
ApproachRate:5
SliderMultiplier:1.9599999666214
SliderTickRate:1

[Events]
//Background and Video events
0,0,"3ce7427a99931cd15f9a210acfd63c7a.jpg",0,0
//Break Periods
//Storyboard Layer 0 (Background)
//Storyboard Layer 1 (Fail)
//Storyboard Layer 2 (Pass)
//Storyboard Layer 3 (Foreground)
//Storyboard Sound Samples

[TimingPoints]
18834.4326923077,468.75,4,1,0,80,1,0
33834,-100,4,1,0,90,0,1
48834,-100,4,1,0,95,0,1
63834,-100,4,1,0,80,0,0
108834,-100,4,1,0,95,0,1
123834,-100,4,1,0,100,0,1
138834,-100,4,1,0,80,0,0

[HitObjects]
256,192,3834,5,0,0:0:0:0:
256,192,4537,1,0,0:0:0:0:
256,192,4771,1,8,0:0:0:0:
256,192,5006,1,0,0:0:0:0:
256,192,5475,1,0,0:0:0:0:
256,192,5709,1,8,0:0:0:0:
256,192,5943,1,0,0:0:0:0:
256,192,6178,1,8,0:0:0:0:
256,192,6412,1,0,0:0:0:0:
256,192,6646,1,0,0:0:0:0:
256,192,7584,1,8,0:0:0:0:
256,192,8287,1,0,0:0:0:0:
256,192,8521,1,8,0:0:0:0:
256,192,8756,1,0,0:0:0:0:
256,192,8990,1,0,0:0:0:0:
256,192,9459,1,0,0:0:0:0:
256,192,9693,1,8,0:0:0:0:
256,192,9928,1,8,0:0:0:0:
256,192,10162,1,0,0:0:0:0:
256,192,10396,1,0,0:0:0:0:
256,192,11100,1,8,0:0:0:0:
256,192,11334,1,0,0:0:0:0:
256,192,12037,1,0,0:0:0:0:
256,192,12271,1,8,0:0:0:0:
256,192,12506,1,0,0:0:0:0:
256,192,12975,1,0,0:0:0:0:
256,192,13209,1,8,0:0:0:0:
256,192,13443,1,0,0:0:0:0:
256,192,13678,1,8,0:0:0:0:
256,192,13912,1,0,0:0:0:0:
256,192,14146,1,0,0:0:0:0:
256,192,15084,1,0,0:0:0:0:
256,192,15318,1,0,0:0:0:0:
256,192,15787,1,8,0:0:0:0:
256,192,16021,1,0,0:0:0:0:
256,192,16490,1,0,0:0:0:0:
256,192,16959,1,0,0:0:0:0:
256,192,17193,1,8,0:0:0:0:
256,192,17428,1,0,0:0:0:0:
256,192,17662,1,8,0:0:0:0:
256,192,17896,1,0,0:0:0:0:
256,192,18834,5,4,0:0:0:0:
256,192,19537,1,0,0:0:0:0:
256,192,19771,1,8,0:0:0:0:
256,192,20006,1,0,0:0:0:0:
256,192,20475,1,0,0:0:0:0:
256,192,20709,1,8,0:0:0:0:
256,192,20943,1,0,0:0:0:0:
256,192,21178,1,8,0:0:0:0:
256,192,21412,1,0,0:0:0:0:
256,192,21646,1,0,0:0:0:0:
256,192,22584,1,8,0:0:0:0:
256,192,23287,1,0,0:0:0:0:
256,192,23521,1,8,0:0:0:0:
256,192,23756,1,0,0:0:0:0:
256,192,23990,1,0,0:0:0:0:
256,192,24459,1,0,0:0:0:0:
256,192,24693,1,8,0:0:0:0:
256,192,24928,1,8,0:0:0:0:
256,192,25162,1,0,0:0:0:0:
256,192,25396,1,0,0:0:0:0:
256,192,26100,1,8,0:0:0:0:
256,192,26334,1,0,0:0:0:0:
256,192,27037,1,0,0:0:0:0:
256,192,27271,1,8,0:0:0:0:
256,192,27506,1,0,0:0:0:0:
256,192,27975,1,0,0:0:0:0:
256,192,28209,1,8,0:0:0:0:
256,192,28443,1,0,0:0:0:0:
256,192,28678,1,8,0:0:0:0:
256,192,28912,1,0,0:0:0:0:
256,192,29146,1,0,0:0:0:0:
256,192,30084,1,0,0:0:0:0:
256,192,30318,1,0,0:0:0:0:
256,192,30787,1,8,0:0:0:0:
256,192,31021,1,0,0:0:0:0:
256,192,31490,1,0,0:0:0:0:
256,192,31959,1,0,0:0:0:0:
256,192,32193,1,8,0:0:0:0:
256,192,32428,1,0,0:0:0:0:
256,192,32662,1,8,0:0:0:0:
256,192,32896,1,0,0:0:0:0:
256,192,33834,5,4,0:0:0:0:
256,192,34537,1,0,0:0:0:0:
256,192,34771,1,8,0:0:0:0:
256,192,35240,1,0,0:0:0:0:
256,192,35475,1,8,0:0:0:0:
256,192,35709,1,8,0:0:0:0:
256,192,35943,1,8,0:0:0:0:
256,192,36178,1,0,0:0:0:0:
256,192,36412,1,8,0:0:0:0:
256,192,36646,1,0,0:0:0:0:
256,192,37115,1,0,0:0:0:0:
256,192,37350,1,8,0:0:0:0:
256,192,37584,1,8,0:0:0:0:
256,192,37818,1,8,0:0:0:0:
256,192,38053,1,0,0:0:0:0:
256,192,38287,1,0,0:0:0:0:
256,192,38521,1,8,0:0:0:0:
256,192,38756,1,8,0:0:0:0:
256,192,38990,1,0,0:0:0:0:
256,192,39225,1,0,0:0:0:0:
256,192,39459,1,8,0:0:0:0:
256,192,39693,1,8,0:0:0:0:
256,192,39928,1,8,0:0:0:0:
256,192,40162,1,8,0:0:0:0:
256,192,40396,1,0,0:0:0:0:
256,192,41334,1,0,0:0:0:0:
256,192,42037,1,0,0:0:0:0:
256,192,42271,1,8,0:0:0:0:
256,192,42740,1,0,0:0:0:0:
256,192,42975,1,8,0:0:0:0:
256,192,43209,1,8,0:0:0:0:
256,192,43443,1,8,0:0:0:0:
256,192,43678,1,0,0:0:0:0:
256,192,43912,1,8,0:0:0:0:
256,192,44146,1,0,0:0:0:0:
256,192,44615,1,0,0:0:0:0:
256,192,44850,1,8,0:0:0:0:
256,192,45084,1,8,0:0:0:0:
256,192,45318,1,8,0:0:0:0:
256,192,45553,1,0,0:0:0:0:
256,192,45787,1,0,0:0:0:0:
256,192,46021,1,8,0:0:0:0:
256,192,46256,1,8,0:0:0:0:
256,192,46490,1,0,0:0:0:0:
256,192,46725,1,0,0:0:0:0:
256,192,46959,1,8,0:0:0:0:
256,192,47193,1,0,0:0:0:0:
256,192,47428,1,8,0:0:0:0:
256,192,47662,1,8,0:0:0:0:
256,192,47896,1,0,0:0:0:0:
256,192,48834,5,4,0:0:0:0:
256,192,49537,1,0,0:0:0:0:
256,192,49771,1,8,0:0:0:0:
256,192,50240,1,0,0:0:0:0:
256,192,50475,1,8,0:0:0:0:
256,192,50709,1,8,0:0:0:0:
256,192,50943,1,8,0:0:0:0:
256,192,51178,1,0,0:0:0:0:
256,192,51412,1,8,0:0:0:0:
256,192,51646,1,0,0:0:0:0:
256,192,52115,1,0,0:0:0:0:
256,192,52350,1,8,0:0:0:0:
256,192,52584,1,8,0:0:0:0:
256,192,52818,1,8,0:0:0:0:
256,192,53053,1,0,0:0:0:0:
256,192,53287,1,0,0:0:0:0:
256,192,53521,1,8,0:0:0:0:
256,192,53756,1,8,0:0:0:0:
256,192,53990,1,0,0:0:0:0:
256,192,54225,1,0,0:0:0:0:
256,192,54459,1,8,0:0:0:0:
256,192,54693,1,8,0:0:0:0:
256,192,54928,1,8,0:0:0:0:
256,192,55162,1,8,0:0:0:0:
256,192,55396,1,0,0:0:0:0:
256,192,56334,1,4,0:0:0:0:
256,192,57037,1,0,0:0:0:0:
256,192,57271,1,8,0:0:0:0:
256,192,57740,1,0,0:0:0:0:
256,192,57975,1,8,0:0:0:0:
256,192,58209,1,8,0:0:0:0:
256,192,58443,1,8,0:0:0:0:
256,192,58678,1,0,0:0:0:0:
256,192,58912,1,8,0:0:0:0:
256,192,59146,1,0,0:0:0:0:
256,192,59615,1,0,0:0:0:0:
256,192,59850,1,8,0:0:0:0:
256,192,60084,1,8,0:0:0:0:
256,192,60318,1,8,0:0:0:0:
256,192,60553,1,0,0:0:0:0:
256,192,60787,1,0,0:0:0:0:
256,192,61021,1,8,0:0:0:0:
256,192,61256,1,8,0:0:0:0:
256,192,61490,1,0,0:0:0:0:
256,192,61725,1,0,0:0:0:0:
256,192,61959,1,8,0:0:0:0:
256,192,62193,1,0,0:0:0:0:
256,192,62428,1,8,0:0:0:0:
256,192,62662,1,0,0:0:0:0:
256,192,62896,1,0,0:0:0:0:
256,192,63365,1,0,0:0:0:0:
256,192,63521,1,0,0:0:0:0:
256,192,63678,1,0,0:0:0:0:
256,192,63834,5,12,0:0:0:0:
256,192,64771,1,0,0:0:0:0:
256,192,65240,1,8,0:0:0:0:
256,192,65709,1,0,0:0:0:0:
256,192,65865,1,8,0:0:0:0:
256,192,66178,1,0,0:0:0:0:
256,192,66646,1,0,0:0:0:0:
256,192,67115,1,0,0:0:0:0:
256,192,67584,1,8,0:0:0:0:
256,192,68521,1,8,0:0:0:0:
256,192,68990,1,0,0:0:0:0:
256,192,69459,1,8,0:0:0:0:
256,192,69928,1,8,0:0:0:0:
256,192,70396,1,0,0:0:0:0:
256,192,70865,1,0,0:0:0:0:
256,192,71021,1,0,0:0:0:0:
256,192,71178,1,0,0:0:0:0:
256,192,71334,1,8,0:0:0:0:
256,192,72271,1,0,0:0:0:0:
256,192,72740,1,8,0:0:0:0:
256,192,73209,1,0,0:0:0:0:
256,192,73521,1,0,0:0:0:0:
256,192,73678,1,8,0:0:0:0:
256,192,73990,1,8,0:0:0:0:
256,192,74146,1,8,0:0:0:0:
256,192,74459,1,8,0:0:0:0:
256,192,74615,1,0,0:0:0:0:
256,192,75084,1,0,0:0:0:0:
256,192,75240,1,0,0:0:0:0:
256,192,75396,1,0,0:0:0:0:
256,192,75553,1,8,0:0:0:0:
256,192,75709,1,8,0:0:0:0:
256,192,75865,1,8,0:0:0:0:
256,192,76021,1,0,0:0:0:0:
256,192,76178,1,0,0:0:0:0:
256,192,76334,1,8,0:0:0:0:
256,192,76490,1,0,0:0:0:0:
256,192,76959,1,0,0:0:0:0:
256,192,77271,1,0,0:0:0:0:
256,192,77428,1,8,0:0:0:0:
256,192,77740,1,8,0:0:0:0:
256,192,77896,1,8,0:0:0:0:
256,192,78834,5,0,0:0:0:0:
256,192,79615,1,0,0:0:0:0:
256,192,79771,1,8,0:0:0:0:
256,192,80006,1,0,0:0:0:0:
256,192,80553,1,0,0:0:0:0:
256,192,80709,1,8,0:0:0:0:
256,192,81021,1,0,0:0:0:0:
256,192,81178,1,8,0:0:0:0:
256,192,81490,1,0,0:0:0:0:
256,192,81646,1,0,0:0:0:0:
256,192,82584,1,8,0:0:0:0:
256,192,83365,1,0,0:0:0:0:
256,192,83521,1,8,0:0:0:0:
256,192,83834,1,0,0:0:0:0:
256,192,83990,1,0,0:0:0:0:
256,192,84459,1,0,0:0:0:0:
256,192,84771,1,8,0:0:0:0:
256,192,84928,1,8,0:0:0:0:
256,192,85240,1,0,0:0:0:0:
256,192,85396,1,0,0:0:0:0:
256,192,86100,1,8,0:0:0:0:
256,192,86334,1,0,0:0:0:0:
256,192,87115,1,0,0:0:0:0:
256,192,87271,1,8,0:0:0:0:
256,192,87506,1,0,0:0:0:0:
256,192,88053,1,0,0:0:0:0:
256,192,88209,1,8,0:0:0:0:
256,192,88521,1,0,0:0:0:0:
256,192,88678,1,8,0:0:0:0:
256,192,88990,1,0,0:0:0:0:
256,192,89146,1,0,0:0:0:0:
256,192,90084,1,0,0:0:0:0:
256,192,90318,1,0,0:0:0:0:
256,192,90787,1,8,0:0:0:0:
256,192,91021,1,0,0:0:0:0:
256,192,91490,1,0,0:0:0:0:
256,192,91959,1,0,0:0:0:0:
256,192,92271,1,8,0:0:0:0:
256,192,92428,1,0,0:0:0:0:
256,192,92740,1,8,0:0:0:0:
256,192,92896,1,0,0:0:0:0:
256,192,93834,5,4,0:0:0:0:
256,192,94615,1,0,0:0:0:0:
256,192,94771,1,8,0:0:0:0:
256,192,95006,1,0,0:0:0:0:
256,192,95553,1,0,0:0:0:0:
256,192,95709,1,8,0:0:0:0:
256,192,96021,1,0,0:0:0:0:
256,192,96178,1,8,0:0:0:0:
256,192,96490,1,0,0:0:0:0:
256,192,96646,1,0,0:0:0:0:
256,192,97584,1,8,0:0:0:0:
256,192,98365,1,0,0:0:0:0:
256,192,98521,1,8,0:0:0:0:
256,192,98834,1,0,0:0:0:0:
256,192,98990,1,0,0:0:0:0:
256,192,99459,1,0,0:0:0:0:
256,192,99771,1,8,0:0:0:0:
256,192,99928,1,0,0:0:0:0:
256,192,100240,1,8,0:0:0:0:
256,192,100396,1,0,0:0:0:0:
256,192,101178,1,8,0:0:0:0:
256,192,101334,1,0,0:0:0:0:
256,192,102115,1,0,0:0:0:0:
256,192,102271,1,8,0:0:0:0:
256,192,102506,1,0,0:0:0:0:
256,192,103053,1,0,0:0:0:0:
256,192,103209,1,8,0:0:0:0:
256,192,103521,1,0,0:0:0:0:
256,192,103678,1,8,0:0:0:0:
256,192,103990,1,0,0:0:0:0:
256,192,104146,1,0,0:0:0:0:
256,192,105084,1,0,0:0:0:0:
256,192,105318,1,0,0:0:0:0:
256,192,105787,1,8,0:0:0:0:
256,192,106021,1,0,0:0:0:0:
256,192,106490,1,0,0:0:0:0:
256,192,106959,1,0,0:0:0:0:
256,192,107271,1,8,0:0:0:0:
256,192,107428,1,0,0:0:0:0:
256,192,107740,1,8,0:0:0:0:
256,192,107896,1,0,0:0:0:0:
256,192,108834,5,4,0:0:0:0:
256,192,109146,1,0,0:0:0:0:
256,192,109303,1,8,0:0:0:0:
256,192,109771,1,8,0:0:0:0:
256,192,110240,1,0,0:0:0:0:
256,192,110553,1,8,0:0:0:0:
256,192,110709,1,0,0:0:0:0:
256,192,111021,1,8,0:0:0:0:
256,192,111178,1,8,0:0:0:0:
256,192,111646,1,8,0:0:0:0:
256,192,112115,1,0,0:0:0:0:
256,192,112428,1,0,0:0:0:0:
256,192,112584,1,0,0:0:0:0:
256,192,112896,1,8,0:0:0:0:
256,192,113053,1,8,0:0:0:0:
256,192,113521,1,8,0:0:0:0:
256,192,113990,1,0,0:0:0:0:
256,192,114303,1,0,0:0:0:0:
256,192,114459,1,0,0:0:0:0:
256,192,114771,1,0,0:0:0:0:
256,192,114928,1,8,0:0:0:0:
256,192,115396,1,8,0:0:0:0:
256,192,115865,1,0,0:0:0:0:
256,192,116178,1,8,0:0:0:0:
256,192,116334,1,0,0:0:0:0:
256,192,116646,1,8,0:0:0:0:
256,192,116803,1,8,0:0:0:0:
256,192,117271,1,8,0:0:0:0:
256,192,117740,1,0,0:0:0:0:
256,192,118053,1,0,0:0:0:0:
256,192,118209,1,0,0:0:0:0:
256,192,118521,1,8,0:0:0:0:
256,192,118678,1,8,0:0:0:0:
256,192,119146,1,8,0:0:0:0:
256,192,119615,1,0,0:0:0:0:
256,192,119928,1,0,0:0:0:0:
256,192,120084,1,0,0:0:0:0:
256,192,120396,1,8,0:0:0:0:
256,192,120553,1,8,0:0:0:0:
256,192,121021,1,8,0:0:0:0:
256,192,121490,1,0,0:0:0:0:
256,192,121803,1,0,0:0:0:0:
256,192,121959,1,8,0:0:0:0:
256,192,122271,1,8,0:0:0:0:
256,192,122428,1,8,0:0:0:0:
256,192,122896,1,8,0:0:0:0:
256,192,123365,1,0,0:0:0:0:
256,192,123834,5,4,0:0:0:0:
256,192,124146,1,0,0:0:0:0:
256,192,124303,1,8,0:0:0:0:
256,192,124771,1,8,0:0:0:0:
256,192,125240,1,0,0:0:0:0:
256,192,125553,1,8,0:0:0:0:
256,192,125709,1,0,0:0:0:0:
256,192,126021,1,8,0:0:0:0:
256,192,126178,1,8,0:0:0:0:
256,192,126646,1,8,0:0:0:0:
256,192,127115,1,0,0:0:0:0:
256,192,127428,1,0,0:0:0:0:
256,192,127584,1,0,0:0:0:0:
256,192,127896,1,8,0:0:0:0:
256,192,128053,1,8,0:0:0:0:
256,192,128521,1,8,0:0:0:0:
256,192,128990,1,0,0:0:0:0:
256,192,129303,1,0,0:0:0:0:
256,192,129459,1,0,0:0:0:0:
256,192,129771,1,0,0:0:0:0:
256,192,129928,1,8,0:0:0:0:
256,192,130396,1,8,0:0:0:0:
256,192,130865,1,0,0:0:0:0:
256,192,131178,1,8,0:0:0:0:
256,192,131334,1,0,0:0:0:0:
256,192,131646,1,8,0:0:0:0:
256,192,131803,1,8,0:0:0:0:
256,192,132271,1,8,0:0:0:0:
256,192,132740,1,0,0:0:0:0:
256,192,133053,1,0,0:0:0:0:
256,192,133209,1,0,0:0:0:0:
256,192,133521,1,8,0:0:0:0:
256,192,133678,1,8,0:0:0:0:
256,192,134146,1,8,0:0:0:0:
256,192,134615,1,0,0:0:0:0:
256,192,134928,1,0,0:0:0:0:
256,192,135084,1,0,0:0:0:0:
256,192,135396,1,8,0:0:0:0:
256,192,135553,1,8,0:0:0:0:
256,192,136021,1,8,0:0:0:0:
256,192,136490,1,0,0:0:0:0:
256,192,136959,1,8,0:0:0:0:
256,192,137428,1,0,0:0:0:0:
256,192,137896,1,8,0:0:0:0:
256,192,138365,1,0,0:0:0:0:
256,192,138834,5,8,0:0:0:0:
256,192,139537,1,0,0:0:0:0:
256,192,139771,1,8,0:0:0:0:
256,192,140240,1,0,0:0:0:0:
256,192,140475,1,8,0:0:0:0:
256,192,140709,1,8,0:0:0:0:
256,192,140943,1,8,0:0:0:0:
256,192,141178,1,0,0:0:0:0:
256,192,141412,1,8,0:0:0:0:
256,192,141646,1,0,0:0:0:0:
256,192,142115,1,0,0:0:0:0:
256,192,142350,1,8,0:0:0:0:
256,192,142584,1,8,0:0:0:0:
256,192,142818,1,8,0:0:0:0:
256,192,143053,1,0,0:0:0:0:
256,192,143287,1,0,0:0:0:0:
256,192,143521,1,8,0:0:0:0:
256,192,143756,1,8,0:0:0:0:
256,192,143990,1,0,0:0:0:0:
256,192,144225,1,0,0:0:0:0:
256,192,144459,1,8,0:0:0:0:
256,192,144693,1,8,0:0:0:0:
256,192,144928,1,8,0:0:0:0:
256,192,145162,1,8,0:0:0:0:
256,192,145396,1,0,0:0:0:0:
256,192,146334,1,0,0:0:0:0:
256,192,147037,1,0,0:0:0:0:
256,192,147271,1,8,0:0:0:0:
256,192,147740,1,0,0:0:0:0:
256,192,147975,1,8,0:0:0:0:
256,192,148209,1,8,0:0:0:0:
256,192,148443,1,8,0:0:0:0:
256,192,148678,1,0,0:0:0:0:
256,192,148912,1,8,0:0:0:0:
256,192,149146,1,0,0:0:0:0:
256,192,149615,1,0,0:0:0:0:
256,192,149850,1,8,0:0:0:0:
256,192,150084,1,8,0:0:0:0:
256,192,150318,1,8,0:0:0:0:
256,192,150553,1,0,0:0:0:0:
256,192,150787,1,0,0:0:0:0:
256,192,151021,1,8,0:0:0:0:
256,192,151256,1,8,0:0:0:0:
256,192,151490,1,0,0:0:0:0:
256,192,151725,1,0,0:0:0:0:
256,192,151959,1,8,0:0:0:0:
256,192,152193,1,8,0:0:0:0:
256,192,152428,1,8,0:0:0:0:
256,192,152662,1,8,0:0:0:0:
256,192,152896,1,0,0:0:0:0:
256,192,153834,5,4,0:0:0:0:
256,192,154537,1,0,0:0:0:0:
256,192,154771,1,8,0:0:0:0:
256,192,155240,1,0,0:0:0:0:
256,192,155475,1,8,0:0:0:0:
256,192,155709,1,8,0:0:0:0:
256,192,155943,1,8,0:0:0:0:
256,192,156178,1,0,0:0:0:0:
256,192,156412,1,8,0:0:0:0:
256,192,156646,1,0,0:0:0:0:
256,192,157115,1,0,0:0:0:0:
256,192,157350,1,8,0:0:0:0:
256,192,157584,1,8,0:0:0:0:
256,192,157818,1,8,0:0:0:0:
256,192,158053,1,0,0:0:0:0:
256,192,158287,1,0,0:0:0:0:
256,192,158521,1,8,0:0:0:0:
256,192,158756,1,8,0:0:0:0:
256,192,158990,1,0,0:0:0:0:
256,192,159225,1,0,0:0:0:0:
256,192,159459,1,8,0:0:0:0:
256,192,159693,1,8,0:0:0:0:
256,192,159928,1,8,0:0:0:0:
256,192,160162,1,8,0:0:0:0:
256,192,160396,1,0,0:0:0:0:
256,192,161334,1,0,0:0:0:0:
256,192,162037,1,0,0:0:0:0:
256,192,162271,1,8,0:0:0:0:
256,192,162740,1,0,0:0:0:0:
256,192,162975,1,8,0:0:0:0:
256,192,163209,1,8,0:0:0:0:
256,192,163443,1,8,0:0:0:0:
256,192,163678,1,0,0:0:0:0:
256,192,163912,1,8,0:0:0:0:
256,192,164146,1,0,0:0:0:0:
256,192,164615,1,0,0:0:0:0:
256,192,164850,1,8,0:0:0:0:
256,192,165084,1,8,0:0:0:0:
256,192,165318,1,8,0:0:0:0:
256,192,165553,1,0,0:0:0:0:
256,192,165787,1,0,0:0:0:0:
256,192,166021,1,8,0:0:0:0:
256,192,166256,1,8,0:0:0:0:
256,192,166490,1,0,0:0:0:0:
256,192,166725,1,0,0:0:0:0:
256,192,166959,1,8,0:0:0:0:
256,192,167193,1,8,0:0:0:0:
256,192,167428,1,8,0:0:0:0:
256,192,167662,1,8,0:0:0:0:
256,192,167896,1,0,0:0:0:0:
256,192,168834,1,4,0:0:0:0:
