osu file format v14

[General]
AudioFilename: audio.mp3
AudioLeadIn: 0
PreviewTime: 648
Countdown: 0
SampleSet: Soft
StackLeniency: 0.7
Mode: 1
LetterboxInBreaks: 0
WidescreenStoryboard: 1

[Editor]
Bookmarks: 4220
DistanceSpacing: 0.7
BeatDivisor: 8
GridSize: 4
TimelineZoom: 2.3

[Metadata]
Title:A Fool Moon Night
TitleUnicode:A Fool Moon Night
Artist:The Koxx
ArtistUnicode:The Koxx
Creator:nyanmi-1828
Version:Lv.450
Source:o2jam
Tags:o2jam
BeatmapID:1526771
BeatmapSetID:538780

[Difficulty]
HPDrainRate:5
CircleSize:4
OverallDifficulty:6
ApproachRate:5
SliderMultiplier:1.4
SliderTickRate:1

[Events]
//Background and Video events
0,0,"background.jpg",0,0
//Break Periods
//Storyboard Layer 0 (Background)
//Storyboard Layer 1 (Fail)
//Storyboard Layer 2 (Pass)
//Storyboard Layer 3 (Foreground)
//Storyboard Sound Samples

[TimingPoints]
1091,434.782608695652,4,2,2,100,1,0
77612,-71.4285714285714,4,2,2,100,0,1
105438,-100,4,2,2,100,0,0
175004,-71.4285714285714,4,2,2,100,0,1
230656,-100,4,2,2,100,0,0

[HitObjects]
320,216,1091,5,4,0:0:0:0:
276,192,4569,1,4,0:0:0:0:
308,248,8047,1,4,0:0:0:0:
320,228,8917,1,4,0:0:0:0:
304,240,9786,1,4,0:0:0:0:
304,240,10656,1,4,0:0:0:0:
328,232,11525,1,4,0:0:0:0:
324,220,11851,1,0,0:0:0:0:
324,220,11960,1,8,0:0:0:0:
324,220,12177,1,0,0:0:0:0:
324,220,12395,1,4,0:0:0:0:
332,208,12721,1,8,0:0:0:0:
332,208,13047,1,0,0:0:0:0:
332,208,13264,1,4,0:0:0:0:
308,208,13590,1,8,0:0:0:0:
304,204,13917,1,0,0:0:0:0:
304,204,14134,1,4,0:0:0:0:
308,208,14460,1,8,0:0:0:0:
304,204,14786,1,0,0:0:0:0:
304,204,15004,1,4,0:0:0:0:
276,216,15330,1,8,0:0:0:0:
276,216,15438,1,0,0:0:0:0:
276,216,15656,1,0,0:0:0:0:
276,216,15873,1,0,0:0:0:0:
260,220,16199,1,8,0:0:0:0:
260,220,16308,1,0,0:0:0:0:
260,220,16525,1,8,0:0:0:0:
260,220,16743,1,0,0:0:0:0:
260,220,17069,1,8,0:0:0:0:
260,220,17177,1,0,0:0:0:0:
260,220,17395,1,0,0:0:0:0:
260,220,17612,1,0,0:0:0:0:
260,220,17938,1,8,0:0:0:0:
260,220,18047,1,0,0:0:0:0:
260,220,18264,1,8,0:0:0:0:
260,220,18482,1,0,0:0:0:0:
260,220,18699,1,8,0:0:0:0:
260,220,18808,1,8,0:0:0:0:
260,220,18917,1,0,0:0:0:0:
260,224,19134,1,8,0:0:0:0:
260,224,19351,1,0,0:0:0:0:
260,224,19460,1,0,0:0:0:0:
260,224,19569,1,8,0:0:0:0:
260,224,19677,1,8,0:0:0:0:
260,224,19786,1,0,0:0:0:0:
260,224,20004,1,8,0:0:0:0:
260,224,20221,1,0,0:0:0:0:
296,216,21090,1,0,0:0:0:0:
300,220,21163,1,0,0:0:0:0:
300,224,21235,1,0,0:0:0:0:
300,224,21308,1,0,0:0:0:0:
300,224,21380,1,0,0:0:0:0:
300,224,21453,1,0,0:0:0:0:
304,224,21525,1,8,0:0:0:0:
320,228,21960,1,4,0:0:0:0:
328,228,22286,1,0,0:0:0:0:
328,228,22395,1,8,0:0:0:0:
328,228,22612,1,0,0:0:0:0:
328,228,22830,1,0,0:0:0:0:
328,228,22938,1,0,0:0:0:0:
328,228,23047,1,0,0:0:0:0:
328,228,23264,1,8,0:0:0:0:
328,228,23482,1,0,0:0:0:0:
328,228,23699,1,0,0:0:0:0:
328,264,23808,1,0,0:0:0:0:
328,264,23917,1,0,0:0:0:0:
312,244,24134,1,8,0:0:0:0:
312,244,24351,1,0,0:0:0:0:
320,232,24460,1,0,0:0:0:0:
320,232,24569,1,8,0:0:0:0:
312,244,24786,1,0,0:0:0:0:
312,244,25004,1,8,0:0:0:0:
316,252,25221,1,0,0:0:0:0:
312,244,25438,1,0,0:0:0:0:
312,244,25764,1,0,0:0:0:0:
312,244,25873,1,8,0:0:0:0:
312,244,26090,1,0,0:0:0:0:
312,244,26308,1,0,0:0:0:0:
312,244,26417,1,0,0:0:0:0:
312,244,26525,1,0,0:0:0:0:
312,244,26743,1,8,0:0:0:0:
312,244,26960,1,0,0:0:0:0:
312,244,27177,1,0,0:0:0:0:
300,228,27286,1,0,0:0:0:0:
300,228,27395,1,0,0:0:0:0:
312,244,27612,1,8,0:0:0:0:
312,244,27830,1,0,0:0:0:0:
328,224,28047,1,8,0:0:0:0:
328,224,28156,1,8,0:0:0:0:
312,244,28264,1,0,0:0:0:0:
312,244,28482,1,8,0:0:0:0:
332,248,28699,1,0,0:0:0:0:
332,248,28808,1,0,0:0:0:0:
332,248,28917,1,0,0:0:0:0:
340,252,29243,1,0,0:0:0:0:
340,252,29351,1,8,0:0:0:0:
340,252,29569,1,0,0:0:0:0:
340,252,29786,1,0,0:0:0:0:
340,252,29895,1,0,0:0:0:0:
340,252,30004,1,0,0:0:0:0:
340,252,30221,1,8,0:0:0:0:
340,252,30438,1,0,0:0:0:0:
328,248,30656,1,0,0:0:0:0:
328,248,30764,1,0,0:0:0:0:
328,248,30873,1,8,0:0:0:0:
328,240,31090,1,8,0:0:0:0:
328,240,31308,1,0,0:0:0:0:
328,248,31525,1,8,0:0:0:0:
328,248,31634,1,8,0:0:0:0:
328,248,31743,1,0,0:0:0:0:
328,240,31960,1,8,0:0:0:0:
328,240,32177,1,0,0:0:0:0:
328,248,32395,1,0,0:0:0:0:
352,256,32721,1,0,0:0:0:0:
352,248,32830,1,8,0:0:0:0:
352,248,33047,1,0,0:0:0:0:
352,248,33264,1,0,0:0:0:0:
352,248,33373,1,0,0:0:0:0:
352,248,33482,1,0,0:0:0:0:
352,248,33699,1,8,0:0:0:0:
352,248,33917,1,0,0:0:0:0:
368,296,34134,1,0,0:0:0:0:
352,248,34243,1,8,0:0:0:0:
352,248,34351,1,0,0:0:0:0:
368,296,34569,1,8,0:0:0:0:
332,244,34786,1,0,0:0:0:0:
332,244,35004,1,8,0:0:0:0:
332,244,35112,1,8,0:0:0:0:
332,244,35221,1,0,0:0:0:0:
332,244,35330,1,8,0:0:0:0:
312,232,35438,1,8,0:0:0:0:
328,232,35656,1,0,0:0:0:0:
328,232,35873,1,4,0:0:0:0:
316,248,36525,1,8,0:0:0:0:
316,248,36743,1,0,0:0:0:0:
328,220,37177,1,8,0:0:0:0:
328,220,37395,1,0,0:0:0:0:
328,220,37612,1,0,0:0:0:0:
344,240,38264,1,8,0:0:0:0:
344,240,38482,1,0,0:0:0:0:
344,240,38917,1,0,0:0:0:0:
344,240,39351,1,0,0:0:0:0:
328,216,40004,1,8,0:0:0:0:
328,216,40221,1,0,0:0:0:0:
328,216,40656,1,8,0:0:0:0:
328,216,40873,1,0,0:0:0:0:
328,216,41090,1,0,0:0:0:0:
304,204,41743,1,8,0:0:0:0:
304,204,41960,1,0,0:0:0:0:
304,204,42395,1,8,0:0:0:0:
304,204,42830,1,0,0:0:0:0:
328,244,43264,1,0,0:0:0:0:
328,244,43699,1,0,0:0:0:0:
328,244,44134,1,0,0:0:0:0:
336,240,44569,1,8,0:0:0:0:
336,232,45004,1,0,0:0:0:0:
336,232,45438,1,0,0:0:0:0:
336,232,45873,1,0,0:0:0:0:
288,164,46308,1,0,0:0:0:0:
312,228,46525,1,0,0:0:0:0:
328,224,46743,1,8,0:0:0:0:
328,224,46960,1,0,0:0:0:0:
328,224,47177,1,0,0:0:0:0:
328,224,47286,1,0,0:0:0:0:
328,224,47395,1,0,0:0:0:0:
328,224,47612,1,8,0:0:0:0:
328,224,47830,1,0,0:0:0:0:
328,224,48047,1,4,0:0:0:0:
316,216,48917,1,0,0:0:0:0:
316,216,49025,1,0,0:0:0:0:
316,216,49134,1,0,0:0:0:0:
316,216,49243,1,0,0:0:0:0:
316,216,49351,1,8,0:0:0:0:
316,216,49569,1,0,0:0:0:0:
316,216,49786,1,0,0:0:0:0:
320,204,50112,1,8,0:0:0:0:
316,216,50438,1,0,0:0:0:0:
304,232,50656,1,4,0:0:0:0:
312,232,50982,1,0,0:0:0:0:
312,232,51090,1,8,0:0:0:0:
312,232,51308,1,0,0:0:0:0:
312,232,51525,1,0,0:0:0:0:
312,232,51634,1,0,0:0:0:0:
312,232,51743,1,0,0:0:0:0:
312,232,51960,1,8,0:0:0:0:
312,232,52177,1,0,0:0:0:0:
344,268,52395,1,8,0:0:0:0:
344,268,52504,1,8,0:0:0:0:
348,288,52612,1,0,0:0:0:0:
312,232,52830,1,8,0:0:0:0:
312,232,53047,1,0,0:0:0:0:
360,264,53264,1,0,0:0:0:0:
312,232,53482,1,0,0:0:0:0:
312,232,53699,1,8,0:0:0:0:
312,232,53808,1,8,0:0:0:0:
312,232,53917,1,0,0:0:0:0:
312,232,54134,1,0,0:0:0:0:
304,224,54351,1,8,0:0:0:0:
304,224,54460,1,8,0:0:0:0:
304,224,54569,1,0,0:0:0:0:
304,224,54786,1,8,0:0:0:0:
304,224,55004,1,0,0:0:0:0:
304,224,55112,1,0,0:0:0:0:
304,224,55221,1,8,0:0:0:0:
304,224,55438,1,0,0:0:0:0:
304,224,55656,1,8,0:0:0:0:
304,224,55764,1,8,0:0:0:0:
304,224,55873,1,0,0:0:0:0:
304,224,56090,1,0,0:0:0:0:
304,224,56308,1,8,0:0:0:0:
304,224,56525,1,0,0:0:0:0:
304,224,56743,1,0,0:0:0:0:
328,232,56960,1,0,0:0:0:0:
328,232,57069,1,0,0:0:0:0:
328,232,57177,1,8,0:0:0:0:
328,232,57395,1,0,0:0:0:0:
328,232,57612,1,8,0:0:0:0:
328,232,57721,1,8,0:0:0:0:
328,232,57830,1,0,0:0:0:0:
328,232,58047,1,8,0:0:0:0:
328,232,58264,1,0,0:0:0:0:
328,232,58482,1,0,0:0:0:0:
328,232,58590,1,0,0:0:0:0:
328,232,58699,1,0,0:0:0:0:
328,232,58917,1,8,0:0:0:0:
328,232,59134,1,0,0:0:0:0:
328,232,59351,1,8,0:0:0:0:
328,232,59460,1,8,0:0:0:0:
328,232,59569,1,0,0:0:0:0:
328,232,59786,1,8,0:0:0:0:
344,260,60004,1,0,0:0:0:0:
292,244,60221,1,4,0:0:0:0:
292,244,60438,1,8,0:0:0:0:
292,244,60547,1,8,0:0:0:0:
292,244,60656,1,0,0:0:0:0:
292,244,60873,1,8,0:0:0:0:
292,244,61090,1,4,0:0:0:0:
292,244,61308,1,8,0:0:0:0:
292,244,61417,1,8,0:0:0:0:
292,244,61525,1,0,0:0:0:0:
292,244,61743,1,8,0:0:0:0:
292,244,61960,1,4,0:0:0:0:
292,244,62177,1,8,0:0:0:0:
292,244,62250,1,8,0:0:0:0:
292,228,62322,1,8,0:0:0:0:
292,244,62395,1,0,0:0:0:0:
312,212,62612,1,8,0:0:0:0:
312,208,62830,1,0,0:0:0:0:
312,208,62902,1,0,0:0:0:0:
312,208,62975,1,0,0:0:0:0:
312,208,63047,1,8,0:0:0:0:
312,208,63119,1,8,0:0:0:0:
312,208,63192,1,8,0:0:0:0:
312,208,63264,1,0,0:0:0:0:
320,216,63482,1,8,0:0:0:0:
320,216,63554,1,8,0:0:0:0:
320,216,63627,1,8,0:0:0:0:
320,216,63699,1,0,0:0:0:0:
296,244,63917,1,0,0:0:0:0:
300,204,64025,1,0,0:0:0:0:
304,216,64134,1,8,0:0:0:0:
336,216,64351,1,8,0:0:0:0:
336,216,64569,1,0,0:0:0:0:
336,216,64786,1,8,0:0:0:0:
336,216,64895,1,8,0:0:0:0:
336,216,65004,1,0,0:0:0:0:
336,216,65221,1,8,0:0:0:0:
336,216,65438,1,0,0:0:0:0:
336,216,65547,1,0,0:0:0:0:
336,216,65764,1,0,0:0:0:0:
336,216,65873,1,8,0:0:0:0:
328,216,66090,1,8,0:0:0:0:
328,216,66308,1,0,0:0:0:0:
328,216,66525,1,8,0:0:0:0:
328,216,66634,1,8,0:0:0:0:
328,216,66743,1,0,0:0:0:0:
328,216,66960,1,8,0:0:0:0:
328,216,67177,1,0,0:0:0:0:
328,216,67286,1,0,0:0:0:0:
328,216,67395,1,8,0:0:0:0:
328,216,67504,1,0,0:0:0:0:
320,224,67830,1,0,0:0:0:0:
320,224,68047,1,8,0:0:0:0:
320,224,68264,1,0,0:0:0:0:
320,224,68373,1,0,0:0:0:0:
320,224,68482,1,8,0:0:0:0:
320,224,68699,1,8,0:0:0:0:
320,224,68917,1,0,0:0:0:0:
320,224,69025,1,0,0:0:0:0:
320,224,69134,1,8,0:0:0:0:
320,224,69243,1,0,0:0:0:0:
328,232,69351,1,0,0:0:0:0:
328,232,69569,1,8,0:0:0:0:
328,232,69786,1,0,0:0:0:0:
328,232,70004,1,8,0:0:0:0:
332,232,70112,1,8,0:0:0:0:
332,232,70221,1,0,0:0:0:0:
328,232,70438,1,8,0:0:0:0:
328,232,70656,1,4,0:0:0:0:
332,228,70873,1,0,0:0:0:0:
332,228,70982,1,0,0:0:0:0:
332,232,71090,1,8,0:0:0:0:
332,228,71308,1,8,0:0:0:0:
332,228,71525,1,0,0:0:0:0:
332,228,71743,1,8,0:0:0:0:
332,228,71851,1,8,0:0:0:0:
332,228,71960,1,0,0:0:0:0:
332,228,72177,1,8,0:0:0:0:
332,228,72395,1,0,0:0:0:0:
332,228,72612,1,8,0:0:0:0:
300,244,72721,1,8,0:0:0:0:
332,228,72830,1,0,0:0:0:0:
332,228,73047,1,8,0:0:0:0:
332,204,73156,1,8,0:0:0:0:
332,228,73264,1,0,0:0:0:0:
332,228,73482,1,8,0:0:0:0:
332,228,73699,1,0,0:0:0:0:
340,236,73917,1,8,0:0:0:0:
336,236,74134,1,0,0:0:0:0:
336,236,74243,1,0,0:0:0:0:
336,236,74351,1,8,0:0:0:0:
336,236,74460,1,0,0:0:0:0:
328,236,74786,1,8,0:0:0:0:
328,236,75004,1,0,0:0:0:0:
328,236,75221,1,8,0:0:0:0:
328,236,75330,1,8,0:0:0:0:
328,236,75438,1,0,0:0:0:0:
328,236,75656,1,8,0:0:0:0:
328,236,75873,1,0,0:0:0:0:
328,236,75982,1,0,0:0:0:0:
328,236,76090,1,8,0:0:0:0:
328,236,76199,1,0,0:0:0:0:
312,232,76525,5,8,0:0:0:0:
296,224,76743,1,0,0:0:0:0:
284,264,76960,1,0,0:0:0:0:
288,256,77033,1,0,0:0:0:0:
288,256,77105,1,0,0:0:0:0:
288,256,77177,1,8,0:0:0:0:
260,200,77612,5,8,0:0:0:0:
260,200,77652,1,0,0:0:0:0:
260,200,77721,5,0,0:0:0:0:
260,200,77761,1,8,0:0:0:0:
260,200,77830,5,0,0:0:0:0:
260,200,77870,1,0,0:0:0:0:
260,200,77938,5,8,0:0:0:0:
260,200,77978,1,0,0:0:0:0:
260,200,78047,5,0,0:0:0:0:
260,200,78087,1,8,0:0:0:0:
260,200,78156,5,0,0:0:0:0:
260,200,78196,1,0,0:0:0:0:
260,200,78264,5,8,0:0:0:0:
260,200,78304,1,0,0:0:0:0:
260,200,78373,5,0,0:0:0:0:
260,200,78413,1,8,0:0:0:0:
260,200,78482,5,0,0:0:0:0:
260,200,78522,1,0,0:0:0:0:
260,200,78590,5,8,0:0:0:0:
260,200,78630,1,0,0:0:0:0:
260,200,78699,5,0,0:0:0:0:
260,200,78739,1,8,0:0:0:0:
260,200,78808,5,0,0:0:0:0:
260,200,78848,1,0,0:0:0:0:
260,200,78917,5,8,0:0:0:0:
260,200,78957,1,0,0:0:0:0:
260,200,79026,5,0,0:0:0:0:
260,200,79066,1,8,0:0:0:0:
260,200,79135,5,0,0:0:0:0:
260,200,79175,1,0,0:0:0:0:
260,200,79243,5,8,0:0:0:0:
260,200,79283,1,0,0:0:0:0:
260,200,79352,5,0,0:0:0:0:
260,200,79392,1,8,0:0:0:0:
260,200,79461,5,0,0:0:0:0:
260,200,79501,1,0,0:0:0:0:
260,200,79569,5,8,0:0:0:0:
260,200,79609,1,0,0:0:0:0:
260,200,79678,5,0,0:0:0:0:
260,200,79718,1,8,0:0:0:0:
260,200,79787,5,0,0:0:0:0:
260,200,79827,1,0,0:0:0:0:
260,200,79895,5,8,0:0:0:0:
260,200,79935,1,0,0:0:0:0:
260,200,80004,5,0,0:0:0:0:
260,200,80044,1,8,0:0:0:0:
260,200,80113,5,0,0:0:0:0:
260,200,80153,1,0,0:0:0:0:
260,200,80221,5,8,0:0:0:0:
260,200,80261,1,0,0:0:0:0:
260,200,80330,5,0,0:0:0:0:
260,200,80370,1,8,0:0:0:0:
260,200,80439,5,0,0:0:0:0:
260,200,80479,1,0,0:0:0:0:
260,200,80547,5,8,0:0:0:0:
260,200,80587,1,0,0:0:0:0:
260,200,80656,5,0,0:0:0:0:
260,200,80696,1,8,0:0:0:0:
260,200,80765,5,0,0:0:0:0:
260,200,80805,1,0,0:0:0:0:
260,200,80873,5,8,0:0:0:0:
260,200,80913,1,0,0:0:0:0:
260,200,80982,5,0,0:0:0:0:
260,200,81022,1,8,0:0:0:0:
260,200,81091,5,0,0:0:0:0:
260,200,81199,1,0,0:0:0:0:
260,200,81308,1,0,0:0:0:0:
260,200,81417,1,0,0:0:0:0:
260,200,81525,1,0,0:0:0:0:
260,200,81634,1,0,0:0:0:0:
260,200,81743,1,0,0:0:0:0:
260,200,81851,1,0,0:0:0:0:
260,200,81960,5,8,0:0:0:0:
260,200,82069,5,8,0:0:0:0:
260,200,82177,5,8,0:0:0:0:
260,200,82286,1,8,0:0:0:0:
260,200,82395,5,8,0:0:0:0:
260,200,82504,5,8,0:0:0:0:
260,200,82612,5,8,0:0:0:0:
260,200,82721,5,8,0:0:0:0:
260,200,82830,5,0,0:0:0:0:
260,200,82938,1,0,0:0:0:0:
260,200,83047,1,0,0:0:0:0:
260,200,83156,1,0,0:0:0:0:
260,200,83264,1,0,0:0:0:0:
260,200,83373,1,0,0:0:0:0:
260,200,83482,1,0,0:0:0:0:
260,200,83590,1,0,0:0:0:0:
260,200,83699,5,8,0:0:0:0:
260,200,83808,5,8,0:0:0:0:
260,200,83917,5,8,0:0:0:0:
260,200,84025,5,8,0:0:0:0:
260,200,84134,1,0,0:0:0:0:
260,200,84243,1,0,0:0:0:0:
260,200,84351,1,0,0:0:0:0:
260,200,84460,1,0,0:0:0:0:
260,200,84569,5,8,0:0:0:0:
260,200,84609,1,0,0:0:0:0:
260,200,84678,5,0,0:0:0:0:
260,200,84718,1,8,0:0:0:0:
260,200,84787,5,0,0:0:0:0:
260,200,84827,1,0,0:0:0:0:
260,200,84895,5,8,0:0:0:0:
260,200,84935,1,0,0:0:0:0:
260,200,85004,5,0,0:0:0:0:
260,200,85044,1,8,0:0:0:0:
260,200,85113,5,0,0:0:0:0:
260,200,85153,1,0,0:0:0:0:
260,200,85221,5,8,0:0:0:0:
260,200,85261,1,0,0:0:0:0:
260,200,85330,5,0,0:0:0:0:
260,200,85370,1,8,0:0:0:0:
260,200,85439,5,8,0:0:0:0:
260,200,85547,5,8,0:0:0:0:
260,200,85656,5,8,0:0:0:0:
260,200,85764,5,8,0:0:0:0:
260,200,85873,5,8,0:0:0:0:
260,200,85982,5,8,0:0:0:0:
260,200,86090,5,8,0:0:0:0:
260,200,86199,5,8,0:0:0:0:
260,200,86308,5,8,0:0:0:0:
260,200,86348,1,0,0:0:0:0:
260,200,86417,5,0,0:0:0:0:
260,200,86457,1,8,0:0:0:0:
260,200,86526,5,0,0:0:0:0:
260,200,86566,1,0,0:0:0:0:
260,200,86634,5,8,0:0:0:0:
260,200,86674,1,0,0:0:0:0:
260,200,86743,5,0,0:0:0:0:
260,200,86783,1,8,0:0:0:0:
260,200,86852,5,0,0:0:0:0:
260,200,86892,1,0,0:0:0:0:
260,200,86960,5,8,0:0:0:0:
260,200,87000,1,0,0:0:0:0:
260,200,87069,5,0,0:0:0:0:
260,200,87109,1,8,0:0:0:0:
260,200,87177,1,0,0:0:0:0:
260,200,87286,1,0,0:0:0:0:
260,200,87395,5,0,0:0:0:0:
260,200,87504,1,0,0:0:0:0:
260,200,87612,1,0,0:0:0:0:
260,200,87721,1,0,0:0:0:0:
260,200,87830,1,0,0:0:0:0:
260,200,87938,1,0,0:0:0:0:
260,200,88047,5,8,0:0:0:0:
260,200,88087,1,0,0:0:0:0:
260,200,88156,5,0,0:0:0:0:
260,200,88196,1,8,0:0:0:0:
260,200,88265,5,0,0:0:0:0:
260,200,88305,1,0,0:0:0:0:
260,200,88373,5,8,0:0:0:0:
260,200,88413,1,0,0:0:0:0:
260,200,88482,1,0,0:0:0:0:
260,200,88591,1,0,0:0:0:0:
260,200,88700,1,0,0:0:0:0:
260,200,88808,1,0,0:0:0:0:
260,200,88917,5,8,0:0:0:0:
260,200,88957,1,0,0:0:0:0:
260,200,89026,5,0,0:0:0:0:
260,200,89066,1,8,0:0:0:0:
260,200,89135,5,0,0:0:0:0:
260,200,89175,1,0,0:0:0:0:
260,200,89243,5,8,0:0:0:0:
260,200,89283,1,0,0:0:0:0:
260,200,89351,5,8,0:0:0:0:
260,200,89460,5,8,0:0:0:0:
260,200,89568,5,8,0:0:0:0:
260,200,89677,5,8,0:0:0:0:
260,200,89786,5,8,0:0:0:0:
260,200,89826,1,0,0:0:0:0:
260,200,89895,5,0,0:0:0:0:
260,200,89935,1,8,0:0:0:0:
260,200,90004,5,0,0:0:0:0:
260,200,90044,1,0,0:0:0:0:
260,200,90112,5,8,0:0:0:0:
260,200,90152,1,0,0:0:0:0:
260,200,90221,5,0,0:0:0:0:
260,200,90261,1,8,0:0:0:0:
260,200,90330,5,0,0:0:0:0:
260,200,90370,1,0,0:0:0:0:
260,200,90438,5,8,0:0:0:0:
260,200,90478,1,0,0:0:0:0:
260,200,90547,5,0,0:0:0:0:
260,200,90587,1,8,0:0:0:0:
260,200,90655,5,8,0:0:0:0:
260,200,90764,5,8,0:0:0:0:
260,200,90873,5,8,0:0:0:0:
260,200,90982,5,8,0:0:0:0:
260,200,91090,5,0,0:0:0:0:
260,200,91199,5,8,0:0:0:0:
260,200,91307,5,8,0:0:0:0:
260,200,91416,5,8,0:0:0:0:
260,200,91525,5,8,0:0:0:0:
260,200,91565,1,0,0:0:0:0:
260,200,91634,5,0,0:0:0:0:
260,200,91674,1,8,0:0:0:0:
260,200,91743,5,0,0:0:0:0:
260,200,91783,1,0,0:0:0:0:
260,200,91851,5,8,0:0:0:0:
260,200,91891,1,0,0:0:0:0:
260,200,91960,5,0,0:0:0:0:
260,200,92000,1,8,0:0:0:0:
260,200,92069,5,0,0:0:0:0:
260,200,92109,1,0,0:0:0:0:
260,200,92177,5,8,0:0:0:0:
260,200,92217,1,0,0:0:0:0:
260,200,92286,5,0,0:0:0:0:
260,200,92326,1,8,0:0:0:0:
260,200,92395,5,0,0:0:0:0:
260,200,92435,1,0,0:0:0:0:
260,200,92503,5,8,0:0:0:0:
260,200,92543,1,0,0:0:0:0:
260,200,92612,5,0,0:0:0:0:
260,200,92652,1,8,0:0:0:0:
260,200,92721,5,0,0:0:0:0:
260,200,92761,1,0,0:0:0:0:
260,200,92830,5,8,0:0:0:0:
260,200,92870,1,0,0:0:0:0:
260,200,92939,5,0,0:0:0:0:
260,200,92979,1,8,0:0:0:0:
260,200,93048,5,0,0:0:0:0:
260,200,93088,1,0,0:0:0:0:
260,200,93156,5,8,0:0:0:0:
260,200,93196,1,0,0:0:0:0:
260,200,93265,5,0,0:0:0:0:
260,200,93305,1,8,0:0:0:0:
260,200,93374,5,0,0:0:0:0:
260,200,93414,1,0,0:0:0:0:
260,200,93482,5,8,0:0:0:0:
260,200,93522,1,0,0:0:0:0:
260,200,93591,5,0,0:0:0:0:
260,200,93631,1,8,0:0:0:0:
260,200,93700,5,0,0:0:0:0:
260,200,93740,1,0,0:0:0:0:
260,200,93808,5,8,0:0:0:0:
260,200,93848,1,0,0:0:0:0:
260,200,93917,5,0,0:0:0:0:
260,200,93957,1,8,0:0:0:0:
260,200,94026,5,0,0:0:0:0:
260,200,94066,1,0,0:0:0:0:
260,200,94134,5,8,0:0:0:0:
260,200,94174,1,0,0:0:0:0:
260,200,94243,5,0,0:0:0:0:
260,200,94283,1,8,0:0:0:0:
260,200,94352,5,0,0:0:0:0:
260,200,94392,1,0,0:0:0:0:
260,200,94460,5,8,0:0:0:0:
260,200,94500,1,0,0:0:0:0:
260,200,94569,5,0,0:0:0:0:
260,200,94609,1,8,0:0:0:0:
260,200,94678,5,0,0:0:0:0:
260,200,94718,1,0,0:0:0:0:
260,200,94786,5,8,0:0:0:0:
260,200,94826,1,0,0:0:0:0:
260,200,94895,5,0,0:0:0:0:
260,200,94935,1,8,0:0:0:0:
260,200,95004,1,0,0:0:0:0:
260,200,95113,1,0,0:0:0:0:
260,200,95222,1,0,0:0:0:0:
260,200,95330,1,0,0:0:0:0:
260,200,95438,1,0,0:0:0:0:
260,200,95547,1,0,0:0:0:0:
260,200,95656,1,0,0:0:0:0:
260,200,95764,1,0,0:0:0:0:
260,200,95872,5,8,0:0:0:0:
260,200,95981,5,8,0:0:0:0:
260,200,96090,5,8,0:0:0:0:
260,200,96198,5,8,0:0:0:0:
260,200,96307,5,8,0:0:0:0:
260,200,96416,5,8,0:0:0:0:
260,200,96524,5,8,0:0:0:0:
260,200,96633,5,8,0:0:0:0:
260,200,96743,5,8,0:0:0:0:
260,200,96783,1,0,0:0:0:0:
260,200,96852,5,0,0:0:0:0:
260,200,96892,1,8,0:0:0:0:
260,200,96961,5,0,0:0:0:0:
260,200,97001,1,0,0:0:0:0:
260,200,97069,5,8,0:0:0:0:
260,200,97109,1,0,0:0:0:0:
260,200,97178,5,0,0:0:0:0:
260,200,97218,1,8,0:0:0:0:
260,200,97287,5,0,0:0:0:0:
260,200,97327,1,0,0:0:0:0:
260,200,97395,5,8,0:0:0:0:
260,200,97435,1,0,0:0:0:0:
260,200,97504,5,0,0:0:0:0:
260,200,97544,1,8,0:0:0:0:
260,200,97612,1,0,0:0:0:0:
260,200,97721,1,0,0:0:0:0:
260,200,97830,1,0,0:0:0:0:
260,200,97938,1,0,0:0:0:0:
260,200,98046,5,8,0:0:0:0:
260,200,98155,5,8,0:0:0:0:
260,200,98264,1,0,0:0:0:0:
260,200,98373,1,0,0:0:0:0:
260,200,98482,5,8,0:0:0:0:
260,200,98522,1,0,0:0:0:0:
260,200,98591,5,0,0:0:0:0:
260,200,98631,1,8,0:0:0:0:
260,200,98700,5,0,0:0:0:0:
260,200,98740,1,0,0:0:0:0:
260,200,98808,5,8,0:0:0:0:
260,200,98848,1,0,0:0:0:0:
260,200,98917,5,0,0:0:0:0:
260,200,98957,1,8,0:0:0:0:
260,200,99026,5,0,0:0:0:0:
260,200,99066,1,0,0:0:0:0:
260,200,99134,5,8,0:0:0:0:
260,200,99174,1,0,0:0:0:0:
260,200,99243,5,0,0:0:0:0:
260,200,99283,1,8,0:0:0:0:
260,200,99352,5,0,0:0:0:0:
260,200,99392,1,0,0:0:0:0:
260,200,99460,5,8,0:0:0:0:
260,200,99500,1,0,0:0:0:0:
260,200,99569,5,0,0:0:0:0:
260,200,99609,1,8,0:0:0:0:
260,200,99678,5,0,0:0:0:0:
260,200,99718,1,0,0:0:0:0:
260,200,99787,5,8,0:0:0:0:
260,200,99827,1,0,0:0:0:0:
260,200,99896,5,0,0:0:0:0:
260,200,99936,1,8,0:0:0:0:
260,200,100005,5,0,0:0:0:0:
260,200,100045,1,0,0:0:0:0:
260,200,100113,5,8,0:0:0:0:
260,200,100153,1,0,0:0:0:0:
260,200,100222,5,0,0:0:0:0:
260,200,100262,1,8,0:0:0:0:
260,200,100331,5,0,0:0:0:0:
260,200,100371,1,0,0:0:0:0:
260,200,100439,5,8,0:0:0:0:
260,200,100479,1,0,0:0:0:0:
260,200,100548,5,0,0:0:0:0:
260,200,100588,1,8,0:0:0:0:
260,200,100657,5,0,0:0:0:0:
260,200,100697,1,0,0:0:0:0:
260,200,100765,5,8,0:0:0:0:
260,200,100805,1,0,0:0:0:0:
260,200,100874,5,0,0:0:0:0:
260,200,100914,1,8,0:0:0:0:
260,200,100983,5,0,0:0:0:0:
260,200,101023,1,0,0:0:0:0:
260,200,101091,5,8,0:0:0:0:
260,200,101131,1,0,0:0:0:0:
260,200,101200,5,0,0:0:0:0:
260,200,101240,1,8,0:0:0:0:
260,200,101309,5,0,0:0:0:0:
260,200,101349,1,0,0:0:0:0:
260,200,101417,5,8,0:0:0:0:
260,200,101457,1,0,0:0:0:0:
260,200,101526,5,0,0:0:0:0:
260,200,101566,1,8,0:0:0:0:
260,200,101635,5,0,0:0:0:0:
260,200,101675,1,0,0:0:0:0:
260,200,101743,5,8,0:0:0:0:
260,200,101783,1,0,0:0:0:0:
260,200,101852,5,0,0:0:0:0:
260,200,101892,1,8,0:0:0:0:
288,240,101960,1,0,0:0:0:0:
288,240,101996,1,0,0:0:0:0:
260,200,102069,5,8,0:0:0:0:
260,200,102109,1,0,0:0:0:0:
260,200,102178,5,0,0:0:0:0:
260,200,102218,1,8,0:0:0:0:
260,200,102287,5,0,0:0:0:0:
260,200,102327,1,0,0:0:0:0:
260,200,102395,5,8,0:0:0:0:
260,200,102435,1,0,0:0:0:0:
260,200,102504,5,0,0:0:0:0:
260,200,102544,1,8,0:0:0:0:
260,200,102613,5,0,0:0:0:0:
260,200,102653,1,0,0:0:0:0:
260,200,102721,5,8,0:0:0:0:
260,200,102761,1,0,0:0:0:0:
260,200,102830,5,0,0:0:0:0:
260,200,102870,1,8,0:0:0:0:
260,200,102939,5,0,0:0:0:0:
260,200,102979,1,0,0:0:0:0:
260,200,103047,5,8,0:0:0:0:
260,200,103087,1,0,0:0:0:0:
260,200,103156,5,0,0:0:0:0:
260,200,103196,1,8,0:0:0:0:
260,200,103265,5,0,0:0:0:0:
260,200,103305,1,0,0:0:0:0:
260,200,103374,5,8,0:0:0:0:
260,200,103414,1,0,0:0:0:0:
260,200,103483,5,0,0:0:0:0:
260,200,103523,1,8,0:0:0:0:
260,200,103592,5,0,0:0:0:0:
260,200,103632,1,0,0:0:0:0:
260,200,103700,5,8,0:0:0:0:
260,200,103740,1,0,0:0:0:0:
260,200,103809,5,0,0:0:0:0:
260,200,103849,1,8,0:0:0:0:
260,200,103918,5,0,0:0:0:0:
260,200,103958,1,0,0:0:0:0:
260,200,104026,5,8,0:0:0:0:
260,200,104066,1,0,0:0:0:0:
260,200,104135,5,0,0:0:0:0:
260,200,104175,1,8,0:0:0:0:
260,200,104244,5,0,0:0:0:0:
260,200,104284,1,0,0:0:0:0:
260,200,104352,5,8,0:0:0:0:
260,200,104392,1,0,0:0:0:0:
260,200,104461,5,0,0:0:0:0:
260,200,104501,1,8,0:0:0:0:
260,200,104570,5,0,0:0:0:0:
260,200,104610,1,0,0:0:0:0:
260,200,104678,5,8,0:0:0:0:
260,200,104718,1,0,0:0:0:0:
260,200,104787,5,0,0:0:0:0:
260,200,104827,1,8,0:0:0:0:
260,200,104896,5,0,0:0:0:0:
260,200,104936,1,0,0:0:0:0:
260,200,105004,5,8,0:0:0:0:
260,200,105044,1,0,0:0:0:0:
260,200,105113,5,0,0:0:0:0:
260,200,105153,1,8,0:0:0:0:
260,200,105222,5,0,0:0:0:0:
260,200,105262,1,0,0:0:0:0:
260,200,105330,5,8,0:0:0:0:
260,200,105370,1,0,0:0:0:0:
312,272,105438,5,4,0:0:0:0:
256,224,105764,1,0,0:0:0:0:
300,228,106090,1,0,0:0:0:0:
300,228,106417,1,0,0:0:0:0:
300,228,106743,1,0,0:0:0:0:
312,272,107069,1,0,0:0:0:0:
256,224,107395,1,0,0:0:0:0:
300,228,107721,1,0,0:0:0:0:
300,228,108048,1,0,0:0:0:0:
300,228,108374,1,0,0:0:0:0:
312,272,108699,1,0,0:0:0:0:
256,224,109025,1,8,0:0:0:0:
300,228,109351,1,8,0:0:0:0:
300,228,109678,1,8,0:0:0:0:
300,228,110004,1,8,0:0:0:0:
312,272,110330,1,8,0:0:0:0:
256,224,110656,1,0,0:0:0:0:
300,228,110982,1,0,0:0:0:0:
300,228,111309,1,0,0:0:0:0:
300,228,111635,1,0,0:0:0:0:
312,272,111960,1,0,0:0:0:0:
256,224,112286,1,8,0:0:0:0:
300,228,112612,1,8,0:0:0:0:
300,228,112939,1,8,0:0:0:0:
300,228,113265,1,8,0:0:0:0:
312,272,113590,1,8,0:0:0:0:
256,224,113916,1,8,0:0:0:0:
300,228,114242,1,8,0:0:0:0:
300,228,114569,1,8,0:0:0:0:
300,228,114895,1,8,0:0:0:0:
312,272,115221,1,8,0:0:0:0:
256,224,115547,1,8,0:0:0:0:
300,228,115873,1,0,0:0:0:0:
300,228,116200,1,0,0:0:0:0:
300,228,116526,1,0,0:0:0:0:
312,272,116851,1,0,0:0:0:0:
256,224,117177,1,0,0:0:0:0:
300,228,117503,1,0,0:0:0:0:
300,228,117612,1,4,0:0:0:0:
276,220,117830,1,8,0:0:0:0:
308,216,118156,1,0,0:0:0:0:
308,216,118264,1,0,0:0:0:0:
316,224,118482,1,8,0:0:0:0:
316,220,118699,1,0,0:0:0:0:
308,216,118808,1,8,0:0:0:0:
308,216,118917,1,0,0:0:0:0:
312,212,119134,1,8,0:0:0:0:
316,224,119351,1,0,0:0:0:0:
316,224,119460,1,8,0:0:0:0:
316,220,119569,1,0,0:0:0:0:
292,216,119786,1,8,0:0:0:0:
296,212,119895,1,0,0:0:0:0:
296,212,120112,1,8,0:0:0:0:
296,212,120221,1,0,0:0:0:0:
296,212,120330,1,8,0:0:0:0:
296,212,120438,1,0,0:0:0:0:
312,224,120547,1,0,0:0:0:0:
292,216,120656,1,8,0:0:0:0:
316,224,120873,1,0,0:0:0:0:
296,212,120982,1,8,0:0:0:0:
296,212,121090,1,0,0:0:0:0:
296,212,121199,1,8,0:0:0:0:
296,212,121308,1,0,0:0:0:0:
316,208,121525,1,8,0:0:0:0:
316,208,121634,1,0,0:0:0:0:
316,208,121743,1,8,0:0:0:0:
316,208,121851,1,8,0:0:0:0:
316,208,121960,1,0,0:0:0:0:
316,208,122069,1,8,0:0:0:0:
316,208,122177,1,0,0:0:0:0:
316,208,122286,1,0,0:0:0:0:
316,208,122395,1,8,0:0:0:0:
304,208,122612,1,0,0:0:0:0:
304,208,122721,1,8,0:0:0:0:
304,208,122830,1,0,0:0:0:0:
304,208,122938,1,8,0:0:0:0:
304,208,123047,1,0,0:0:0:0:
304,208,123264,1,8,0:0:0:0:
304,208,123373,1,0,0:0:0:0:
304,208,123482,1,0,0:0:0:0:
304,208,123590,1,8,0:0:0:0:
304,208,123699,1,0,0:0:0:0:
304,208,123917,1,8,0:0:0:0:
304,208,124025,1,8,0:0:0:0:
304,208,124134,1,0,0:0:0:0:
304,208,124243,1,8,0:0:0:0:
304,208,124351,1,0,0:0:0:0:
304,208,124569,1,8,0:0:0:0:
304,208,124677,1,0,0:0:0:0:
304,208,124786,1,0,0:0:0:0:
304,208,124895,1,8,0:0:0:0:
304,208,125004,1,0,0:0:0:0:
304,208,125221,1,8,0:0:0:0:
304,208,125330,1,8,0:0:0:0:
304,208,125438,1,0,0:0:0:0:
304,208,125547,1,8,0:0:0:0:
304,208,125656,1,0,0:0:0:0:
304,208,125764,1,0,0:0:0:0:
304,208,125873,1,8,0:0:0:0:
304,208,125982,1,8,0:0:0:0:
304,208,126090,1,0,0:0:0:0:
312,220,126199,1,8,0:0:0:0:
312,220,126308,1,0,0:0:0:0:
312,220,126417,1,8,0:0:0:0:
316,220,126525,1,0,0:0:0:0:
316,220,126634,1,0,0:0:0:0:
316,220,126743,1,8,0:0:0:0:
320,244,126960,1,0,0:0:0:0:
320,240,127069,1,8,0:0:0:0:
316,240,127177,1,0,0:0:0:0:
316,240,127286,1,8,0:0:0:0:
316,240,127395,1,0,0:0:0:0:
316,240,127612,1,8,0:0:0:0:
316,240,127721,1,8,0:0:0:0:
320,244,127830,1,0,0:0:0:0:
320,244,127938,1,8,0:0:0:0:
320,240,128047,1,4,0:0:0:0:
316,240,128264,1,0,0:0:0:0:
316,240,128373,1,0,0:0:0:0:
316,240,128482,1,8,0:0:0:0:
316,240,128590,1,8,0:0:0:0:
316,240,128699,1,0,0:0:0:0:
320,244,128917,1,8,0:0:0:0:
320,240,129025,1,8,0:0:0:0:
316,240,129134,1,0,0:0:0:0:
316,240,129243,1,0,0:0:0:0:
316,240,129351,1,0,0:0:0:0:
316,240,129569,1,8,0:0:0:0:
316,240,129677,1,0,0:0:0:0:
320,244,129786,1,0,0:0:0:0:
320,244,129895,1,8,0:0:0:0:
320,240,130004,1,0,0:0:0:0:
316,240,130221,1,8,0:0:0:0:
316,240,130330,1,8,0:0:0:0:
316,240,130438,1,8,0:0:0:0:
316,240,130547,1,8,0:0:0:0:
316,240,130656,1,0,0:0:0:0:
316,224,130873,1,8,0:0:0:0:
316,224,130982,1,0,0:0:0:0:
316,224,131090,1,8,0:0:0:0:
316,220,131199,1,8,0:0:0:0:
316,220,131308,1,0,0:0:0:0:
316,220,131417,1,8,0:0:0:0:
316,220,131525,1,4,0:0:0:0:
312,224,131743,1,8,0:0:0:0:
332,244,132069,1,0,0:0:0:0:
332,244,132177,1,0,0:0:0:0:
320,236,132395,1,8,0:0:0:0:
320,236,132504,1,8,0:0:0:0:
320,236,132612,1,0,0:0:0:0:
320,236,132721,1,8,0:0:0:0:
320,236,132830,1,0,0:0:0:0:
308,220,133264,1,0,0:0:0:0:
280,224,133590,1,0,0:0:0:0:
280,224,133699,1,8,0:0:0:0:
296,208,133917,1,8,0:0:0:0:
296,208,134134,1,0,0:0:0:0:
296,208,134243,1,0,0:0:0:0:
296,208,134351,1,0,0:0:0:0:
296,208,134569,1,8,0:0:0:0:
296,208,134786,1,0,0:0:0:0:
296,208,135004,1,0,0:0:0:0:
296,208,135112,1,0,0:0:0:0:
296,208,135221,1,0,0:0:0:0:
296,208,135438,1,8,0:0:0:0:
296,208,135656,1,0,0:0:0:0:
296,208,135764,1,0,0:0:0:0:
296,208,135873,1,8,0:0:0:0:
296,208,136090,1,0,0:0:0:0:
296,208,136308,1,8,0:0:0:0:
296,208,136525,1,0,0:0:0:0:
296,208,136743,1,0,0:0:0:0:
296,208,136851,1,0,0:0:0:0:
296,208,136960,1,0,0:0:0:0:
296,208,137177,1,8,0:0:0:0:
296,208,137395,1,0,0:0:0:0:
296,208,137612,1,8,0:0:0:0:
296,208,137721,1,8,0:0:0:0:
296,208,137830,1,0,0:0:0:0:
296,208,138047,1,8,0:0:0:0:
296,208,138264,1,0,0:0:0:0:
296,208,138482,1,0,0:0:0:0:
296,208,138590,1,0,0:0:0:0:
296,208,138699,1,8,0:0:0:0:
356,240,138917,1,8,0:0:0:0:
356,240,139134,1,0,0:0:0:0:
368,264,139351,1,8,0:0:0:0:
368,264,139460,1,8,0:0:0:0:
368,264,139569,1,0,0:0:0:0:
296,224,139786,1,0,0:0:0:0:
296,224,140004,1,8,0:0:0:0:
332,264,140112,1,0,0:0:0:0:
296,224,140221,1,0,0:0:0:0:
320,224,140547,1,0,0:0:0:0:
320,224,140656,1,8,0:0:0:0:
320,224,140873,1,0,0:0:0:0:
320,224,141090,1,0,0:0:0:0:
320,224,141199,1,0,0:0:0:0:
320,224,141308,1,0,0:0:0:0:
320,224,141525,1,8,0:0:0:0:
320,224,141743,1,0,0:0:0:0:
320,224,141960,1,0,0:0:0:0:
320,224,142069,1,0,0:0:0:0:
320,224,142177,1,8,0:0:0:0:
352,260,142395,1,8,0:0:0:0:
328,244,142612,1,0,0:0:0:0:
320,224,142830,1,8,0:0:0:0:
320,224,142938,1,8,0:0:0:0:
320,224,143047,1,0,0:0:0:0:
320,224,143264,1,8,0:0:0:0:
312,216,143482,1,0,0:0:0:0:
308,216,143699,1,4,0:0:0:0:
312,228,143917,1,0,0:0:0:0:
312,228,144025,1,0,0:0:0:0:
312,228,144134,1,8,0:0:0:0:
312,228,144351,1,0,0:0:0:0:
312,228,144569,1,4,0:0:0:0:
312,228,144786,1,0,0:0:0:0:
312,228,144895,1,0,0:0:0:0:
312,228,145004,1,8,0:0:0:0:
312,228,145221,1,8,0:0:0:0:
312,228,145438,1,0,0:0:0:0:
312,228,145547,1,0,0:0:0:0:
312,228,145656,1,0,0:0:0:0:
312,228,145764,1,0,0:0:0:0:
312,228,145873,1,8,0:0:0:0:
312,228,146090,1,0,0:0:0:0:
312,228,146199,1,0,0:0:0:0:
312,228,146308,1,8,0:0:0:0:
312,228,146525,1,0,0:0:0:0:
312,228,146743,1,8,0:0:0:0:
320,232,146851,1,8,0:0:0:0:
312,228,146960,1,0,0:0:0:0:
320,232,147069,1,0,0:0:0:0:
312,228,147177,1,0,0:0:0:0:
336,232,147612,1,8,0:0:0:0:
324,224,147830,1,0,0:0:0:0:
324,224,148047,1,0,0:0:0:0:
312,232,148482,1,8,0:0:0:0:
308,248,148699,1,0,0:0:0:0:
316,248,148917,1,0,0:0:0:0:
312,220,149243,1,8,0:0:0:0:
332,244,149569,1,0,0:0:0:0:
332,244,149786,1,0,0:0:0:0:
304,220,150221,1,8,0:0:0:0:
304,220,150656,1,0,0:0:0:0:
296,216,151090,1,8,0:0:0:0:
296,216,151308,1,0,0:0:0:0:
296,216,151525,1,0,0:0:0:0:
296,216,151960,1,8,0:0:0:0:
296,216,152177,1,0,0:0:0:0:
296,216,152395,1,0,0:0:0:0:
296,216,152721,1,8,0:0:0:0:
264,220,153047,1,0,0:0:0:0:
264,220,153264,1,8,0:0:0:0:
268,220,153699,1,8,0:0:0:0:
264,220,153917,1,0,0:0:0:0:
308,224,154134,1,4,0:0:0:0:
300,232,154460,1,0,0:0:0:0:
300,232,154569,1,0,0:0:0:0:
300,216,154786,1,8,0:0:0:0:
300,216,155004,1,0,0:0:0:0:
296,224,155330,1,0,0:0:0:0:
296,224,155438,1,8,0:0:0:0:
296,224,155656,1,8,0:0:0:0:
296,224,155873,1,0,0:0:0:0:
296,224,156199,1,8,0:0:0:0:
296,224,156308,1,0,0:0:0:0:
296,224,156525,1,8,0:0:0:0:
296,224,156743,1,0,0:0:0:0:
296,224,157069,1,8,0:0:0:0:
296,224,157177,1,8,0:0:0:0:
296,224,157395,1,8,0:0:0:0:
296,224,157612,1,0,0:0:0:0:
320,216,157830,1,0,0:0:0:0:
320,216,157938,1,0,0:0:0:0:
320,216,158047,1,8,0:0:0:0:
320,216,158264,1,8,0:0:0:0:
320,216,158482,1,0,0:0:0:0:
320,216,158590,1,0,0:0:0:0:
320,216,158699,1,0,0:0:0:0:
320,216,158808,1,0,0:0:0:0:
320,216,158917,1,8,0:0:0:0:
320,216,159134,1,8,0:0:0:0:
324,216,159351,1,0,0:0:0:0:
300,228,159677,1,8,0:0:0:0:
304,228,160004,1,8,0:0:0:0:
304,228,160221,1,0,0:0:0:0:
304,228,160330,1,0,0:0:0:0:
300,228,160438,1,0,0:0:0:0:
300,228,160656,1,8,0:0:0:0:
316,240,161090,1,4,0:0:0:0:
312,228,161417,1,0,0:0:0:0:
312,228,161525,1,8,0:0:0:0:
312,228,161743,1,8,0:0:0:0:
312,228,161960,1,0,0:0:0:0:
288,232,162286,1,8,0:0:0:0:
288,232,162395,1,0,0:0:0:0:
288,232,162612,1,8,0:0:0:0:
288,232,162830,1,0,0:0:0:0:
296,232,162938,1,0,0:0:0:0:
296,232,163156,1,0,0:0:0:0:
296,232,163264,1,8,0:0:0:0:
296,232,163482,1,8,0:0:0:0:
296,232,163699,1,0,0:0:0:0:
296,232,163917,1,8,0:0:0:0:
296,232,164025,1,8,0:0:0:0:
296,232,164134,1,0,0:0:0:0:
296,232,164351,1,8,0:0:0:0:
296,232,164569,1,0,0:0:0:0:
300,224,164677,1,0,0:0:0:0:
300,228,164786,1,8,0:0:0:0:
300,228,164895,1,0,0:0:0:0:
320,236,165221,1,8,0:0:0:0:
316,236,165438,1,0,0:0:0:0:
316,236,165656,1,8,0:0:0:0:
316,236,165764,1,8,0:0:0:0:
316,236,165873,1,0,0:0:0:0:
320,236,166090,1,8,0:0:0:0:
316,236,166308,1,0,0:0:0:0:
316,236,166417,1,0,0:0:0:0:
316,236,166525,1,8,0:0:0:0:
316,236,166634,1,0,0:0:0:0:
304,232,166851,1,0,0:0:0:0:
304,232,166960,1,8,0:0:0:0:
304,232,167177,1,0,0:0:0:0:
304,232,167395,1,8,0:0:0:0:
304,232,167504,1,8,0:0:0:0:
304,232,167612,1,0,0:0:0:0:
304,232,167721,1,0,0:0:0:0:
304,232,167830,1,8,0:0:0:0:
304,232,168047,1,4,0:0:0:0:
304,232,168373,1,8,0:0:0:0:
280,268,168482,1,0,0:0:0:0:
304,232,168699,1,8,0:0:0:0:
304,232,168917,1,0,0:0:0:0:
316,248,169243,1,8,0:0:0:0:
304,208,169351,1,0,0:0:0:0:
320,248,169569,1,8,0:0:0:0:
320,248,169786,1,0,0:0:0:0:
316,248,169895,1,0,0:0:0:0:
316,252,170112,1,8,0:0:0:0:
316,248,170221,1,0,0:0:0:0:
320,248,170438,1,8,0:0:0:0:
312,240,170656,1,0,0:0:0:0:
336,252,170873,1,8,0:0:0:0:
336,252,170982,1,0,0:0:0:0:
336,252,171090,1,0,0:0:0:0:
320,260,171308,1,8,0:0:0:0:
320,256,171525,1,0,0:0:0:0:
320,256,171634,1,0,0:0:0:0:
320,256,171743,1,8,0:0:0:0:
320,256,171851,1,0,0:0:0:0:
320,260,172177,1,8,0:0:0:0:
320,256,172395,1,0,0:0:0:0:
320,256,172612,1,8,0:0:0:0:
320,256,172721,1,8,0:0:0:0:
320,256,172830,1,0,0:0:0:0:
320,260,173047,1,8,0:0:0:0:
328,264,173264,1,0,0:0:0:0:
328,264,173373,1,0,0:0:0:0:
328,264,173482,1,8,0:0:0:0:
328,264,173590,1,0,0:0:0:0:
328,264,173917,5,8,0:0:0:0:
312,248,174134,1,0,0:0:0:0:
320,248,174351,1,0,0:0:0:0:
320,248,174423,1,0,0:0:0:0:
320,248,174496,1,0,0:0:0:0:
320,248,174568,1,8,0:0:0:0:
260,200,175004,5,8,0:0:0:0:
260,200,175044,1,0,0:0:0:0:
260,200,175113,5,0,0:0:0:0:
260,200,175153,1,8,0:0:0:0:
260,200,175222,5,0,0:0:0:0:
260,200,175262,1,0,0:0:0:0:
260,200,175330,5,8,0:0:0:0:
260,200,175370,1,0,0:0:0:0:
260,200,175439,5,0,0:0:0:0:
260,200,175479,1,8,0:0:0:0:
260,200,175548,5,0,0:0:0:0:
260,200,175588,1,0,0:0:0:0:
260,200,175656,5,8,0:0:0:0:
260,200,175696,1,0,0:0:0:0:
260,200,175765,5,0,0:0:0:0:
260,200,175805,1,8,0:0:0:0:
260,200,175874,5,0,0:0:0:0:
260,200,175914,1,0,0:0:0:0:
260,200,175982,5,8,0:0:0:0:
260,200,176022,1,0,0:0:0:0:
260,200,176091,5,0,0:0:0:0:
260,200,176131,1,8,0:0:0:0:
260,200,176200,5,0,0:0:0:0:
260,200,176240,1,0,0:0:0:0:
260,200,176309,5,8,0:0:0:0:
260,200,176349,1,0,0:0:0:0:
260,200,176418,5,0,0:0:0:0:
260,200,176458,1,8,0:0:0:0:
260,200,176527,5,0,0:0:0:0:
260,200,176567,1,0,0:0:0:0:
260,200,176635,5,8,0:0:0:0:
260,200,176675,1,0,0:0:0:0:
260,200,176744,5,0,0:0:0:0:
260,200,176784,1,8,0:0:0:0:
260,200,176853,5,0,0:0:0:0:
260,200,176893,1,0,0:0:0:0:
260,200,176961,5,8,0:0:0:0:
260,200,177001,1,0,0:0:0:0:
260,200,177070,5,0,0:0:0:0:
260,200,177110,1,8,0:0:0:0:
260,200,177179,5,0,0:0:0:0:
260,200,177219,1,0,0:0:0:0:
260,200,177287,5,8,0:0:0:0:
260,200,177327,1,0,0:0:0:0:
260,200,177396,5,0,0:0:0:0:
260,200,177436,1,8,0:0:0:0:
260,200,177505,5,0,0:0:0:0:
260,200,177545,1,0,0:0:0:0:
260,200,177613,5,8,0:0:0:0:
260,200,177653,1,0,0:0:0:0:
260,200,177722,5,0,0:0:0:0:
260,200,177762,1,8,0:0:0:0:
260,200,177831,5,0,0:0:0:0:
260,200,177871,1,0,0:0:0:0:
260,200,177939,5,8,0:0:0:0:
260,200,177979,1,0,0:0:0:0:
260,200,178048,5,0,0:0:0:0:
260,200,178088,1,8,0:0:0:0:
260,200,178157,5,0,0:0:0:0:
260,200,178197,1,0,0:0:0:0:
260,200,178265,5,8,0:0:0:0:
260,200,178305,1,0,0:0:0:0:
260,200,178374,5,0,0:0:0:0:
260,200,178414,1,8,0:0:0:0:
260,200,178483,5,0,0:0:0:0:
260,200,178591,1,0,0:0:0:0:
260,200,178700,1,0,0:0:0:0:
260,200,178809,1,0,0:0:0:0:
260,200,178917,1,0,0:0:0:0:
260,200,179026,1,0,0:0:0:0:
260,200,179135,1,0,0:0:0:0:
260,200,179243,1,0,0:0:0:0:
260,200,179352,5,8,0:0:0:0:
260,200,179461,5,8,0:0:0:0:
260,200,179569,5,8,0:0:0:0:
260,200,179678,1,8,0:0:0:0:
260,200,179787,5,8,0:0:0:0:
260,200,179896,5,8,0:0:0:0:
260,200,180004,5,8,0:0:0:0:
260,200,180113,5,8,0:0:0:0:
260,200,180222,5,0,0:0:0:0:
260,200,180330,1,0,0:0:0:0:
260,200,180439,1,0,0:0:0:0:
260,200,180548,1,0,0:0:0:0:
260,200,180656,1,0,0:0:0:0:
260,200,180765,1,0,0:0:0:0:
260,200,180874,1,0,0:0:0:0:
260,200,180982,1,0,0:0:0:0:
260,200,181091,5,8,0:0:0:0:
260,200,181200,5,8,0:0:0:0:
260,200,181309,5,8,0:0:0:0:
260,200,181417,5,8,0:0:0:0:
260,200,181526,1,0,0:0:0:0:
260,200,181635,1,0,0:0:0:0:
260,200,181743,1,0,0:0:0:0:
260,200,181852,1,0,0:0:0:0:
260,200,181960,5,8,0:0:0:0:
260,200,182001,1,0,0:0:0:0:
260,200,182070,5,0,0:0:0:0:
260,200,182110,1,8,0:0:0:0:
260,200,182179,5,0,0:0:0:0:
260,200,182219,1,0,0:0:0:0:
260,200,182287,5,8,0:0:0:0:
260,200,182327,1,0,0:0:0:0:
260,200,182396,5,0,0:0:0:0:
260,200,182436,1,8,0:0:0:0:
260,200,182505,5,0,0:0:0:0:
260,200,182545,1,0,0:0:0:0:
260,200,182613,5,8,0:0:0:0:
260,200,182653,1,0,0:0:0:0:
260,200,182722,5,0,0:0:0:0:
260,200,182762,1,8,0:0:0:0:
260,200,182831,5,8,0:0:0:0:
260,200,182939,5,8,0:0:0:0:
260,200,183048,5,8,0:0:0:0:
260,200,183156,5,8,0:0:0:0:
260,200,183265,5,8,0:0:0:0:
260,200,183374,5,8,0:0:0:0:
260,200,183482,5,8,0:0:0:0:
260,200,183591,5,8,0:0:0:0:
260,200,183700,5,8,0:0:0:0:
260,200,183740,1,0,0:0:0:0:
260,200,183809,5,0,0:0:0:0:
260,200,183849,1,8,0:0:0:0:
260,200,183918,5,0,0:0:0:0:
260,200,183958,1,0,0:0:0:0:
260,200,184026,5,8,0:0:0:0:
260,200,184066,1,0,0:0:0:0:
260,200,184135,5,0,0:0:0:0:
260,200,184175,1,8,0:0:0:0:
260,200,184244,5,0,0:0:0:0:
260,200,184284,1,0,0:0:0:0:
260,200,184352,5,8,0:0:0:0:
260,200,184392,1,0,0:0:0:0:
260,200,184461,5,0,0:0:0:0:
260,200,184501,1,8,0:0:0:0:
260,200,184569,1,0,0:0:0:0:
260,200,184678,1,0,0:0:0:0:
260,200,184787,5,0,0:0:0:0:
260,200,184896,1,0,0:0:0:0:
260,200,185004,1,0,0:0:0:0:
260,200,185113,1,0,0:0:0:0:
260,200,185222,1,0,0:0:0:0:
260,200,185330,1,0,0:0:0:0:
260,200,185439,5,8,0:0:0:0:
260,200,185479,1,0,0:0:0:0:
260,200,185548,5,0,0:0:0:0:
260,200,185588,1,8,0:0:0:0:
260,200,185657,5,0,0:0:0:0:
260,200,185697,1,0,0:0:0:0:
260,200,185765,5,8,0:0:0:0:
260,200,185805,1,0,0:0:0:0:
260,200,185874,1,0,0:0:0:0:
260,200,185983,1,0,0:0:0:0:
260,200,186092,1,0,0:0:0:0:
260,200,186200,1,0,0:0:0:0:
260,200,186309,5,8,0:0:0:0:
260,200,186349,1,0,0:0:0:0:
260,200,186418,5,0,0:0:0:0:
260,200,186458,1,8,0:0:0:0:
260,200,186527,5,0,0:0:0:0:
260,200,186567,1,0,0:0:0:0:
260,200,186635,5,8,0:0:0:0:
260,200,186675,1,0,0:0:0:0:
260,200,186743,5,8,0:0:0:0:
260,200,186852,5,8,0:0:0:0:
260,200,186960,5,8,0:0:0:0:
260,200,187069,5,8,0:0:0:0:
260,200,187178,5,8,0:0:0:0:
260,200,187218,1,0,0:0:0:0:
260,200,187287,5,0,0:0:0:0:
260,200,187327,1,8,0:0:0:0:
260,200,187396,5,0,0:0:0:0:
260,200,187436,1,0,0:0:0:0:
260,200,187504,5,8,0:0:0:0:
260,200,187544,1,0,0:0:0:0:
260,200,187613,5,0,0:0:0:0:
260,200,187653,1,8,0:0:0:0:
260,200,187722,5,0,0:0:0:0:
260,200,187762,1,0,0:0:0:0:
260,200,187830,5,8,0:0:0:0:
260,200,187870,1,0,0:0:0:0:
260,200,187939,5,0,0:0:0:0:
260,200,187979,1,8,0:0:0:0:
260,200,188047,5,8,0:0:0:0:
260,200,188156,5,8,0:0:0:0:
260,200,188265,5,8,0:0:0:0:
260,200,188374,5,8,0:0:0:0:
260,200,188482,5,0,0:0:0:0:
260,200,188591,5,8,0:0:0:0:
260,200,188699,5,8,0:0:0:0:
260,200,188808,5,8,0:0:0:0:
260,200,188917,5,8,0:0:0:0:
260,200,188957,1,0,0:0:0:0:
260,200,189026,5,0,0:0:0:0:
260,200,189066,1,8,0:0:0:0:
260,200,189135,5,0,0:0:0:0:
260,200,189175,1,0,0:0:0:0:
260,200,189243,5,8,0:0:0:0:
260,200,189283,1,0,0:0:0:0:
260,200,189352,5,0,0:0:0:0:
260,200,189392,1,8,0:0:0:0:
260,200,189461,5,0,0:0:0:0:
260,200,189501,1,0,0:0:0:0:
260,200,189569,5,8,0:0:0:0:
260,200,189609,1,0,0:0:0:0:
260,200,189678,5,0,0:0:0:0:
260,200,189718,1,8,0:0:0:0:
260,200,189787,5,0,0:0:0:0:
260,200,189827,1,0,0:0:0:0:
260,200,189895,5,8,0:0:0:0:
260,200,189935,1,0,0:0:0:0:
260,200,190004,5,0,0:0:0:0:
260,200,190044,1,8,0:0:0:0:
260,200,190113,5,0,0:0:0:0:
260,200,190153,1,0,0:0:0:0:
260,200,190222,5,8,0:0:0:0:
260,200,190262,1,0,0:0:0:0:
260,200,190331,5,0,0:0:0:0:
260,200,190371,1,8,0:0:0:0:
260,200,190440,5,0,0:0:0:0:
260,200,190480,1,0,0:0:0:0:
260,200,190548,5,8,0:0:0:0:
260,200,190588,1,0,0:0:0:0:
260,200,190657,5,0,0:0:0:0:
260,200,190697,1,8,0:0:0:0:
260,200,190766,5,0,0:0:0:0:
260,200,190806,1,0,0:0:0:0:
260,200,190874,5,8,0:0:0:0:
260,200,190914,1,0,0:0:0:0:
260,200,190983,5,0,0:0:0:0:
260,200,191023,1,8,0:0:0:0:
260,200,191092,5,0,0:0:0:0:
260,200,191132,1,0,0:0:0:0:
260,200,191200,5,8,0:0:0:0:
260,200,191240,1,0,0:0:0:0:
260,200,191309,5,0,0:0:0:0:
260,200,191349,1,8,0:0:0:0:
260,200,191418,5,0,0:0:0:0:
260,200,191458,1,0,0:0:0:0:
260,200,191526,5,8,0:0:0:0:
260,200,191566,1,0,0:0:0:0:
260,200,191635,5,0,0:0:0:0:
260,200,191675,1,8,0:0:0:0:
260,200,191744,5,0,0:0:0:0:
260,200,191784,1,0,0:0:0:0:
260,200,191852,5,8,0:0:0:0:
260,200,191892,1,0,0:0:0:0:
260,200,191961,5,0,0:0:0:0:
260,200,192001,1,8,0:0:0:0:
260,200,192070,5,0,0:0:0:0:
260,200,192110,1,0,0:0:0:0:
260,200,192178,5,8,0:0:0:0:
260,200,192218,1,0,0:0:0:0:
260,200,192287,5,0,0:0:0:0:
260,200,192327,1,8,0:0:0:0:
260,200,192396,1,0,0:0:0:0:
260,200,192505,1,0,0:0:0:0:
260,200,192614,1,0,0:0:0:0:
260,200,192722,1,0,0:0:0:0:
260,200,192830,1,0,0:0:0:0:
260,200,192939,1,0,0:0:0:0:
260,200,193048,1,0,0:0:0:0:
260,200,193156,1,0,0:0:0:0:
260,200,193264,5,8,0:0:0:0:
260,200,193373,5,8,0:0:0:0:
260,200,193482,5,8,0:0:0:0:
260,200,193590,5,8,0:0:0:0:
260,200,193699,5,8,0:0:0:0:
260,200,193808,5,8,0:0:0:0:
260,200,193916,5,8,0:0:0:0:
260,200,194025,5,8,0:0:0:0:
260,200,194135,5,8,0:0:0:0:
260,200,194175,1,0,0:0:0:0:
260,200,194244,5,0,0:0:0:0:
260,200,194284,1,8,0:0:0:0:
260,200,194353,5,0,0:0:0:0:
260,200,194393,1,0,0:0:0:0:
260,200,194461,5,8,0:0:0:0:
260,200,194501,1,0,0:0:0:0:
260,200,194570,5,0,0:0:0:0:
260,200,194610,1,8,0:0:0:0:
260,200,194679,5,0,0:0:0:0:
260,200,194719,1,0,0:0:0:0:
260,200,194787,5,8,0:0:0:0:
260,200,194827,1,0,0:0:0:0:
260,200,194896,5,0,0:0:0:0:
260,200,194936,1,8,0:0:0:0:
260,200,195004,1,0,0:0:0:0:
260,200,195113,1,0,0:0:0:0:
260,200,195222,1,0,0:0:0:0:
260,200,195330,1,0,0:0:0:0:
260,200,195438,5,8,0:0:0:0:
260,200,195547,5,8,0:0:0:0:
260,200,195656,1,0,0:0:0:0:
260,200,195765,1,0,0:0:0:0:
260,200,195874,5,8,0:0:0:0:
260,200,195914,1,0,0:0:0:0:
260,200,195983,5,0,0:0:0:0:
260,200,196023,1,8,0:0:0:0:
260,200,196092,5,0,0:0:0:0:
260,200,196132,1,0,0:0:0:0:
260,200,196200,5,8,0:0:0:0:
260,200,196240,1,0,0:0:0:0:
260,200,196309,5,0,0:0:0:0:
260,200,196349,1,8,0:0:0:0:
260,200,196418,5,0,0:0:0:0:
260,200,196458,1,0,0:0:0:0:
260,200,196526,5,8,0:0:0:0:
260,200,196566,1,0,0:0:0:0:
260,200,196635,5,0,0:0:0:0:
260,200,196675,1,8,0:0:0:0:
260,200,196744,5,0,0:0:0:0:
260,200,196784,1,0,0:0:0:0:
260,200,196852,5,8,0:0:0:0:
260,200,196892,1,0,0:0:0:0:
260,200,196961,5,0,0:0:0:0:
260,200,197001,1,8,0:0:0:0:
260,200,197070,5,0,0:0:0:0:
260,200,197110,1,0,0:0:0:0:
260,200,197179,5,8,0:0:0:0:
260,200,197219,1,0,0:0:0:0:
260,200,197288,5,0,0:0:0:0:
260,200,197328,1,8,0:0:0:0:
260,200,197397,5,0,0:0:0:0:
260,200,197437,1,0,0:0:0:0:
260,200,197505,5,8,0:0:0:0:
260,200,197545,1,0,0:0:0:0:
260,200,197614,5,0,0:0:0:0:
260,200,197654,1,8,0:0:0:0:
260,200,197723,5,0,0:0:0:0:
260,200,197763,1,0,0:0:0:0:
260,200,197831,5,8,0:0:0:0:
260,200,197871,1,0,0:0:0:0:
260,200,197940,5,0,0:0:0:0:
260,200,197980,1,8,0:0:0:0:
260,200,198049,5,0,0:0:0:0:
260,200,198089,1,0,0:0:0:0:
260,200,198157,5,8,0:0:0:0:
260,200,198197,1,0,0:0:0:0:
260,200,198266,5,0,0:0:0:0:
260,200,198306,1,8,0:0:0:0:
260,200,198375,5,0,0:0:0:0:
260,200,198415,1,0,0:0:0:0:
260,200,198483,5,8,0:0:0:0:
260,200,198523,1,0,0:0:0:0:
260,200,198592,5,0,0:0:0:0:
260,200,198632,1,8,0:0:0:0:
260,200,198701,5,0,0:0:0:0:
260,200,198741,1,0,0:0:0:0:
260,200,198809,5,8,0:0:0:0:
260,200,198849,1,0,0:0:0:0:
260,200,198918,5,0,0:0:0:0:
260,200,198958,1,8,0:0:0:0:
260,200,199027,5,0,0:0:0:0:
260,200,199067,1,0,0:0:0:0:
260,200,199135,5,8,0:0:0:0:
260,200,199175,1,0,0:0:0:0:
260,200,199244,5,0,0:0:0:0:
260,200,199284,1,8,0:0:0:0:
288,240,199352,1,0,0:0:0:0:
288,240,199388,1,0,0:0:0:0:
260,200,199461,5,8,0:0:0:0:
260,200,199501,1,0,0:0:0:0:
260,200,199570,5,0,0:0:0:0:
260,200,199610,1,8,0:0:0:0:
260,200,199679,5,0,0:0:0:0:
260,200,199719,1,0,0:0:0:0:
260,200,199787,5,8,0:0:0:0:
260,200,199827,1,0,0:0:0:0:
260,200,199896,5,0,0:0:0:0:
260,200,199936,1,8,0:0:0:0:
260,200,200005,5,0,0:0:0:0:
260,200,200045,1,0,0:0:0:0:
260,200,200113,5,8,0:0:0:0:
260,200,200153,1,0,0:0:0:0:
260,200,200222,5,0,0:0:0:0:
260,200,200262,1,8,0:0:0:0:
260,200,200331,5,0,0:0:0:0:
260,200,200371,1,0,0:0:0:0:
260,200,200439,5,8,0:0:0:0:
260,200,200479,1,0,0:0:0:0:
260,200,200548,5,0,0:0:0:0:
260,200,200588,1,8,0:0:0:0:
260,200,200657,5,0,0:0:0:0:
260,200,200697,1,0,0:0:0:0:
260,200,200766,5,8,0:0:0:0:
260,200,200806,1,0,0:0:0:0:
260,200,200875,5,0,0:0:0:0:
260,200,200915,1,8,0:0:0:0:
260,200,200984,5,0,0:0:0:0:
260,200,201024,1,0,0:0:0:0:
260,200,201092,5,8,0:0:0:0:
260,200,201132,1,0,0:0:0:0:
260,200,201201,5,0,0:0:0:0:
260,200,201241,1,8,0:0:0:0:
260,200,201310,5,0,0:0:0:0:
260,200,201350,1,0,0:0:0:0:
260,200,201418,5,8,0:0:0:0:
260,200,201458,1,0,0:0:0:0:
260,200,201527,5,0,0:0:0:0:
260,200,201567,1,8,0:0:0:0:
260,200,201636,5,0,0:0:0:0:
260,200,201676,1,0,0:0:0:0:
260,200,201744,5,8,0:0:0:0:
260,200,201784,1,0,0:0:0:0:
260,200,201853,5,0,0:0:0:0:
260,200,201893,1,8,0:0:0:0:
260,200,201962,5,0,0:0:0:0:
260,200,202002,1,0,0:0:0:0:
260,200,202070,5,8,0:0:0:0:
260,200,202110,1,0,0:0:0:0:
260,200,202179,5,0,0:0:0:0:
260,200,202219,1,8,0:0:0:0:
260,200,202288,5,0,0:0:0:0:
260,200,202328,1,0,0:0:0:0:
260,200,202396,5,8,0:0:0:0:
260,200,202436,1,0,0:0:0:0:
260,200,202505,5,0,0:0:0:0:
260,200,202545,1,8,0:0:0:0:
260,200,202614,5,0,0:0:0:0:
260,200,202654,1,0,0:0:0:0:
260,200,202722,5,8,0:0:0:0:
260,200,202762,1,0,0:0:0:0:
260,200,202830,5,8,0:0:0:0:
260,200,202869,1,0,0:0:0:0:
260,200,202938,1,0,0:0:0:0:
260,200,203047,5,8,0:0:0:0:
260,200,203086,1,0,0:0:0:0:
260,200,203155,1,0,0:0:0:0:
260,200,203264,5,8,0:0:0:0:
260,200,203304,1,0,0:0:0:0:
260,200,203373,1,0,0:0:0:0:
260,200,203481,5,8,0:0:0:0:
260,200,203521,1,0,0:0:0:0:
260,200,203590,1,0,0:0:0:0:
260,200,203698,5,8,0:0:0:0:
260,200,203738,1,0,0:0:0:0:
260,200,203807,1,0,0:0:0:0:
260,200,203915,5,8,0:0:0:0:
260,200,203955,1,0,0:0:0:0:
260,200,204024,1,0,0:0:0:0:
260,200,204133,5,8,0:0:0:0:
260,200,204173,1,0,0:0:0:0:
260,200,204242,1,0,0:0:0:0:
260,200,204350,5,8,0:0:0:0:
260,200,204390,1,0,0:0:0:0:
260,200,204459,1,0,0:0:0:0:
260,200,204568,5,8,0:0:0:0:
260,200,204608,1,0,0:0:0:0:
260,200,204677,1,0,0:0:0:0:
260,200,204785,5,8,0:0:0:0:
260,200,204825,1,0,0:0:0:0:
260,200,204894,1,0,0:0:0:0:
260,200,205003,5,8,0:0:0:0:
260,200,205043,1,0,0:0:0:0:
260,200,205112,1,0,0:0:0:0:
260,200,205220,5,8,0:0:0:0:
260,200,205260,1,0,0:0:0:0:
260,200,205329,1,0,0:0:0:0:
260,200,205438,5,8,0:0:0:0:
260,200,205479,1,0,0:0:0:0:
260,200,205548,5,0,0:0:0:0:
260,200,205588,1,8,0:0:0:0:
260,200,205657,5,0,0:0:0:0:
260,200,205697,1,0,0:0:0:0:
260,200,205765,5,8,0:0:0:0:
260,200,205805,1,0,0:0:0:0:
260,200,205874,5,0,0:0:0:0:
260,200,205914,1,8,0:0:0:0:
260,200,205983,5,0,0:0:0:0:
260,200,206023,1,0,0:0:0:0:
260,200,206091,5,8,0:0:0:0:
260,200,206131,1,0,0:0:0:0:
260,200,206200,5,0,0:0:0:0:
260,200,206240,1,8,0:0:0:0:
260,200,206308,1,0,0:0:0:0:
260,200,206417,1,0,0:0:0:0:
260,200,206525,1,0,0:0:0:0:
260,200,206634,1,0,0:0:0:0:
260,200,206743,1,0,0:0:0:0:
260,200,206851,1,0,0:0:0:0:
260,200,206960,1,0,0:0:0:0:
260,200,207069,1,0,0:0:0:0:
260,200,207177,5,8,0:0:0:0:
260,200,207218,1,0,0:0:0:0:
260,200,207287,5,0,0:0:0:0:
260,200,207327,1,8,0:0:0:0:
260,200,207396,5,0,0:0:0:0:
260,200,207436,1,0,0:0:0:0:
260,200,207504,5,8,0:0:0:0:
260,200,207544,1,0,0:0:0:0:
260,200,207613,5,0,0:0:0:0:
260,200,207653,1,8,0:0:0:0:
260,200,207722,5,0,0:0:0:0:
260,200,207762,1,0,0:0:0:0:
260,200,207830,5,8,0:0:0:0:
260,200,207870,1,0,0:0:0:0:
260,200,207939,5,0,0:0:0:0:
260,200,207979,1,8,0:0:0:0:
248,196,208047,1,0,0:0:0:0:
260,200,208155,1,0,0:0:0:0:
260,200,208264,1,0,0:0:0:0:
260,200,208373,1,0,0:0:0:0:
260,200,208482,1,0,0:0:0:0:
260,200,208590,1,0,0:0:0:0:
260,200,208699,1,0,0:0:0:0:
260,200,208808,1,0,0:0:0:0:
260,200,208917,5,8,0:0:0:0:
260,200,208958,1,0,0:0:0:0:
260,200,209027,5,0,0:0:0:0:
260,200,209067,1,8,0:0:0:0:
260,200,209136,5,0,0:0:0:0:
260,200,209176,1,0,0:0:0:0:
260,200,209244,5,8,0:0:0:0:
260,200,209284,1,0,0:0:0:0:
260,200,209353,5,0,0:0:0:0:
260,200,209393,1,8,0:0:0:0:
260,200,209462,5,0,0:0:0:0:
260,200,209502,1,0,0:0:0:0:
260,200,209570,5,8,0:0:0:0:
260,200,209610,1,0,0:0:0:0:
260,200,209679,5,0,0:0:0:0:
260,200,209719,1,8,0:0:0:0:
260,200,209785,5,8,0:0:0:0:
260,200,209825,1,0,0:0:0:0:
260,200,209894,1,0,0:0:0:0:
260,200,210002,5,8,0:0:0:0:
260,200,210042,1,0,0:0:0:0:
260,200,210111,1,0,0:0:0:0:
260,200,210220,5,8,0:0:0:0:
260,200,210260,1,0,0:0:0:0:
260,200,210329,1,0,0:0:0:0:
260,200,210437,5,8,0:0:0:0:
260,200,210477,1,0,0:0:0:0:
260,200,210546,1,0,0:0:0:0:
260,200,210656,5,8,0:0:0:0:
260,200,210697,1,0,0:0:0:0:
260,200,210766,5,0,0:0:0:0:
260,200,210806,1,8,0:0:0:0:
260,200,210875,5,0,0:0:0:0:
260,200,210915,1,0,0:0:0:0:
260,200,210983,5,8,0:0:0:0:
260,200,211023,1,0,0:0:0:0:
260,200,211092,5,0,0:0:0:0:
260,200,211132,1,8,0:0:0:0:
260,200,211201,5,0,0:0:0:0:
260,200,211241,1,0,0:0:0:0:
260,200,211309,5,8,0:0:0:0:
260,200,211349,1,0,0:0:0:0:
260,200,211418,5,0,0:0:0:0:
260,200,211458,1,8,0:0:0:0:
260,200,211525,1,0,0:0:0:0:
260,200,211633,1,0,0:0:0:0:
260,200,211742,1,0,0:0:0:0:
260,200,211851,1,0,0:0:0:0:
260,200,211960,1,0,0:0:0:0:
260,200,212068,1,0,0:0:0:0:
260,200,212177,1,0,0:0:0:0:
260,200,212286,1,0,0:0:0:0:
260,200,212395,5,8,0:0:0:0:
260,200,212436,1,0,0:0:0:0:
260,200,212505,5,0,0:0:0:0:
260,200,212545,1,8,0:0:0:0:
260,200,212614,5,0,0:0:0:0:
260,200,212654,1,0,0:0:0:0:
260,200,212722,5,8,0:0:0:0:
260,200,212762,1,0,0:0:0:0:
260,200,212831,5,0,0:0:0:0:
260,200,212871,1,8,0:0:0:0:
260,200,212940,5,0,0:0:0:0:
260,200,212980,1,0,0:0:0:0:
260,200,213048,5,8,0:0:0:0:
260,200,213088,1,0,0:0:0:0:
260,200,213157,5,0,0:0:0:0:
260,200,213197,1,8,0:0:0:0:
260,200,213264,1,0,0:0:0:0:
260,200,213373,1,0,0:0:0:0:
260,200,213482,1,0,0:0:0:0:
260,200,213590,1,0,0:0:0:0:
260,200,213699,1,0,0:0:0:0:
260,200,213807,1,0,0:0:0:0:
260,200,213916,1,0,0:0:0:0:
260,200,214025,1,0,0:0:0:0:
260,200,214134,5,8,0:0:0:0:
260,200,214175,1,0,0:0:0:0:
260,200,214244,5,0,0:0:0:0:
260,200,214284,1,8,0:0:0:0:
260,200,214353,5,0,0:0:0:0:
260,200,214393,1,0,0:0:0:0:
260,200,214461,5,8,0:0:0:0:
260,200,214501,1,0,0:0:0:0:
260,200,214570,5,0,0:0:0:0:
260,200,214610,1,8,0:0:0:0:
260,200,214679,5,0,0:0:0:0:
260,200,214719,1,0,0:0:0:0:
260,200,214787,5,8,0:0:0:0:
260,200,214827,1,0,0:0:0:0:
260,200,214896,5,0,0:0:0:0:
260,200,214936,1,8,0:0:0:0:
260,200,215004,1,0,0:0:0:0:
260,200,215112,1,0,0:0:0:0:
260,200,215221,1,0,0:0:0:0:
260,200,215330,1,0,0:0:0:0:
260,200,215438,5,8,0:0:0:0:
260,200,215546,5,8,0:0:0:0:
260,200,215655,5,8,0:0:0:0:
260,200,215764,5,8,0:0:0:0:
260,200,215873,5,8,0:0:0:0:
260,200,215914,1,0,0:0:0:0:
260,200,215983,5,0,0:0:0:0:
260,200,216023,1,8,0:0:0:0:
260,200,216092,5,0,0:0:0:0:
260,200,216132,1,0,0:0:0:0:
260,200,216200,5,8,0:0:0:0:
260,200,216240,1,0,0:0:0:0:
260,200,216309,5,0,0:0:0:0:
260,200,216349,1,8,0:0:0:0:
260,200,216418,5,0,0:0:0:0:
260,200,216458,1,0,0:0:0:0:
260,200,216526,5,8,0:0:0:0:
260,200,216566,1,0,0:0:0:0:
260,200,216634,5,0,0:0:0:0:
260,200,216674,1,0,0:0:0:0:
260,200,216742,5,8,0:0:0:0:
260,200,216782,1,0,0:0:0:0:
260,200,216851,5,0,0:0:0:0:
260,200,216891,1,8,0:0:0:0:
260,200,216960,5,0,0:0:0:0:
260,200,217000,1,0,0:0:0:0:
260,200,217069,5,8,0:0:0:0:
260,200,217109,1,0,0:0:0:0:
260,200,217178,5,0,0:0:0:0:
260,200,217218,1,8,0:0:0:0:
260,200,217287,5,0,0:0:0:0:
260,200,217327,1,0,0:0:0:0:
260,200,217395,5,8,0:0:0:0:
260,200,217435,1,0,0:0:0:0:
260,200,217504,5,0,0:0:0:0:
260,200,217544,1,8,0:0:0:0:
260,200,217613,5,0,0:0:0:0:
260,200,217653,1,0,0:0:0:0:
260,200,217721,5,8,0:0:0:0:
260,200,217761,1,0,0:0:0:0:
260,200,217825,5,0,0:0:0:0:
260,200,217865,1,8,0:0:0:0:
260,200,217934,5,0,0:0:0:0:
260,200,217974,1,0,0:0:0:0:
260,200,218043,5,8,0:0:0:0:
260,200,218083,1,0,0:0:0:0:
260,200,218152,5,0,0:0:0:0:
260,200,218192,1,8,0:0:0:0:
260,200,218261,5,0,0:0:0:0:
260,200,218301,1,0,0:0:0:0:
260,200,218369,5,8,0:0:0:0:
260,200,218409,1,0,0:0:0:0:
260,200,218478,5,0,0:0:0:0:
260,200,218518,1,8,0:0:0:0:
260,200,218587,5,0,0:0:0:0:
260,200,218627,1,0,0:0:0:0:
260,200,218695,5,8,0:0:0:0:
260,200,218735,1,0,0:0:0:0:
260,200,218804,5,0,0:0:0:0:
260,200,218844,1,8,0:0:0:0:
260,200,218913,5,0,0:0:0:0:
260,200,218953,1,0,0:0:0:0:
260,200,219021,5,8,0:0:0:0:
260,200,219061,1,0,0:0:0:0:
260,200,219130,5,0,0:0:0:0:
260,200,219170,1,8,0:0:0:0:
260,200,219239,5,0,0:0:0:0:
260,200,219279,1,0,0:0:0:0:
260,200,219347,5,8,0:0:0:0:
260,200,219387,1,0,0:0:0:0:
260,200,219456,5,0,0:0:0:0:
260,200,219496,1,8,0:0:0:0:
260,200,219565,5,0,0:0:0:0:
260,200,219605,1,0,0:0:0:0:
260,200,219677,5,8,0:0:0:0:
260,200,219712,1,0,0:0:0:0:
276,208,219786,1,0,0:0:0:0:
276,208,219822,1,8,0:0:0:0:
276,208,219895,1,0,0:0:0:0:
276,208,219931,1,0,0:0:0:0:
276,208,220004,1,8,0:0:0:0:
276,208,220040,1,0,0:0:0:0:
276,208,220112,1,0,0:0:0:0:
276,208,220148,1,8,0:0:0:0:
276,208,220221,1,0,0:0:0:0:
276,208,220330,1,0,0:0:0:0:
260,200,220438,1,0,0:0:0:0:
260,200,220547,1,0,0:0:0:0:
260,200,220656,1,0,0:0:0:0:
260,200,220764,1,0,0:0:0:0:
260,200,220873,1,0,0:0:0:0:
260,200,220982,1,0,0:0:0:0:
260,200,221090,5,8,0:0:0:0:
260,200,221130,1,0,0:0:0:0:
260,200,221199,5,0,0:0:0:0:
260,200,221239,1,8,0:0:0:0:
260,200,221308,5,0,0:0:0:0:
260,200,221348,1,0,0:0:0:0:
260,200,221416,5,8,0:0:0:0:
260,200,221456,1,0,0:0:0:0:
260,200,221525,5,0,0:0:0:0:
260,200,221565,1,8,0:0:0:0:
260,200,221634,5,0,0:0:0:0:
260,200,221674,1,0,0:0:0:0:
260,200,221742,5,8,0:0:0:0:
260,200,221782,1,0,0:0:0:0:
260,200,221851,5,0,0:0:0:0:
260,200,221891,1,8,0:0:0:0:
260,200,221960,1,0,0:0:0:0:
260,200,222068,1,0,0:0:0:0:
260,200,222177,1,0,0:0:0:0:
260,200,222286,1,0,0:0:0:0:
260,200,222395,1,0,0:0:0:0:
260,200,222503,1,0,0:0:0:0:
260,200,222612,1,0,0:0:0:0:
260,200,222721,1,0,0:0:0:0:
260,200,222830,5,8,0:0:0:0:
260,200,222870,1,0,0:0:0:0:
260,200,222939,5,0,0:0:0:0:
260,200,222979,1,8,0:0:0:0:
260,200,223048,5,0,0:0:0:0:
260,200,223088,1,0,0:0:0:0:
260,200,223156,5,8,0:0:0:0:
260,200,223196,1,0,0:0:0:0:
264,240,223264,1,0,0:0:0:0:
272,208,223373,1,8,0:0:0:0:
272,208,223482,1,8,0:0:0:0:
272,208,223590,1,8,0:0:0:0:
260,200,223699,5,8,0:0:0:0:
260,200,223739,1,0,0:0:0:0:
260,200,223808,5,0,0:0:0:0:
260,200,223848,1,8,0:0:0:0:
260,200,223917,5,0,0:0:0:0:
260,200,223957,1,0,0:0:0:0:
260,200,224025,5,8,0:0:0:0:
260,200,224065,1,0,0:0:0:0:
260,200,224134,5,0,0:0:0:0:
260,200,224174,1,8,0:0:0:0:
260,200,224243,5,0,0:0:0:0:
260,200,224283,1,0,0:0:0:0:
260,200,224351,5,8,0:0:0:0:
260,200,224391,1,0,0:0:0:0:
260,200,224460,5,0,0:0:0:0:
260,200,224500,1,8,0:0:0:0:
260,200,224569,5,0,0:0:0:0:
260,200,224609,1,0,0:0:0:0:
260,200,224677,5,8,0:0:0:0:
260,200,224717,1,0,0:0:0:0:
260,200,224786,5,0,0:0:0:0:
260,200,224826,1,8,0:0:0:0:
260,200,224895,5,0,0:0:0:0:
260,200,224935,1,0,0:0:0:0:
260,200,225004,5,8,0:0:0:0:
260,200,225044,1,0,0:0:0:0:
260,200,225113,5,0,0:0:0:0:
260,200,225153,1,8,0:0:0:0:
260,200,225222,5,0,0:0:0:0:
260,200,225262,1,0,0:0:0:0:
260,200,225330,5,8,0:0:0:0:
260,200,225370,1,0,0:0:0:0:
260,200,225439,5,0,0:0:0:0:
260,200,225479,1,8,0:0:0:0:
260,200,225548,5,0,0:0:0:0:
260,200,225588,1,0,0:0:0:0:
260,200,225656,5,8,0:0:0:0:
260,200,225696,1,0,0:0:0:0:
260,200,225765,5,0,0:0:0:0:
260,200,225805,1,8,0:0:0:0:
260,200,225874,5,0,0:0:0:0:
260,200,225914,1,0,0:0:0:0:
260,200,225982,5,8,0:0:0:0:
260,200,226022,1,0,0:0:0:0:
260,200,226091,5,0,0:0:0:0:
260,200,226131,1,8,0:0:0:0:
260,200,226200,5,0,0:0:0:0:
260,200,226240,1,0,0:0:0:0:
260,200,226308,5,8,0:0:0:0:
260,200,226348,1,0,0:0:0:0:
260,200,226417,5,0,0:0:0:0:
260,200,226457,1,8,0:0:0:0:
260,200,226526,5,0,0:0:0:0:
260,200,226566,1,0,0:0:0:0:
260,200,226634,5,8,0:0:0:0:
260,200,226674,1,0,0:0:0:0:
260,200,226743,5,0,0:0:0:0:
260,200,226783,1,8,0:0:0:0:
260,200,226852,5,0,0:0:0:0:
260,200,226892,1,0,0:0:0:0:
260,200,226960,5,8,0:0:0:0:
260,200,227000,1,0,0:0:0:0:
260,200,227069,5,0,0:0:0:0:
260,200,227109,1,8,0:0:0:0:
288,240,227177,1,0,0:0:0:0:
288,240,227213,1,0,0:0:0:0:
260,200,227286,5,8,0:0:0:0:
260,200,227326,1,0,0:0:0:0:
260,200,227395,5,0,0:0:0:0:
260,200,227435,1,8,0:0:0:0:
260,200,227504,5,0,0:0:0:0:
260,200,227544,1,0,0:0:0:0:
260,200,227612,5,8,0:0:0:0:
260,200,227652,1,0,0:0:0:0:
260,200,227721,5,0,0:0:0:0:
260,200,227761,1,8,0:0:0:0:
260,200,227830,5,0,0:0:0:0:
260,200,227870,1,0,0:0:0:0:
260,200,227938,5,8,0:0:0:0:
260,200,227978,1,0,0:0:0:0:
260,200,228047,5,0,0:0:0:0:
260,200,228087,1,8,0:0:0:0:
260,200,228156,5,0,0:0:0:0:
260,200,228196,1,0,0:0:0:0:
260,200,228264,5,8,0:0:0:0:
260,200,228304,1,0,0:0:0:0:
260,200,228373,5,0,0:0:0:0:
260,200,228413,1,8,0:0:0:0:
260,200,228482,5,0,0:0:0:0:
260,200,228522,1,0,0:0:0:0:
260,200,228591,5,8,0:0:0:0:
260,200,228631,1,0,0:0:0:0:
260,200,228700,5,0,0:0:0:0:
260,200,228740,1,8,0:0:0:0:
260,200,228809,5,0,0:0:0:0:
260,200,228849,1,0,0:0:0:0:
260,200,228917,5,8,0:0:0:0:
260,200,228957,1,0,0:0:0:0:
260,200,229026,5,0,0:0:0:0:
260,200,229066,1,8,0:0:0:0:
260,200,229135,5,0,0:0:0:0:
260,200,229175,1,0,0:0:0:0:
260,200,229243,5,8,0:0:0:0:
260,200,229283,1,0,0:0:0:0:
260,200,229352,5,0,0:0:0:0:
260,200,229392,1,8,0:0:0:0:
260,200,229461,5,0,0:0:0:0:
260,200,229501,1,0,0:0:0:0:
260,200,229569,5,8,0:0:0:0:
260,200,229609,1,0,0:0:0:0:
260,200,229678,5,0,0:0:0:0:
260,200,229718,1,8,0:0:0:0:
260,200,229787,5,0,0:0:0:0:
260,200,229827,1,0,0:0:0:0:
260,200,229895,5,8,0:0:0:0:
260,200,229935,1,0,0:0:0:0:
260,200,230004,5,0,0:0:0:0:
260,200,230044,1,8,0:0:0:0:
260,200,230113,5,0,0:0:0:0:
260,200,230153,1,0,0:0:0:0:
260,200,230221,5,8,0:0:0:0:
260,200,230261,1,0,0:0:0:0:
260,200,230330,5,0,0:0:0:0:
260,200,230370,1,8,0:0:0:0:
260,200,230439,5,0,0:0:0:0:
260,200,230479,1,0,0:0:0:0:
260,200,230547,5,8,0:0:0:0:
260,200,230587,1,0,0:0:0:0:
380,248,230656,5,0,0:0:0:0:
336,212,230873,1,8,0:0:0:0:
336,212,230982,1,0,0:0:0:0:
332,240,231199,1,8,0:0:0:0:
332,240,231308,1,8,0:0:0:0:
336,240,231525,1,0,0:0:0:0:
336,240,231634,1,0,0:0:0:0:
336,240,231743,1,0,0:0:0:0:
336,240,231960,1,8,0:0:0:0:
