osu file format v14

[General]
AudioFilename: audio.mp3
AudioLeadIn: 0
PreviewTime: 648
Countdown: 0
SampleSet: Soft
StackLeniency: 0.7
Mode: 1
LetterboxInBreaks: 0
WidescreenStoryboard: 1

[Editor]
Bookmarks: 4220
DistanceSpacing: 0.7
BeatDivisor: 4
GridSize: 4
TimelineZoom: 2.3

[Metadata]
Title:A Fool Moon Night
TitleUnicode:A Fool Moon Night
Artist:The Koxx
ArtistUnicode:The Koxx
Creator:nyanmi-1828
Version:Lv.300
Source:o2jam
Tags:o2jam
BeatmapID:1526770
BeatmapSetID:538780

[Difficulty]
HPDrainRate:5
CircleSize:4
OverallDifficulty:6
ApproachRate:5
SliderMultiplier:1.4
SliderTickRate:1

[Events]
//Background and Video events
0,0,"background.jpg",0,0
//Break Periods
//Storyboard Layer 0 (Background)
//Storyboard Layer 1 (Fail)
//Storyboard Layer 2 (Pass)
//Storyboard Layer 3 (Foreground)
//Storyboard Sound Samples

[TimingPoints]
1091,434.782608695652,4,2,2,100,1,0
77612,-71.4285714285714,4,2,2,100,0,1
105438,-100,4,2,2,100,0,0
175004,-71.4285714285714,4,2,2,100,0,1
230656,-100,4,2,2,100,0,0

[HitObjects]
320,216,1091,5,4,0:0:0:0:
276,192,4569,1,4,0:0:0:0:
308,248,8047,1,4,0:0:0:0:
320,228,8917,1,4,0:0:0:0:
304,240,9786,1,4,0:0:0:0:
304,240,10656,1,4,0:0:0:0:
328,232,11525,1,4,0:0:0:0:
324,220,11851,1,0,0:0:0:0:
324,220,11960,1,8,0:0:0:0:
324,220,12177,1,0,0:0:0:0:
324,220,12395,1,4,0:0:0:0:
332,208,12721,1,8,0:0:0:0:
332,208,13047,1,0,0:0:0:0:
332,208,13264,1,4,0:0:0:0:
308,208,13590,1,8,0:0:0:0:
304,204,13917,1,0,0:0:0:0:
304,204,14134,1,4,0:0:0:0:
308,208,14460,1,8,0:0:0:0:
304,204,14786,1,0,0:0:0:0:
304,204,15004,1,4,0:0:0:0:
276,216,15330,1,8,0:0:0:0:
276,216,15438,1,0,0:0:0:0:
276,216,15656,1,0,0:0:0:0:
276,216,15873,1,0,0:0:0:0:
260,220,16199,1,8,0:0:0:0:
260,220,16308,1,0,0:0:0:0:
260,220,16525,1,8,0:0:0:0:
260,220,16743,1,0,0:0:0:0:
260,220,17069,1,8,0:0:0:0:
260,220,17177,1,0,0:0:0:0:
260,220,17395,1,0,0:0:0:0:
260,220,17612,1,0,0:0:0:0:
260,220,17938,1,8,0:0:0:0:
260,220,18047,1,0,0:0:0:0:
260,220,18264,1,8,0:0:0:0:
260,220,18482,1,0,0:0:0:0:
260,220,18699,1,8,0:0:0:0:
260,220,18808,1,8,0:0:0:0:
260,220,18917,1,0,0:0:0:0:
260,224,19134,1,8,0:0:0:0:
260,224,19351,1,0,0:0:0:0:
260,224,19460,1,0,0:0:0:0:
260,224,19569,1,8,0:0:0:0:
260,224,19677,1,8,0:0:0:0:
260,224,19786,1,0,0:0:0:0:
260,224,20004,1,8,0:0:0:0:
260,224,20221,1,0,0:0:0:0:
296,216,21090,1,0,0:0:0:0:
300,220,21163,1,0,0:0:0:0:
300,224,21235,1,0,0:0:0:0:
300,224,21308,1,0,0:0:0:0:
300,224,21380,1,0,0:0:0:0:
300,224,21453,1,0,0:0:0:0:
304,224,21525,1,8,0:0:0:0:
320,228,21960,1,4,0:0:0:0:
328,228,22286,1,0,0:0:0:0:
328,228,22395,1,8,0:0:0:0:
328,228,22612,1,0,0:0:0:0:
328,228,22830,1,0,0:0:0:0:
328,228,22938,1,0,0:0:0:0:
328,228,23047,1,0,0:0:0:0:
328,228,23264,1,8,0:0:0:0:
328,228,23482,1,0,0:0:0:0:
328,228,23699,1,0,0:0:0:0:
328,264,23808,1,0,0:0:0:0:
328,264,23917,1,0,0:0:0:0:
312,244,24134,1,8,0:0:0:0:
312,244,24351,1,0,0:0:0:0:
320,232,24460,1,0,0:0:0:0:
320,232,24569,1,8,0:0:0:0:
312,244,24786,1,0,0:0:0:0:
312,244,25004,1,8,0:0:0:0:
316,252,25221,1,0,0:0:0:0:
312,244,25438,1,0,0:0:0:0:
312,244,25764,1,0,0:0:0:0:
312,244,25873,1,8,0:0:0:0:
312,244,26090,1,0,0:0:0:0:
312,244,26308,1,0,0:0:0:0:
312,244,26417,1,0,0:0:0:0:
312,244,26525,1,0,0:0:0:0:
312,244,26743,1,8,0:0:0:0:
312,244,26960,1,0,0:0:0:0:
312,244,27177,1,0,0:0:0:0:
300,228,27286,1,0,0:0:0:0:
300,228,27395,1,0,0:0:0:0:
312,244,27612,1,8,0:0:0:0:
312,244,27830,1,0,0:0:0:0:
328,224,28047,1,8,0:0:0:0:
328,224,28156,1,8,0:0:0:0:
312,244,28264,1,0,0:0:0:0:
312,244,28482,1,8,0:0:0:0:
332,248,28699,1,0,0:0:0:0:
332,248,28808,1,0,0:0:0:0:
332,248,28917,1,0,0:0:0:0:
340,252,29243,1,0,0:0:0:0:
340,252,29351,1,8,0:0:0:0:
340,252,29569,1,0,0:0:0:0:
340,252,29786,1,0,0:0:0:0:
340,252,29895,1,0,0:0:0:0:
340,252,30004,1,0,0:0:0:0:
340,252,30221,1,8,0:0:0:0:
340,252,30438,1,0,0:0:0:0:
328,248,30656,1,0,0:0:0:0:
328,248,30764,1,0,0:0:0:0:
328,248,30873,1,8,0:0:0:0:
328,240,31090,1,8,0:0:0:0:
328,240,31308,1,0,0:0:0:0:
328,248,31525,1,8,0:0:0:0:
328,248,31634,1,8,0:0:0:0:
328,248,31743,1,0,0:0:0:0:
328,240,31960,1,8,0:0:0:0:
328,240,32177,1,0,0:0:0:0:
328,248,32395,1,0,0:0:0:0:
352,256,32721,1,0,0:0:0:0:
352,248,32830,1,8,0:0:0:0:
352,248,33047,1,0,0:0:0:0:
352,248,33264,1,0,0:0:0:0:
352,248,33373,1,0,0:0:0:0:
352,248,33482,1,0,0:0:0:0:
352,248,33699,1,8,0:0:0:0:
352,248,33917,1,0,0:0:0:0:
368,296,34134,1,0,0:0:0:0:
352,248,34243,1,8,0:0:0:0:
352,248,34351,1,0,0:0:0:0:
368,296,34569,1,8,0:0:0:0:
332,244,34786,1,0,0:0:0:0:
332,244,35004,1,8,0:0:0:0:
332,244,35112,1,8,0:0:0:0:
332,244,35221,1,0,0:0:0:0:
332,244,35330,1,8,0:0:0:0:
312,232,35438,1,8,0:0:0:0:
328,232,35656,1,0,0:0:0:0:
328,232,35873,1,4,0:0:0:0:
316,248,36525,1,8,0:0:0:0:
316,248,36743,1,0,0:0:0:0:
328,220,37177,1,8,0:0:0:0:
328,220,37395,1,0,0:0:0:0:
328,220,37612,1,0,0:0:0:0:
344,240,38264,1,8,0:0:0:0:
344,240,38482,1,0,0:0:0:0:
344,240,38917,1,0,0:0:0:0:
344,240,39351,1,0,0:0:0:0:
328,216,40004,1,8,0:0:0:0:
328,216,40221,1,0,0:0:0:0:
328,216,40656,1,8,0:0:0:0:
328,216,40873,1,0,0:0:0:0:
328,216,41090,1,0,0:0:0:0:
304,204,41743,1,8,0:0:0:0:
304,204,41960,1,0,0:0:0:0:
304,204,42395,1,8,0:0:0:0:
304,204,42830,1,0,0:0:0:0:
328,244,43264,1,0,0:0:0:0:
328,244,43699,1,0,0:0:0:0:
328,244,44134,1,0,0:0:0:0:
336,240,44569,1,8,0:0:0:0:
336,232,45004,1,0,0:0:0:0:
336,232,45438,1,0,0:0:0:0:
336,232,45873,1,0,0:0:0:0:
288,164,46308,1,0,0:0:0:0:
312,228,46525,1,0,0:0:0:0:
328,224,46743,1,8,0:0:0:0:
328,224,46960,1,0,0:0:0:0:
328,224,47177,1,0,0:0:0:0:
328,224,47286,1,0,0:0:0:0:
328,224,47395,1,0,0:0:0:0:
328,224,47612,1,8,0:0:0:0:
328,224,47830,1,0,0:0:0:0:
328,224,48047,1,4,0:0:0:0:
316,216,48917,1,0,0:0:0:0:
316,216,49025,1,0,0:0:0:0:
316,216,49134,1,0,0:0:0:0:
316,216,49243,1,0,0:0:0:0:
316,216,49351,1,8,0:0:0:0:
316,216,49569,1,0,0:0:0:0:
316,216,49786,1,0,0:0:0:0:
320,204,50112,1,8,0:0:0:0:
316,216,50438,1,0,0:0:0:0:
304,232,50656,1,4,0:0:0:0:
312,232,50982,1,0,0:0:0:0:
312,232,51090,1,8,0:0:0:0:
312,232,51308,1,0,0:0:0:0:
312,232,51525,1,0,0:0:0:0:
312,232,51634,1,0,0:0:0:0:
312,232,51743,1,0,0:0:0:0:
312,232,51960,1,8,0:0:0:0:
312,232,52177,1,0,0:0:0:0:
344,268,52395,1,8,0:0:0:0:
344,268,52504,1,8,0:0:0:0:
348,288,52612,1,0,0:0:0:0:
312,232,52830,1,8,0:0:0:0:
312,232,53047,1,0,0:0:0:0:
360,264,53264,1,0,0:0:0:0:
312,232,53482,1,0,0:0:0:0:
312,232,53699,1,8,0:0:0:0:
312,232,53808,1,8,0:0:0:0:
312,232,53917,1,0,0:0:0:0:
312,232,54134,1,0,0:0:0:0:
304,224,54351,1,8,0:0:0:0:
304,224,54460,1,8,0:0:0:0:
304,224,54569,1,0,0:0:0:0:
304,224,54786,1,8,0:0:0:0:
304,224,55004,1,0,0:0:0:0:
304,224,55112,1,0,0:0:0:0:
304,224,55221,1,8,0:0:0:0:
304,224,55438,1,0,0:0:0:0:
304,224,55656,1,8,0:0:0:0:
304,224,55764,1,8,0:0:0:0:
304,224,55873,1,0,0:0:0:0:
304,224,56090,1,0,0:0:0:0:
304,224,56308,1,8,0:0:0:0:
304,224,56525,1,0,0:0:0:0:
304,224,56743,1,0,0:0:0:0:
328,232,56960,1,0,0:0:0:0:
328,232,57069,1,0,0:0:0:0:
328,232,57177,1,8,0:0:0:0:
328,232,57395,1,0,0:0:0:0:
328,232,57612,1,8,0:0:0:0:
328,232,57721,1,8,0:0:0:0:
328,232,57830,1,0,0:0:0:0:
328,232,58047,1,8,0:0:0:0:
328,232,58264,1,0,0:0:0:0:
328,232,58482,1,0,0:0:0:0:
328,232,58590,1,0,0:0:0:0:
328,232,58699,1,0,0:0:0:0:
328,232,58917,1,8,0:0:0:0:
328,232,59134,1,0,0:0:0:0:
328,232,59351,1,8,0:0:0:0:
328,232,59460,1,8,0:0:0:0:
328,232,59569,1,0,0:0:0:0:
328,232,59786,1,8,0:0:0:0:
344,260,60004,1,0,0:0:0:0:
292,244,60221,1,4,0:0:0:0:
292,244,60438,1,8,0:0:0:0:
292,244,60547,1,8,0:0:0:0:
292,244,60656,1,0,0:0:0:0:
292,244,60873,1,8,0:0:0:0:
292,244,61090,1,4,0:0:0:0:
292,244,61308,1,8,0:0:0:0:
292,244,61417,1,8,0:0:0:0:
292,244,61525,1,0,0:0:0:0:
292,244,61743,1,8,0:0:0:0:
292,244,61960,1,4,0:0:0:0:
292,244,62177,1,8,0:0:0:0:
292,244,62250,1,8,0:0:0:0:
292,228,62322,1,8,0:0:0:0:
292,244,62395,1,0,0:0:0:0:
312,212,62612,1,8,0:0:0:0:
312,208,62830,1,0,0:0:0:0:
312,208,62902,1,0,0:0:0:0:
312,208,62975,1,0,0:0:0:0:
312,208,63047,1,8,0:0:0:0:
312,208,63119,1,8,0:0:0:0:
312,208,63192,1,8,0:0:0:0:
312,208,63264,1,0,0:0:0:0:
320,216,63482,1,8,0:0:0:0:
320,216,63554,1,8,0:0:0:0:
320,216,63627,1,8,0:0:0:0:
320,216,63699,1,0,0:0:0:0:
296,244,63917,1,0,0:0:0:0:
300,204,64025,1,0,0:0:0:0:
304,216,64134,1,8,0:0:0:0:
336,216,64351,1,8,0:0:0:0:
336,216,64569,1,0,0:0:0:0:
336,216,64786,1,8,0:0:0:0:
336,216,64895,1,8,0:0:0:0:
336,216,65004,1,0,0:0:0:0:
336,216,65221,1,8,0:0:0:0:
336,216,65438,1,0,0:0:0:0:
336,216,65547,1,0,0:0:0:0:
336,216,65764,1,0,0:0:0:0:
336,216,65873,1,8,0:0:0:0:
328,216,66090,1,8,0:0:0:0:
328,216,66308,1,0,0:0:0:0:
328,216,66525,1,8,0:0:0:0:
328,216,66634,1,8,0:0:0:0:
328,216,66743,1,0,0:0:0:0:
328,216,66960,1,8,0:0:0:0:
328,216,67177,1,0,0:0:0:0:
328,216,67286,1,0,0:0:0:0:
328,216,67395,1,8,0:0:0:0:
328,216,67504,1,0,0:0:0:0:
320,224,67830,1,0,0:0:0:0:
320,224,68047,1,8,0:0:0:0:
320,224,68264,1,0,0:0:0:0:
320,224,68373,1,0,0:0:0:0:
320,224,68482,1,8,0:0:0:0:
320,224,68699,1,8,0:0:0:0:
320,224,68917,1,0,0:0:0:0:
320,224,69025,1,0,0:0:0:0:
320,224,69134,1,8,0:0:0:0:
320,224,69243,1,0,0:0:0:0:
328,232,69351,1,0,0:0:0:0:
328,232,69569,1,8,0:0:0:0:
328,232,69786,1,0,0:0:0:0:
328,232,70004,1,8,0:0:0:0:
332,232,70112,1,8,0:0:0:0:
332,232,70221,1,0,0:0:0:0:
328,232,70438,1,8,0:0:0:0:
328,232,70656,1,4,0:0:0:0:
332,228,70873,1,0,0:0:0:0:
332,228,70982,1,0,0:0:0:0:
332,232,71090,1,8,0:0:0:0:
332,228,71308,1,8,0:0:0:0:
332,228,71525,1,0,0:0:0:0:
332,228,71743,1,8,0:0:0:0:
332,228,71851,1,8,0:0:0:0:
332,228,71960,1,0,0:0:0:0:
332,228,72177,1,8,0:0:0:0:
332,228,72395,1,0,0:0:0:0:
332,228,72612,1,8,0:0:0:0:
300,244,72721,1,8,0:0:0:0:
332,228,72830,1,0,0:0:0:0:
332,228,73047,1,8,0:0:0:0:
332,204,73156,1,8,0:0:0:0:
332,228,73264,1,0,0:0:0:0:
332,228,73482,1,8,0:0:0:0:
332,228,73699,1,0,0:0:0:0:
340,236,73917,1,8,0:0:0:0:
336,236,74134,1,0,0:0:0:0:
336,236,74243,1,0,0:0:0:0:
336,236,74351,1,8,0:0:0:0:
336,236,74460,1,0,0:0:0:0:
328,236,74786,1,8,0:0:0:0:
328,236,75004,1,0,0:0:0:0:
328,236,75221,1,8,0:0:0:0:
328,236,75330,1,8,0:0:0:0:
328,236,75438,1,0,0:0:0:0:
328,236,75656,1,8,0:0:0:0:
328,236,75873,1,0,0:0:0:0:
328,236,75982,1,0,0:0:0:0:
328,236,76090,1,8,0:0:0:0:
328,236,76199,1,0,0:0:0:0:
312,232,76525,5,8,0:0:0:0:
296,224,76743,1,0,0:0:0:0:
284,264,76960,1,0,0:0:0:0:
288,256,77033,1,0,0:0:0:0:
288,256,77105,1,0,0:0:0:0:
288,256,77177,1,8,0:0:0:0:
260,200,77612,5,8,0:0:0:0:
260,200,77652,1,0,0:0:0:0:
260,200,77721,5,8,0:0:0:0:
260,200,77761,1,0,0:0:0:0:
260,200,77830,5,8,0:0:0:0:
260,200,77870,1,0,0:0:0:0:
260,200,77938,5,8,0:0:0:0:
260,200,77978,1,0,0:0:0:0:
260,200,78047,5,8,0:0:0:0:
260,200,78087,1,0,0:0:0:0:
260,200,78156,5,8,0:0:0:0:
260,200,78196,1,0,0:0:0:0:
260,200,78265,5,8,0:0:0:0:
260,200,78305,1,0,0:0:0:0:
260,200,78373,5,8,0:0:0:0:
260,200,78413,1,0,0:0:0:0:
260,200,78481,5,8,0:0:0:0:
260,200,78521,1,0,0:0:0:0:
260,200,78590,5,8,0:0:0:0:
260,200,78630,1,0,0:0:0:0:
260,200,78699,5,8,0:0:0:0:
260,200,78739,1,0,0:0:0:0:
260,200,78807,5,8,0:0:0:0:
260,200,78847,1,0,0:0:0:0:
260,200,78916,5,8,0:0:0:0:
260,200,78956,1,0,0:0:0:0:
260,200,79025,5,8,0:0:0:0:
260,200,79065,1,0,0:0:0:0:
260,200,79134,5,8,0:0:0:0:
260,200,79174,1,0,0:0:0:0:
260,200,79242,5,8,0:0:0:0:
260,200,79282,1,0,0:0:0:0:
260,200,79351,5,8,0:0:0:0:
260,200,79391,1,0,0:0:0:0:
260,200,79460,5,8,0:0:0:0:
260,200,79500,1,0,0:0:0:0:
260,200,79569,5,8,0:0:0:0:
260,200,79609,1,0,0:0:0:0:
260,200,79677,5,8,0:0:0:0:
260,200,79717,1,0,0:0:0:0:
260,200,79786,5,8,0:0:0:0:
260,200,79826,1,0,0:0:0:0:
260,200,79895,5,8,0:0:0:0:
260,200,79935,1,0,0:0:0:0:
260,200,80004,5,8,0:0:0:0:
260,200,80044,1,0,0:0:0:0:
260,200,80112,5,8,0:0:0:0:
260,200,80152,1,0,0:0:0:0:
260,200,80220,5,8,0:0:0:0:
260,200,80260,1,0,0:0:0:0:
260,200,80329,5,8,0:0:0:0:
260,200,80369,1,0,0:0:0:0:
260,200,80438,5,8,0:0:0:0:
260,200,80478,1,0,0:0:0:0:
260,200,80546,5,8,0:0:0:0:
260,200,80586,1,0,0:0:0:0:
260,200,80655,5,8,0:0:0:0:
260,200,80695,1,0,0:0:0:0:
260,200,80764,5,8,0:0:0:0:
260,200,80804,1,0,0:0:0:0:
260,200,80873,5,8,0:0:0:0:
260,200,80913,1,0,0:0:0:0:
260,200,80981,5,8,0:0:0:0:
260,200,81021,1,0,0:0:0:0:
260,200,81091,1,0,0:0:0:0:
260,200,81200,1,0,0:0:0:0:
260,200,81309,1,0,0:0:0:0:
260,200,81418,1,0,0:0:0:0:
260,200,81526,1,0,0:0:0:0:
260,200,81635,1,0,0:0:0:0:
260,200,81744,1,0,0:0:0:0:
260,200,81852,1,0,0:0:0:0:
260,200,81961,5,8,0:0:0:0:
260,200,82070,5,8,0:0:0:0:
260,200,82178,5,8,0:0:0:0:
260,200,82287,1,8,0:0:0:0:
260,200,82396,5,8,0:0:0:0:
260,200,82505,5,8,0:0:0:0:
260,200,82613,5,8,0:0:0:0:
260,200,82722,5,8,0:0:0:0:
260,200,82831,5,0,0:0:0:0:
260,200,82939,1,0,0:0:0:0:
260,200,83048,1,0,0:0:0:0:
260,200,83157,1,0,0:0:0:0:
260,200,83265,1,0,0:0:0:0:
260,200,83374,1,0,0:0:0:0:
260,200,83483,1,0,0:0:0:0:
260,200,83591,1,0,0:0:0:0:
260,200,83700,5,8,0:0:0:0:
260,200,83809,5,8,0:0:0:0:
260,200,83918,5,8,0:0:0:0:
260,200,84026,5,8,0:0:0:0:
260,200,84135,1,0,0:0:0:0:
260,200,84244,1,0,0:0:0:0:
260,200,84352,1,0,0:0:0:0:
260,200,84461,1,0,0:0:0:0:
260,200,84568,5,8,0:0:0:0:
260,200,84608,1,0,0:0:0:0:
260,200,84677,5,8,0:0:0:0:
260,200,84717,1,0,0:0:0:0:
260,200,84786,5,8,0:0:0:0:
260,200,84826,1,0,0:0:0:0:
260,200,84894,5,8,0:0:0:0:
260,200,84934,1,0,0:0:0:0:
260,200,85003,5,8,0:0:0:0:
260,200,85043,1,0,0:0:0:0:
260,200,85112,5,8,0:0:0:0:
260,200,85152,1,0,0:0:0:0:
260,200,85221,5,8,0:0:0:0:
260,200,85261,1,0,0:0:0:0:
260,200,85329,5,8,0:0:0:0:
260,200,85369,1,0,0:0:0:0:
260,200,85439,5,8,0:0:0:0:
260,200,85548,5,8,0:0:0:0:
260,200,85657,5,8,0:0:0:0:
260,200,85765,5,8,0:0:0:0:
260,200,85874,5,8,0:0:0:0:
260,200,85983,5,8,0:0:0:0:
260,200,86091,5,8,0:0:0:0:
260,200,86200,5,8,0:0:0:0:
260,200,86307,5,8,0:0:0:0:
260,200,86347,1,0,0:0:0:0:
260,200,86416,5,8,0:0:0:0:
260,200,86456,1,0,0:0:0:0:
260,200,86525,5,8,0:0:0:0:
260,200,86565,1,0,0:0:0:0:
260,200,86633,5,8,0:0:0:0:
260,200,86673,1,0,0:0:0:0:
260,200,86742,5,8,0:0:0:0:
260,200,86782,1,0,0:0:0:0:
260,200,86851,5,8,0:0:0:0:
260,200,86891,1,0,0:0:0:0:
260,200,86960,5,8,0:0:0:0:
260,200,87000,1,0,0:0:0:0:
260,200,87068,5,8,0:0:0:0:
260,200,87108,1,0,0:0:0:0:
260,200,87178,1,0,0:0:0:0:
260,200,87287,1,0,0:0:0:0:
260,200,87396,5,0,0:0:0:0:
260,200,87505,1,0,0:0:0:0:
260,200,87613,1,0,0:0:0:0:
260,200,87722,1,0,0:0:0:0:
260,200,87831,1,0,0:0:0:0:
260,200,87939,1,0,0:0:0:0:
260,200,88047,5,8,0:0:0:0:
260,200,88087,1,0,0:0:0:0:
260,200,88156,5,8,0:0:0:0:
260,200,88196,1,0,0:0:0:0:
260,200,88265,5,8,0:0:0:0:
260,200,88305,1,0,0:0:0:0:
260,200,88373,5,8,0:0:0:0:
260,200,88413,1,0,0:0:0:0:
260,200,88483,1,0,0:0:0:0:
260,200,88591,1,0,0:0:0:0:
260,200,88700,1,0,0:0:0:0:
260,200,88809,1,0,0:0:0:0:
260,200,88916,5,8,0:0:0:0:
260,200,88956,1,0,0:0:0:0:
260,200,89025,5,8,0:0:0:0:
260,200,89065,1,0,0:0:0:0:
260,200,89134,5,8,0:0:0:0:
260,200,89174,1,0,0:0:0:0:
260,200,89242,5,8,0:0:0:0:
260,200,89282,1,0,0:0:0:0:
260,200,89352,5,8,0:0:0:0:
260,200,89461,5,8,0:0:0:0:
260,200,89569,5,8,0:0:0:0:
260,200,89678,5,8,0:0:0:0:
260,200,89786,5,8,0:0:0:0:
260,200,89826,1,0,0:0:0:0:
260,200,89895,5,8,0:0:0:0:
260,200,89935,1,0,0:0:0:0:
260,200,90004,5,8,0:0:0:0:
260,200,90044,1,0,0:0:0:0:
260,200,90112,5,8,0:0:0:0:
260,200,90152,1,0,0:0:0:0:
260,200,90220,5,8,0:0:0:0:
260,200,90260,1,0,0:0:0:0:
260,200,90329,5,8,0:0:0:0:
260,200,90369,1,0,0:0:0:0:
260,200,90438,5,8,0:0:0:0:
260,200,90478,1,0,0:0:0:0:
260,200,90546,5,8,0:0:0:0:
260,200,90586,1,0,0:0:0:0:
260,200,90656,5,8,0:0:0:0:
260,200,90765,5,8,0:0:0:0:
260,200,90874,5,8,0:0:0:0:
260,200,90983,5,8,0:0:0:0:
260,200,91091,5,0,0:0:0:0:
260,200,91200,5,8,0:0:0:0:
260,200,91308,5,8,0:0:0:0:
260,200,91417,5,8,0:0:0:0:
260,200,91525,5,8,0:0:0:0:
260,200,91565,1,0,0:0:0:0:
260,200,91634,5,8,0:0:0:0:
260,200,91674,1,0,0:0:0:0:
260,200,91743,5,8,0:0:0:0:
260,200,91783,1,0,0:0:0:0:
260,200,91851,5,8,0:0:0:0:
260,200,91891,1,0,0:0:0:0:
260,200,91959,5,8,0:0:0:0:
260,200,91999,1,0,0:0:0:0:
260,200,92068,5,8,0:0:0:0:
260,200,92108,1,0,0:0:0:0:
260,200,92177,5,8,0:0:0:0:
260,200,92217,1,0,0:0:0:0:
260,200,92285,5,8,0:0:0:0:
260,200,92325,1,0,0:0:0:0:
260,200,92394,5,8,0:0:0:0:
260,200,92434,1,0,0:0:0:0:
260,200,92503,5,8,0:0:0:0:
260,200,92543,1,0,0:0:0:0:
260,200,92612,5,8,0:0:0:0:
260,200,92652,1,0,0:0:0:0:
260,200,92720,5,8,0:0:0:0:
260,200,92760,1,0,0:0:0:0:
260,200,92828,5,8,0:0:0:0:
260,200,92868,1,0,0:0:0:0:
260,200,92937,5,8,0:0:0:0:
260,200,92977,1,0,0:0:0:0:
260,200,93046,5,8,0:0:0:0:
260,200,93086,1,0,0:0:0:0:
260,200,93154,5,8,0:0:0:0:
260,200,93194,1,0,0:0:0:0:
260,200,93264,5,8,0:0:0:0:
260,200,93304,1,0,0:0:0:0:
260,200,93373,5,8,0:0:0:0:
260,200,93413,1,0,0:0:0:0:
260,200,93482,5,8,0:0:0:0:
260,200,93522,1,0,0:0:0:0:
260,200,93590,5,8,0:0:0:0:
260,200,93630,1,0,0:0:0:0:
260,200,93698,5,8,0:0:0:0:
260,200,93738,1,0,0:0:0:0:
260,200,93807,5,8,0:0:0:0:
260,200,93847,1,0,0:0:0:0:
260,200,93916,5,8,0:0:0:0:
260,200,93956,1,0,0:0:0:0:
260,200,94024,5,8,0:0:0:0:
260,200,94064,1,0,0:0:0:0:
260,200,94134,5,8,0:0:0:0:
260,200,94174,1,0,0:0:0:0:
260,200,94243,5,8,0:0:0:0:
260,200,94283,1,0,0:0:0:0:
260,200,94352,5,8,0:0:0:0:
260,200,94392,1,0,0:0:0:0:
260,200,94460,5,8,0:0:0:0:
260,200,94500,1,0,0:0:0:0:
260,200,94568,5,8,0:0:0:0:
260,200,94608,1,0,0:0:0:0:
260,200,94677,5,8,0:0:0:0:
260,200,94717,1,0,0:0:0:0:
260,200,94786,5,8,0:0:0:0:
260,200,94826,1,0,0:0:0:0:
260,200,94894,5,8,0:0:0:0:
260,200,94934,1,0,0:0:0:0:
260,200,95005,1,0,0:0:0:0:
260,200,95113,1,0,0:0:0:0:
260,200,95222,1,0,0:0:0:0:
260,200,95331,1,0,0:0:0:0:
260,200,95439,1,0,0:0:0:0:
260,200,95548,1,0,0:0:0:0:
260,200,95657,1,0,0:0:0:0:
260,200,95765,1,0,0:0:0:0:
260,200,95873,5,8,0:0:0:0:
260,200,95982,5,8,0:0:0:0:
260,200,96091,5,8,0:0:0:0:
260,200,96199,5,8,0:0:0:0:
260,200,96308,5,8,0:0:0:0:
260,200,96417,5,8,0:0:0:0:
260,200,96525,5,8,0:0:0:0:
260,200,96634,5,8,0:0:0:0:
260,200,96742,5,8,0:0:0:0:
260,200,96782,1,0,0:0:0:0:
260,200,96851,5,8,0:0:0:0:
260,200,96891,1,0,0:0:0:0:
260,200,96960,5,8,0:0:0:0:
260,200,97000,1,0,0:0:0:0:
260,200,97068,5,8,0:0:0:0:
260,200,97108,1,0,0:0:0:0:
260,200,97176,5,8,0:0:0:0:
260,200,97216,1,0,0:0:0:0:
260,200,97285,5,8,0:0:0:0:
260,200,97325,1,0,0:0:0:0:
260,200,97394,5,8,0:0:0:0:
260,200,97434,1,0,0:0:0:0:
260,200,97502,5,8,0:0:0:0:
260,200,97542,1,0,0:0:0:0:
260,200,97613,1,0,0:0:0:0:
260,200,97722,1,0,0:0:0:0:
260,200,97831,1,0,0:0:0:0:
260,200,97939,1,0,0:0:0:0:
260,200,98047,5,8,0:0:0:0:
260,200,98156,5,8,0:0:0:0:
260,200,98265,1,0,0:0:0:0:
260,200,98374,1,0,0:0:0:0:
260,200,98481,5,8,0:0:0:0:
260,200,98521,1,0,0:0:0:0:
260,200,98590,5,8,0:0:0:0:
260,200,98630,1,0,0:0:0:0:
260,200,98699,5,8,0:0:0:0:
260,200,98739,1,0,0:0:0:0:
260,200,98807,5,8,0:0:0:0:
260,200,98847,1,0,0:0:0:0:
260,200,98915,5,8,0:0:0:0:
260,200,98955,1,0,0:0:0:0:
260,200,99024,5,8,0:0:0:0:
260,200,99064,1,0,0:0:0:0:
260,200,99133,5,8,0:0:0:0:
260,200,99173,1,0,0:0:0:0:
260,200,99241,5,8,0:0:0:0:
260,200,99281,1,0,0:0:0:0:
260,200,99351,5,8,0:0:0:0:
260,200,99391,1,0,0:0:0:0:
260,200,99460,5,8,0:0:0:0:
260,200,99500,1,0,0:0:0:0:
260,200,99569,5,8,0:0:0:0:
260,200,99609,1,0,0:0:0:0:
260,200,99677,5,8,0:0:0:0:
260,200,99717,1,0,0:0:0:0:
260,200,99785,5,8,0:0:0:0:
260,200,99825,1,0,0:0:0:0:
260,200,99894,5,8,0:0:0:0:
260,200,99934,1,0,0:0:0:0:
260,200,100003,5,8,0:0:0:0:
260,200,100043,1,0,0:0:0:0:
260,200,100111,5,8,0:0:0:0:
260,200,100151,1,0,0:0:0:0:
260,200,100220,5,8,0:0:0:0:
260,200,100260,1,0,0:0:0:0:
260,200,100329,5,8,0:0:0:0:
260,200,100369,1,0,0:0:0:0:
260,200,100438,5,8,0:0:0:0:
260,200,100478,1,0,0:0:0:0:
260,200,100546,5,8,0:0:0:0:
260,200,100586,1,0,0:0:0:0:
260,200,100654,5,8,0:0:0:0:
260,200,100694,1,0,0:0:0:0:
260,200,100763,5,8,0:0:0:0:
260,200,100803,1,0,0:0:0:0:
260,200,100872,5,8,0:0:0:0:
260,200,100912,1,0,0:0:0:0:
260,200,100980,5,8,0:0:0:0:
260,200,101020,1,0,0:0:0:0:
260,200,101090,5,8,0:0:0:0:
260,200,101130,1,0,0:0:0:0:
260,200,101199,5,8,0:0:0:0:
260,200,101239,1,0,0:0:0:0:
260,200,101308,5,8,0:0:0:0:
260,200,101348,1,0,0:0:0:0:
260,200,101416,5,8,0:0:0:0:
260,200,101456,1,0,0:0:0:0:
260,200,101524,5,8,0:0:0:0:
260,200,101564,1,0,0:0:0:0:
260,200,101633,5,8,0:0:0:0:
260,200,101673,1,0,0:0:0:0:
260,200,101742,5,8,0:0:0:0:
260,200,101782,1,0,0:0:0:0:
260,200,101850,5,8,0:0:0:0:
260,200,101890,1,0,0:0:0:0:
260,200,101960,5,8,0:0:0:0:
260,200,102000,1,0,0:0:0:0:
260,200,102069,5,8,0:0:0:0:
260,200,102109,1,0,0:0:0:0:
260,200,102178,5,8,0:0:0:0:
260,200,102218,1,0,0:0:0:0:
260,200,102286,5,8,0:0:0:0:
260,200,102326,1,0,0:0:0:0:
260,200,102394,5,8,0:0:0:0:
260,200,102434,1,0,0:0:0:0:
260,200,102503,5,8,0:0:0:0:
260,200,102543,1,0,0:0:0:0:
260,200,102612,5,8,0:0:0:0:
260,200,102652,1,0,0:0:0:0:
260,200,102720,5,8,0:0:0:0:
260,200,102760,1,0,0:0:0:0:
260,200,102829,5,8,0:0:0:0:
260,200,102869,1,0,0:0:0:0:
260,200,102938,5,8,0:0:0:0:
260,200,102978,1,0,0:0:0:0:
260,200,103047,5,8,0:0:0:0:
260,200,103087,1,0,0:0:0:0:
260,200,103155,5,8,0:0:0:0:
260,200,103195,1,0,0:0:0:0:
260,200,103263,5,8,0:0:0:0:
260,200,103303,1,0,0:0:0:0:
260,200,103372,5,8,0:0:0:0:
260,200,103412,1,0,0:0:0:0:
260,200,103481,5,8,0:0:0:0:
260,200,103521,1,0,0:0:0:0:
260,200,103589,5,8,0:0:0:0:
260,200,103629,1,0,0:0:0:0:
260,200,103699,5,8,0:0:0:0:
260,200,103739,1,0,0:0:0:0:
260,200,103808,5,8,0:0:0:0:
260,200,103848,1,0,0:0:0:0:
260,200,103917,5,8,0:0:0:0:
260,200,103957,1,0,0:0:0:0:
260,200,104025,5,8,0:0:0:0:
260,200,104065,1,0,0:0:0:0:
260,200,104133,5,8,0:0:0:0:
260,200,104173,1,0,0:0:0:0:
260,200,104242,5,8,0:0:0:0:
260,200,104282,1,0,0:0:0:0:
260,200,104351,5,8,0:0:0:0:
260,200,104391,1,0,0:0:0:0:
260,200,104459,5,8,0:0:0:0:
260,200,104499,1,0,0:0:0:0:
260,200,104568,5,8,0:0:0:0:
260,200,104608,1,0,0:0:0:0:
260,200,104677,5,8,0:0:0:0:
260,200,104717,1,0,0:0:0:0:
260,200,104786,5,8,0:0:0:0:
260,200,104826,1,0,0:0:0:0:
260,200,104894,5,8,0:0:0:0:
260,200,104934,1,0,0:0:0:0:
260,200,105002,5,8,0:0:0:0:
260,200,105042,1,0,0:0:0:0:
260,200,105111,5,8,0:0:0:0:
260,200,105151,1,0,0:0:0:0:
260,200,105220,5,8,0:0:0:0:
260,200,105260,1,0,0:0:0:0:
260,200,105328,5,8,0:0:0:0:
260,200,105368,1,0,0:0:0:0:
312,272,105438,5,4,0:0:0:0:
256,224,105764,1,0,0:0:0:0:
300,228,106090,1,0,0:0:0:0:
300,228,106417,1,0,0:0:0:0:
300,228,106743,1,0,0:0:0:0:
312,272,107069,1,0,0:0:0:0:
256,224,107395,1,0,0:0:0:0:
300,228,107721,1,0,0:0:0:0:
300,228,108048,1,0,0:0:0:0:
300,228,108374,1,0,0:0:0:0:
312,272,108699,1,0,0:0:0:0:
256,224,109025,1,8,0:0:0:0:
300,228,109351,1,8,0:0:0:0:
300,228,109678,1,8,0:0:0:0:
300,228,110004,1,8,0:0:0:0:
312,272,110330,1,8,0:0:0:0:
256,224,110656,1,0,0:0:0:0:
300,228,110982,1,0,0:0:0:0:
300,228,111309,1,0,0:0:0:0:
300,228,111635,1,0,0:0:0:0:
312,272,111960,1,0,0:0:0:0:
256,224,112286,1,8,0:0:0:0:
300,228,112612,1,8,0:0:0:0:
300,228,112939,1,8,0:0:0:0:
300,228,113265,1,8,0:0:0:0:
312,272,113590,1,8,0:0:0:0:
256,224,113916,1,8,0:0:0:0:
300,228,114242,1,8,0:0:0:0:
300,228,114569,1,8,0:0:0:0:
300,228,114895,1,8,0:0:0:0:
312,272,115221,1,8,0:0:0:0:
256,224,115547,1,8,0:0:0:0:
300,228,115873,1,0,0:0:0:0:
300,228,116200,1,0,0:0:0:0:
300,228,116526,1,0,0:0:0:0:
312,272,116851,1,0,0:0:0:0:
256,224,117177,1,0,0:0:0:0:
300,228,117503,1,0,0:0:0:0:
300,228,117612,1,4,0:0:0:0:
276,220,117830,1,8,0:0:0:0:
308,216,118156,1,0,0:0:0:0:
308,216,118264,1,0,0:0:0:0:
316,224,118482,1,8,0:0:0:0:
316,220,118699,1,0,0:0:0:0:
308,216,118808,1,8,0:0:0:0:
308,216,118917,1,0,0:0:0:0:
312,212,119134,1,8,0:0:0:0:
316,224,119351,1,0,0:0:0:0:
316,224,119460,1,8,0:0:0:0:
316,220,119569,1,0,0:0:0:0:
292,216,119786,1,8,0:0:0:0:
296,212,119895,1,0,0:0:0:0:
296,212,120112,1,8,0:0:0:0:
296,212,120221,1,0,0:0:0:0:
296,212,120330,1,8,0:0:0:0:
296,212,120438,1,0,0:0:0:0:
312,224,120547,1,0,0:0:0:0:
292,216,120656,1,8,0:0:0:0:
316,224,120873,1,0,0:0:0:0:
296,212,120982,1,8,0:0:0:0:
296,212,121090,1,0,0:0:0:0:
296,212,121199,1,8,0:0:0:0:
296,212,121308,1,0,0:0:0:0:
316,208,121525,1,8,0:0:0:0:
316,208,121634,1,0,0:0:0:0:
316,208,121743,1,8,0:0:0:0:
316,208,121851,1,8,0:0:0:0:
316,208,121960,1,0,0:0:0:0:
316,208,122069,1,8,0:0:0:0:
316,208,122177,1,0,0:0:0:0:
316,208,122286,1,0,0:0:0:0:
316,208,122395,1,8,0:0:0:0:
304,208,122612,1,0,0:0:0:0:
304,208,122721,1,8,0:0:0:0:
304,208,122830,1,0,0:0:0:0:
304,208,122938,1,8,0:0:0:0:
304,208,123047,1,0,0:0:0:0:
304,208,123264,1,8,0:0:0:0:
304,208,123373,1,0,0:0:0:0:
304,208,123482,1,0,0:0:0:0:
304,208,123590,1,8,0:0:0:0:
304,208,123699,1,0,0:0:0:0:
304,208,123917,1,8,0:0:0:0:
304,208,124025,1,8,0:0:0:0:
304,208,124134,1,0,0:0:0:0:
304,208,124243,1,8,0:0:0:0:
304,208,124351,1,0,0:0:0:0:
304,208,124569,1,8,0:0:0:0:
304,208,124677,1,0,0:0:0:0:
304,208,124786,1,0,0:0:0:0:
304,208,124895,1,8,0:0:0:0:
304,208,125004,1,0,0:0:0:0:
304,208,125221,1,8,0:0:0:0:
304,208,125330,1,8,0:0:0:0:
304,208,125438,1,0,0:0:0:0:
304,208,125547,1,8,0:0:0:0:
304,208,125656,1,0,0:0:0:0:
304,208,125764,1,0,0:0:0:0:
304,208,125873,1,8,0:0:0:0:
304,208,125982,1,8,0:0:0:0:
304,208,126090,1,0,0:0:0:0:
312,220,126199,1,8,0:0:0:0:
312,220,126308,1,0,0:0:0:0:
312,220,126417,1,8,0:0:0:0:
316,220,126525,1,0,0:0:0:0:
316,220,126634,1,0,0:0:0:0:
316,220,126743,1,8,0:0:0:0:
320,244,126960,1,0,0:0:0:0:
320,240,127069,1,8,0:0:0:0:
316,240,127177,1,0,0:0:0:0:
316,240,127286,1,8,0:0:0:0:
316,240,127395,1,0,0:0:0:0:
316,240,127612,1,8,0:0:0:0:
316,240,127721,1,8,0:0:0:0:
320,244,127830,1,0,0:0:0:0:
320,244,127938,1,8,0:0:0:0:
320,240,128047,1,4,0:0:0:0:
316,240,128264,1,0,0:0:0:0:
316,240,128373,1,0,0:0:0:0:
316,240,128482,1,8,0:0:0:0:
316,240,128590,1,8,0:0:0:0:
316,240,128699,1,0,0:0:0:0:
320,244,128917,1,8,0:0:0:0:
320,240,129025,1,8,0:0:0:0:
316,240,129134,1,0,0:0:0:0:
316,240,129243,1,0,0:0:0:0:
316,240,129351,1,0,0:0:0:0:
316,240,129569,1,8,0:0:0:0:
316,240,129677,1,0,0:0:0:0:
320,244,129786,1,0,0:0:0:0:
320,244,129895,1,8,0:0:0:0:
320,240,130004,1,0,0:0:0:0:
316,240,130221,1,8,0:0:0:0:
316,240,130330,1,8,0:0:0:0:
316,240,130438,1,8,0:0:0:0:
316,240,130547,1,8,0:0:0:0:
316,240,130656,1,0,0:0:0:0:
316,224,130873,1,8,0:0:0:0:
316,224,130982,1,0,0:0:0:0:
316,224,131090,1,8,0:0:0:0:
316,220,131199,1,8,0:0:0:0:
316,220,131308,1,0,0:0:0:0:
316,220,131417,1,8,0:0:0:0:
316,220,131525,1,4,0:0:0:0:
312,224,131743,1,8,0:0:0:0:
332,244,132069,1,0,0:0:0:0:
332,244,132177,1,0,0:0:0:0:
320,236,132395,1,8,0:0:0:0:
320,236,132504,1,8,0:0:0:0:
320,236,132612,1,0,0:0:0:0:
320,236,132721,1,8,0:0:0:0:
320,236,132830,1,0,0:0:0:0:
308,220,133264,1,0,0:0:0:0:
280,224,133590,1,0,0:0:0:0:
280,224,133699,1,8,0:0:0:0:
296,208,133917,1,8,0:0:0:0:
296,208,134134,1,0,0:0:0:0:
296,208,134243,1,0,0:0:0:0:
296,208,134351,1,0,0:0:0:0:
296,208,134569,1,8,0:0:0:0:
296,208,134786,1,0,0:0:0:0:
296,208,135004,1,0,0:0:0:0:
296,208,135112,1,0,0:0:0:0:
296,208,135221,1,0,0:0:0:0:
296,208,135438,1,8,0:0:0:0:
296,208,135656,1,0,0:0:0:0:
296,208,135764,1,0,0:0:0:0:
296,208,135873,1,8,0:0:0:0:
296,208,136090,1,0,0:0:0:0:
296,208,136308,1,8,0:0:0:0:
296,208,136525,1,0,0:0:0:0:
296,208,136743,1,0,0:0:0:0:
296,208,136851,1,0,0:0:0:0:
296,208,136960,1,0,0:0:0:0:
296,208,137177,1,8,0:0:0:0:
296,208,137395,1,0,0:0:0:0:
296,208,137612,1,8,0:0:0:0:
296,208,137721,1,8,0:0:0:0:
296,208,137830,1,0,0:0:0:0:
296,208,138047,1,8,0:0:0:0:
296,208,138264,1,0,0:0:0:0:
296,208,138482,1,0,0:0:0:0:
296,208,138590,1,0,0:0:0:0:
296,208,138699,1,8,0:0:0:0:
356,240,138917,1,8,0:0:0:0:
356,240,139134,1,0,0:0:0:0:
368,264,139351,1,8,0:0:0:0:
368,264,139460,1,8,0:0:0:0:
368,264,139569,1,0,0:0:0:0:
296,224,139786,1,0,0:0:0:0:
296,224,140004,1,8,0:0:0:0:
332,264,140112,1,0,0:0:0:0:
296,224,140221,1,0,0:0:0:0:
320,224,140547,1,0,0:0:0:0:
320,224,140656,1,8,0:0:0:0:
320,224,140873,1,0,0:0:0:0:
320,224,141090,1,0,0:0:0:0:
320,224,141199,1,0,0:0:0:0:
320,224,141308,1,0,0:0:0:0:
320,224,141525,1,8,0:0:0:0:
320,224,141743,1,0,0:0:0:0:
320,224,141960,1,0,0:0:0:0:
320,224,142069,1,0,0:0:0:0:
320,224,142177,1,8,0:0:0:0:
352,260,142395,1,8,0:0:0:0:
328,244,142612,1,0,0:0:0:0:
320,224,142830,1,8,0:0:0:0:
320,224,142938,1,8,0:0:0:0:
320,224,143047,1,0,0:0:0:0:
320,224,143264,1,8,0:0:0:0:
312,216,143482,1,0,0:0:0:0:
308,216,143699,1,4,0:0:0:0:
312,228,143917,1,0,0:0:0:0:
312,228,144025,1,0,0:0:0:0:
312,228,144134,1,8,0:0:0:0:
312,228,144351,1,0,0:0:0:0:
312,228,144569,1,4,0:0:0:0:
312,228,144786,1,0,0:0:0:0:
312,228,144895,1,0,0:0:0:0:
312,228,145004,1,8,0:0:0:0:
312,228,145221,1,8,0:0:0:0:
312,228,145438,1,0,0:0:0:0:
312,228,145547,1,0,0:0:0:0:
312,228,145656,1,0,0:0:0:0:
312,228,145764,1,0,0:0:0:0:
312,228,145873,1,8,0:0:0:0:
312,228,146090,1,0,0:0:0:0:
312,228,146199,1,0,0:0:0:0:
312,228,146308,1,8,0:0:0:0:
312,228,146525,1,0,0:0:0:0:
312,228,146743,1,8,0:0:0:0:
320,232,146851,1,8,0:0:0:0:
312,228,146960,1,0,0:0:0:0:
320,232,147069,1,0,0:0:0:0:
312,228,147177,1,0,0:0:0:0:
336,232,147612,1,8,0:0:0:0:
324,224,147830,1,0,0:0:0:0:
324,224,148047,1,0,0:0:0:0:
312,232,148482,1,8,0:0:0:0:
308,248,148699,1,0,0:0:0:0:
316,248,148917,1,0,0:0:0:0:
312,220,149243,1,8,0:0:0:0:
332,244,149569,1,0,0:0:0:0:
332,244,149786,1,0,0:0:0:0:
304,220,150221,1,8,0:0:0:0:
304,220,150656,1,0,0:0:0:0:
296,216,151090,1,8,0:0:0:0:
296,216,151308,1,0,0:0:0:0:
296,216,151525,1,0,0:0:0:0:
296,216,151960,1,8,0:0:0:0:
296,216,152177,1,0,0:0:0:0:
296,216,152395,1,0,0:0:0:0:
296,216,152721,1,8,0:0:0:0:
264,220,153047,1,0,0:0:0:0:
264,220,153264,1,8,0:0:0:0:
268,220,153699,1,8,0:0:0:0:
264,220,153917,1,0,0:0:0:0:
308,224,154134,1,4,0:0:0:0:
300,232,154460,1,0,0:0:0:0:
300,232,154569,1,0,0:0:0:0:
300,216,154786,1,8,0:0:0:0:
300,216,155004,1,0,0:0:0:0:
296,224,155330,1,0,0:0:0:0:
296,224,155438,1,8,0:0:0:0:
296,224,155656,1,8,0:0:0:0:
296,224,155873,1,0,0:0:0:0:
296,224,156199,1,8,0:0:0:0:
296,224,156308,1,0,0:0:0:0:
296,224,156525,1,8,0:0:0:0:
296,224,156743,1,0,0:0:0:0:
296,224,157069,1,8,0:0:0:0:
296,224,157177,1,8,0:0:0:0:
296,224,157395,1,8,0:0:0:0:
296,224,157612,1,0,0:0:0:0:
320,216,157830,1,0,0:0:0:0:
320,216,157938,1,0,0:0:0:0:
320,216,158047,1,8,0:0:0:0:
320,216,158264,1,8,0:0:0:0:
320,216,158482,1,0,0:0:0:0:
320,216,158590,1,0,0:0:0:0:
320,216,158699,1,0,0:0:0:0:
320,216,158808,1,0,0:0:0:0:
320,216,158917,1,8,0:0:0:0:
320,216,159134,1,8,0:0:0:0:
324,216,159351,1,0,0:0:0:0:
300,228,159677,1,8,0:0:0:0:
304,228,160004,1,8,0:0:0:0:
304,228,160221,1,0,0:0:0:0:
304,228,160330,1,0,0:0:0:0:
300,228,160438,1,0,0:0:0:0:
300,228,160656,1,8,0:0:0:0:
316,240,161090,1,4,0:0:0:0:
312,228,161417,1,0,0:0:0:0:
312,228,161525,1,8,0:0:0:0:
312,228,161743,1,8,0:0:0:0:
312,228,161960,1,0,0:0:0:0:
288,232,162286,1,8,0:0:0:0:
288,232,162395,1,0,0:0:0:0:
288,232,162612,1,8,0:0:0:0:
288,232,162830,1,0,0:0:0:0:
296,232,162938,1,0,0:0:0:0:
296,232,163156,1,0,0:0:0:0:
296,232,163264,1,8,0:0:0:0:
296,232,163482,1,8,0:0:0:0:
296,232,163699,1,0,0:0:0:0:
296,232,163917,1,8,0:0:0:0:
296,232,164025,1,8,0:0:0:0:
296,232,164134,1,0,0:0:0:0:
296,232,164351,1,8,0:0:0:0:
296,232,164569,1,0,0:0:0:0:
300,224,164677,1,0,0:0:0:0:
300,228,164786,1,8,0:0:0:0:
300,228,164895,1,0,0:0:0:0:
320,236,165221,1,8,0:0:0:0:
316,236,165438,1,0,0:0:0:0:
316,236,165656,1,8,0:0:0:0:
316,236,165764,1,8,0:0:0:0:
316,236,165873,1,0,0:0:0:0:
320,236,166090,1,8,0:0:0:0:
316,236,166308,1,0,0:0:0:0:
316,236,166417,1,0,0:0:0:0:
316,236,166525,1,8,0:0:0:0:
316,236,166634,1,0,0:0:0:0:
304,232,166851,1,0,0:0:0:0:
304,232,166960,1,8,0:0:0:0:
304,232,167177,1,0,0:0:0:0:
304,232,167395,1,8,0:0:0:0:
304,232,167504,1,8,0:0:0:0:
304,232,167612,1,0,0:0:0:0:
304,232,167721,1,0,0:0:0:0:
304,232,167830,1,8,0:0:0:0:
304,232,168047,1,4,0:0:0:0:
304,232,168373,1,8,0:0:0:0:
280,268,168482,1,0,0:0:0:0:
304,232,168699,1,8,0:0:0:0:
304,232,168917,1,0,0:0:0:0:
316,248,169243,1,8,0:0:0:0:
304,208,169351,1,0,0:0:0:0:
320,248,169569,1,8,0:0:0:0:
320,248,169786,1,0,0:0:0:0:
316,248,169895,1,0,0:0:0:0:
316,252,170112,1,8,0:0:0:0:
316,248,170221,1,0,0:0:0:0:
320,248,170438,1,8,0:0:0:0:
312,240,170656,1,0,0:0:0:0:
336,252,170873,1,8,0:0:0:0:
336,252,170982,1,0,0:0:0:0:
336,252,171090,1,0,0:0:0:0:
320,260,171308,1,8,0:0:0:0:
320,256,171525,1,0,0:0:0:0:
320,256,171634,1,0,0:0:0:0:
320,256,171743,1,8,0:0:0:0:
320,256,171851,1,0,0:0:0:0:
320,260,172177,1,8,0:0:0:0:
320,256,172395,1,0,0:0:0:0:
320,256,172612,1,8,0:0:0:0:
320,256,172721,1,8,0:0:0:0:
320,256,172830,1,0,0:0:0:0:
320,260,173047,1,8,0:0:0:0:
328,264,173264,1,0,0:0:0:0:
328,264,173373,1,0,0:0:0:0:
328,264,173482,1,8,0:0:0:0:
328,264,173590,1,0,0:0:0:0:
328,264,173917,1,8,0:0:0:0:
312,248,174134,1,0,0:0:0:0:
320,248,174351,1,0,0:0:0:0:
320,248,174423,1,0,0:0:0:0:
320,248,174496,1,0,0:0:0:0:
320,248,174568,1,8,0:0:0:0:
260,200,175003,5,8,0:0:0:0:
260,200,175043,1,0,0:0:0:0:
260,200,175112,5,8,0:0:0:0:
260,200,175152,1,0,0:0:0:0:
260,200,175221,5,8,0:0:0:0:
260,200,175261,1,0,0:0:0:0:
260,200,175329,5,8,0:0:0:0:
260,200,175369,1,0,0:0:0:0:
260,200,175438,5,8,0:0:0:0:
260,200,175478,1,0,0:0:0:0:
260,200,175547,5,8,0:0:0:0:
260,200,175587,1,0,0:0:0:0:
260,200,175656,5,8,0:0:0:0:
260,200,175696,1,0,0:0:0:0:
260,200,175764,5,8,0:0:0:0:
260,200,175804,1,0,0:0:0:0:
260,200,175872,5,8,0:0:0:0:
260,200,175912,1,0,0:0:0:0:
260,200,175981,5,8,0:0:0:0:
260,200,176021,1,0,0:0:0:0:
260,200,176090,5,8,0:0:0:0:
260,200,176130,1,0,0:0:0:0:
260,200,176198,5,8,0:0:0:0:
260,200,176238,1,0,0:0:0:0:
260,200,176307,5,8,0:0:0:0:
260,200,176347,1,0,0:0:0:0:
260,200,176416,5,8,0:0:0:0:
260,200,176456,1,0,0:0:0:0:
260,200,176525,5,8,0:0:0:0:
260,200,176565,1,0,0:0:0:0:
260,200,176633,5,8,0:0:0:0:
260,200,176673,1,0,0:0:0:0:
260,200,176742,5,8,0:0:0:0:
260,200,176782,1,0,0:0:0:0:
260,200,176851,5,8,0:0:0:0:
260,200,176891,1,0,0:0:0:0:
260,200,176960,5,8,0:0:0:0:
260,200,177000,1,0,0:0:0:0:
260,200,177068,5,8,0:0:0:0:
260,200,177108,1,0,0:0:0:0:
260,200,177177,5,8,0:0:0:0:
260,200,177217,1,0,0:0:0:0:
260,200,177286,5,8,0:0:0:0:
260,200,177326,1,0,0:0:0:0:
260,200,177395,5,8,0:0:0:0:
260,200,177435,1,0,0:0:0:0:
260,200,177503,5,8,0:0:0:0:
260,200,177543,1,0,0:0:0:0:
260,200,177611,5,8,0:0:0:0:
260,200,177651,1,0,0:0:0:0:
260,200,177720,5,8,0:0:0:0:
260,200,177760,1,0,0:0:0:0:
260,200,177829,5,8,0:0:0:0:
260,200,177869,1,0,0:0:0:0:
260,200,177937,5,8,0:0:0:0:
260,200,177977,1,0,0:0:0:0:
260,200,178046,5,8,0:0:0:0:
260,200,178086,1,0,0:0:0:0:
260,200,178155,5,8,0:0:0:0:
260,200,178195,1,0,0:0:0:0:
260,200,178264,5,8,0:0:0:0:
260,200,178304,1,0,0:0:0:0:
260,200,178372,5,8,0:0:0:0:
260,200,178412,1,0,0:0:0:0:
260,200,178482,1,0,0:0:0:0:
260,200,178591,1,0,0:0:0:0:
260,200,178700,1,0,0:0:0:0:
260,200,178809,1,0,0:0:0:0:
260,200,178917,1,0,0:0:0:0:
260,200,179026,1,0,0:0:0:0:
260,200,179135,1,0,0:0:0:0:
260,200,179243,1,0,0:0:0:0:
260,200,179352,5,8,0:0:0:0:
260,200,179461,5,8,0:0:0:0:
260,200,179569,5,8,0:0:0:0:
260,200,179678,1,8,0:0:0:0:
260,200,179787,5,8,0:0:0:0:
260,200,179896,5,8,0:0:0:0:
260,200,180004,5,8,0:0:0:0:
260,200,180113,5,8,0:0:0:0:
260,200,180222,5,0,0:0:0:0:
260,200,180330,1,0,0:0:0:0:
260,200,180439,1,0,0:0:0:0:
260,200,180548,1,0,0:0:0:0:
260,200,180656,1,0,0:0:0:0:
260,200,180765,1,0,0:0:0:0:
260,200,180874,1,0,0:0:0:0:
260,200,180982,1,0,0:0:0:0:
260,200,181091,5,8,0:0:0:0:
260,200,181200,5,8,0:0:0:0:
260,200,181309,5,8,0:0:0:0:
260,200,181417,5,8,0:0:0:0:
260,200,181526,1,0,0:0:0:0:
260,200,181635,1,0,0:0:0:0:
260,200,181743,1,0,0:0:0:0:
260,200,181852,1,0,0:0:0:0:
260,200,181959,5,8,0:0:0:0:
260,200,181999,1,0,0:0:0:0:
260,200,182068,5,8,0:0:0:0:
260,200,182108,1,0,0:0:0:0:
260,200,182177,5,8,0:0:0:0:
260,200,182217,1,0,0:0:0:0:
260,200,182285,5,8,0:0:0:0:
260,200,182325,1,0,0:0:0:0:
260,200,182394,5,8,0:0:0:0:
260,200,182434,1,0,0:0:0:0:
260,200,182503,5,8,0:0:0:0:
260,200,182543,1,0,0:0:0:0:
260,200,182612,5,8,0:0:0:0:
260,200,182652,1,0,0:0:0:0:
260,200,182720,5,8,0:0:0:0:
260,200,182760,1,0,0:0:0:0:
260,200,182830,5,8,0:0:0:0:
260,200,182939,5,8,0:0:0:0:
260,200,183048,5,8,0:0:0:0:
260,200,183156,5,8,0:0:0:0:
260,200,183265,5,8,0:0:0:0:
260,200,183374,5,8,0:0:0:0:
260,200,183482,5,8,0:0:0:0:
260,200,183591,5,8,0:0:0:0:
260,200,183698,5,8,0:0:0:0:
260,200,183738,1,0,0:0:0:0:
260,200,183807,5,8,0:0:0:0:
260,200,183847,1,0,0:0:0:0:
260,200,183916,5,8,0:0:0:0:
260,200,183956,1,0,0:0:0:0:
260,200,184024,5,8,0:0:0:0:
260,200,184064,1,0,0:0:0:0:
260,200,184133,5,8,0:0:0:0:
260,200,184173,1,0,0:0:0:0:
260,200,184242,5,8,0:0:0:0:
260,200,184282,1,0,0:0:0:0:
260,200,184351,5,8,0:0:0:0:
260,200,184391,1,0,0:0:0:0:
260,200,184459,5,8,0:0:0:0:
260,200,184499,1,0,0:0:0:0:
260,200,184569,1,0,0:0:0:0:
260,200,184678,1,0,0:0:0:0:
260,200,184787,5,0,0:0:0:0:
260,200,184896,1,0,0:0:0:0:
260,200,185004,1,0,0:0:0:0:
260,200,185113,1,0,0:0:0:0:
260,200,185222,1,0,0:0:0:0:
260,200,185330,1,0,0:0:0:0:
260,200,185438,5,8,0:0:0:0:
260,200,185478,1,0,0:0:0:0:
260,200,185547,5,8,0:0:0:0:
260,200,185587,1,0,0:0:0:0:
260,200,185656,5,8,0:0:0:0:
260,200,185696,1,0,0:0:0:0:
260,200,185764,5,8,0:0:0:0:
260,200,185804,1,0,0:0:0:0:
260,200,185874,1,0,0:0:0:0:
260,200,185982,1,0,0:0:0:0:
260,200,186091,1,0,0:0:0:0:
260,200,186200,1,0,0:0:0:0:
260,200,186307,5,8,0:0:0:0:
260,200,186347,1,0,0:0:0:0:
260,200,186416,5,8,0:0:0:0:
260,200,186456,1,0,0:0:0:0:
260,200,186525,5,8,0:0:0:0:
260,200,186565,1,0,0:0:0:0:
260,200,186633,5,8,0:0:0:0:
260,200,186673,1,0,0:0:0:0:
260,200,186743,5,8,0:0:0:0:
260,200,186852,5,8,0:0:0:0:
260,200,186960,5,8,0:0:0:0:
260,200,187069,5,8,0:0:0:0:
260,200,187177,5,8,0:0:0:0:
260,200,187217,1,0,0:0:0:0:
260,200,187286,5,8,0:0:0:0:
260,200,187326,1,0,0:0:0:0:
260,200,187395,5,8,0:0:0:0:
260,200,187435,1,0,0:0:0:0:
260,200,187503,5,8,0:0:0:0:
260,200,187543,1,0,0:0:0:0:
260,200,187611,5,8,0:0:0:0:
260,200,187651,1,0,0:0:0:0:
260,200,187720,5,8,0:0:0:0:
260,200,187760,1,0,0:0:0:0:
260,200,187829,5,8,0:0:0:0:
260,200,187869,1,0,0:0:0:0:
260,200,187937,5,8,0:0:0:0:
260,200,187977,1,0,0:0:0:0:
260,200,188047,5,8,0:0:0:0:
260,200,188156,5,8,0:0:0:0:
260,200,188265,5,8,0:0:0:0:
260,200,188374,5,8,0:0:0:0:
260,200,188482,5,0,0:0:0:0:
260,200,188591,5,8,0:0:0:0:
260,200,188699,5,8,0:0:0:0:
260,200,188808,5,8,0:0:0:0:
260,200,188916,5,8,0:0:0:0:
260,200,188956,1,0,0:0:0:0:
260,200,189025,5,8,0:0:0:0:
260,200,189065,1,0,0:0:0:0:
260,200,189134,5,8,0:0:0:0:
260,200,189174,1,0,0:0:0:0:
260,200,189242,5,8,0:0:0:0:
260,200,189282,1,0,0:0:0:0:
260,200,189350,5,8,0:0:0:0:
260,200,189390,1,0,0:0:0:0:
260,200,189459,5,8,0:0:0:0:
260,200,189499,1,0,0:0:0:0:
260,200,189568,5,8,0:0:0:0:
260,200,189608,1,0,0:0:0:0:
260,200,189676,5,8,0:0:0:0:
260,200,189716,1,0,0:0:0:0:
260,200,189785,5,8,0:0:0:0:
260,200,189825,1,0,0:0:0:0:
260,200,189894,5,8,0:0:0:0:
260,200,189934,1,0,0:0:0:0:
260,200,190003,5,8,0:0:0:0:
260,200,190043,1,0,0:0:0:0:
260,200,190111,5,8,0:0:0:0:
260,200,190151,1,0,0:0:0:0:
260,200,190219,5,8,0:0:0:0:
260,200,190259,1,0,0:0:0:0:
260,200,190328,5,8,0:0:0:0:
260,200,190368,1,0,0:0:0:0:
260,200,190437,5,8,0:0:0:0:
260,200,190477,1,0,0:0:0:0:
260,200,190545,5,8,0:0:0:0:
260,200,190585,1,0,0:0:0:0:
260,200,190655,5,8,0:0:0:0:
260,200,190695,1,0,0:0:0:0:
260,200,190764,5,8,0:0:0:0:
260,200,190804,1,0,0:0:0:0:
260,200,190873,5,8,0:0:0:0:
260,200,190913,1,0,0:0:0:0:
260,200,190981,5,8,0:0:0:0:
260,200,191021,1,0,0:0:0:0:
260,200,191089,5,8,0:0:0:0:
260,200,191129,1,0,0:0:0:0:
260,200,191198,5,8,0:0:0:0:
260,200,191238,1,0,0:0:0:0:
260,200,191307,5,8,0:0:0:0:
260,200,191347,1,0,0:0:0:0:
260,200,191415,5,8,0:0:0:0:
260,200,191455,1,0,0:0:0:0:
260,200,191525,5,8,0:0:0:0:
260,200,191565,1,0,0:0:0:0:
260,200,191634,5,8,0:0:0:0:
260,200,191674,1,0,0:0:0:0:
260,200,191743,5,8,0:0:0:0:
260,200,191783,1,0,0:0:0:0:
260,200,191851,5,8,0:0:0:0:
260,200,191891,1,0,0:0:0:0:
260,200,191959,5,8,0:0:0:0:
260,200,191999,1,0,0:0:0:0:
260,200,192068,5,8,0:0:0:0:
260,200,192108,1,0,0:0:0:0:
260,200,192177,5,8,0:0:0:0:
260,200,192217,1,0,0:0:0:0:
260,200,192285,5,8,0:0:0:0:
260,200,192325,1,0,0:0:0:0:
260,200,192396,1,0,0:0:0:0:
260,200,192504,1,0,0:0:0:0:
260,200,192613,1,0,0:0:0:0:
260,200,192722,1,0,0:0:0:0:
260,200,192830,1,0,0:0:0:0:
260,200,192939,1,0,0:0:0:0:
260,200,193048,1,0,0:0:0:0:
260,200,193156,1,0,0:0:0:0:
260,200,193264,5,8,0:0:0:0:
260,200,193373,5,8,0:0:0:0:
260,200,193482,5,8,0:0:0:0:
260,200,193590,5,8,0:0:0:0:
260,200,193699,5,8,0:0:0:0:
260,200,193808,5,8,0:0:0:0:
260,200,193916,5,8,0:0:0:0:
260,200,194025,5,8,0:0:0:0:
260,200,194133,5,8,0:0:0:0:
260,200,194173,1,0,0:0:0:0:
260,200,194242,5,8,0:0:0:0:
260,200,194282,1,0,0:0:0:0:
260,200,194351,5,8,0:0:0:0:
260,200,194391,1,0,0:0:0:0:
260,200,194459,5,8,0:0:0:0:
260,200,194499,1,0,0:0:0:0:
260,200,194567,5,8,0:0:0:0:
260,200,194607,1,0,0:0:0:0:
260,200,194676,5,8,0:0:0:0:
260,200,194716,1,0,0:0:0:0:
260,200,194785,5,8,0:0:0:0:
260,200,194825,1,0,0:0:0:0:
260,200,194893,5,8,0:0:0:0:
260,200,194933,1,0,0:0:0:0:
260,200,195004,1,0,0:0:0:0:
260,200,195113,1,0,0:0:0:0:
260,200,195222,1,0,0:0:0:0:
260,200,195330,1,0,0:0:0:0:
260,200,195438,5,8,0:0:0:0:
260,200,195547,5,8,0:0:0:0:
260,200,195656,1,0,0:0:0:0:
260,200,195765,1,0,0:0:0:0:
260,200,195872,5,8,0:0:0:0:
260,200,195912,1,0,0:0:0:0:
260,200,195981,5,8,0:0:0:0:
260,200,196021,1,0,0:0:0:0:
260,200,196090,5,8,0:0:0:0:
260,200,196130,1,0,0:0:0:0:
260,200,196198,5,8,0:0:0:0:
260,200,196238,1,0,0:0:0:0:
260,200,196306,5,8,0:0:0:0:
260,200,196346,1,0,0:0:0:0:
260,200,196415,5,8,0:0:0:0:
260,200,196455,1,0,0:0:0:0:
260,200,196524,5,8,0:0:0:0:
260,200,196564,1,0,0:0:0:0:
260,200,196632,5,8,0:0:0:0:
260,200,196672,1,0,0:0:0:0:
260,200,196742,5,8,0:0:0:0:
260,200,196782,1,0,0:0:0:0:
260,200,196851,5,8,0:0:0:0:
260,200,196891,1,0,0:0:0:0:
260,200,196960,5,8,0:0:0:0:
260,200,197000,1,0,0:0:0:0:
260,200,197068,5,8,0:0:0:0:
260,200,197108,1,0,0:0:0:0:
260,200,197176,5,8,0:0:0:0:
260,200,197216,1,0,0:0:0:0:
260,200,197285,5,8,0:0:0:0:
260,200,197325,1,0,0:0:0:0:
260,200,197394,5,8,0:0:0:0:
260,200,197434,1,0,0:0:0:0:
260,200,197502,5,8,0:0:0:0:
260,200,197542,1,0,0:0:0:0:
260,200,197611,5,8,0:0:0:0:
260,200,197651,1,0,0:0:0:0:
260,200,197720,5,8,0:0:0:0:
260,200,197760,1,0,0:0:0:0:
260,200,197829,5,8,0:0:0:0:
260,200,197869,1,0,0:0:0:0:
260,200,197937,5,8,0:0:0:0:
260,200,197977,1,0,0:0:0:0:
260,200,198045,5,8,0:0:0:0:
260,200,198085,1,0,0:0:0:0:
260,200,198154,5,8,0:0:0:0:
260,200,198194,1,0,0:0:0:0:
260,200,198263,5,8,0:0:0:0:
260,200,198303,1,0,0:0:0:0:
260,200,198371,5,8,0:0:0:0:
260,200,198411,1,0,0:0:0:0:
260,200,198481,5,8,0:0:0:0:
260,200,198521,1,0,0:0:0:0:
260,200,198590,5,8,0:0:0:0:
260,200,198630,1,0,0:0:0:0:
260,200,198699,5,8,0:0:0:0:
260,200,198739,1,0,0:0:0:0:
260,200,198807,5,8,0:0:0:0:
260,200,198847,1,0,0:0:0:0:
260,200,198915,5,8,0:0:0:0:
260,200,198955,1,0,0:0:0:0:
260,200,199024,5,8,0:0:0:0:
260,200,199064,1,0,0:0:0:0:
260,200,199133,5,8,0:0:0:0:
260,200,199173,1,0,0:0:0:0:
260,200,199241,5,8,0:0:0:0:
260,200,199281,1,0,0:0:0:0:
260,200,199351,5,8,0:0:0:0:
260,200,199391,1,0,0:0:0:0:
260,200,199460,5,8,0:0:0:0:
260,200,199500,1,0,0:0:0:0:
260,200,199569,5,8,0:0:0:0:
260,200,199609,1,0,0:0:0:0:
260,200,199677,5,8,0:0:0:0:
260,200,199717,1,0,0:0:0:0:
260,200,199785,5,8,0:0:0:0:
260,200,199825,1,0,0:0:0:0:
260,200,199894,5,8,0:0:0:0:
260,200,199934,1,0,0:0:0:0:
260,200,200003,5,8,0:0:0:0:
260,200,200043,1,0,0:0:0:0:
260,200,200111,5,8,0:0:0:0:
260,200,200151,1,0,0:0:0:0:
260,200,200220,5,8,0:0:0:0:
260,200,200260,1,0,0:0:0:0:
260,200,200329,5,8,0:0:0:0:
260,200,200369,1,0,0:0:0:0:
260,200,200438,5,8,0:0:0:0:
260,200,200478,1,0,0:0:0:0:
260,200,200546,5,8,0:0:0:0:
260,200,200586,1,0,0:0:0:0:
260,200,200654,5,8,0:0:0:0:
260,200,200694,1,0,0:0:0:0:
260,200,200763,5,8,0:0:0:0:
260,200,200803,1,0,0:0:0:0:
260,200,200872,5,8,0:0:0:0:
260,200,200912,1,0,0:0:0:0:
260,200,200980,5,8,0:0:0:0:
260,200,201020,1,0,0:0:0:0:
260,200,201090,5,8,0:0:0:0:
260,200,201130,1,0,0:0:0:0:
260,200,201199,5,8,0:0:0:0:
260,200,201239,1,0,0:0:0:0:
260,200,201308,5,8,0:0:0:0:
260,200,201348,1,0,0:0:0:0:
260,200,201416,5,8,0:0:0:0:
260,200,201456,1,0,0:0:0:0:
260,200,201524,5,8,0:0:0:0:
260,200,201564,1,0,0:0:0:0:
260,200,201633,5,8,0:0:0:0:
260,200,201673,1,0,0:0:0:0:
260,200,201742,5,8,0:0:0:0:
260,200,201782,1,0,0:0:0:0:
260,200,201850,5,8,0:0:0:0:
260,200,201890,1,0,0:0:0:0:
260,200,201959,5,8,0:0:0:0:
260,200,201999,1,0,0:0:0:0:
260,200,202068,5,8,0:0:0:0:
260,200,202108,1,0,0:0:0:0:
260,200,202177,5,8,0:0:0:0:
260,200,202217,1,0,0:0:0:0:
260,200,202285,5,8,0:0:0:0:
260,200,202325,1,0,0:0:0:0:
260,200,202393,5,8,0:0:0:0:
260,200,202433,1,0,0:0:0:0:
260,200,202502,5,8,0:0:0:0:
260,200,202542,1,0,0:0:0:0:
260,200,202611,5,8,0:0:0:0:
260,200,202651,1,0,0:0:0:0:
260,200,202719,5,8,0:0:0:0:
260,200,202759,1,0,0:0:0:0:
260,200,202829,5,8,0:0:0:0:
260,200,202869,1,0,0:0:0:0:
260,200,202938,1,0,0:0:0:0:
260,200,203046,5,8,0:0:0:0:
260,200,203086,1,0,0:0:0:0:
260,200,203155,1,0,0:0:0:0:
260,200,203264,5,8,0:0:0:0:
260,200,203304,1,0,0:0:0:0:
260,200,203373,1,0,0:0:0:0:
260,200,203481,5,8,0:0:0:0:
260,200,203521,1,0,0:0:0:0:
260,200,203590,1,0,0:0:0:0:
260,200,203698,5,8,0:0:0:0:
260,200,203738,1,0,0:0:0:0:
260,200,203807,1,0,0:0:0:0:
260,200,203915,5,8,0:0:0:0:
260,200,203955,1,0,0:0:0:0:
260,200,204024,1,0,0:0:0:0:
260,200,204133,5,8,0:0:0:0:
260,200,204173,1,0,0:0:0:0:
260,200,204242,1,0,0:0:0:0:
260,200,204350,5,8,0:0:0:0:
260,200,204390,1,0,0:0:0:0:
260,200,204459,1,0,0:0:0:0:
260,200,204568,5,8,0:0:0:0:
260,200,204608,1,0,0:0:0:0:
260,200,204677,1,0,0:0:0:0:
260,200,204785,5,8,0:0:0:0:
260,200,204825,1,0,0:0:0:0:
260,200,204894,1,0,0:0:0:0:
260,200,205003,5,8,0:0:0:0:
260,200,205043,1,0,0:0:0:0:
260,200,205112,1,0,0:0:0:0:
260,200,205220,5,8,0:0:0:0:
260,200,205260,1,0,0:0:0:0:
260,200,205329,1,0,0:0:0:0:
260,200,205438,5,8,0:0:0:0:
260,200,205478,1,0,0:0:0:0:
260,200,205547,5,8,0:0:0:0:
260,200,205587,1,0,0:0:0:0:
260,200,205655,5,8,0:0:0:0:
260,200,205695,1,0,0:0:0:0:
260,200,205763,5,8,0:0:0:0:
260,200,205803,1,0,0:0:0:0:
260,200,205872,5,8,0:0:0:0:
260,200,205912,1,0,0:0:0:0:
260,200,205981,5,8,0:0:0:0:
260,200,206021,1,0,0:0:0:0:
260,200,206089,5,8,0:0:0:0:
260,200,206129,1,0,0:0:0:0:
260,200,206199,5,8,0:0:0:0:
260,200,206239,1,0,0:0:0:0:
260,200,206308,1,0,0:0:0:0:
260,200,206417,1,0,0:0:0:0:
260,200,206525,1,0,0:0:0:0:
260,200,206634,1,0,0:0:0:0:
260,200,206743,1,0,0:0:0:0:
260,200,206851,1,0,0:0:0:0:
260,200,206960,1,0,0:0:0:0:
260,200,207069,1,0,0:0:0:0:
260,200,207177,5,8,0:0:0:0:
260,200,207217,1,0,0:0:0:0:
260,200,207286,5,8,0:0:0:0:
260,200,207326,1,0,0:0:0:0:
260,200,207394,5,8,0:0:0:0:
260,200,207434,1,0,0:0:0:0:
260,200,207502,5,8,0:0:0:0:
260,200,207542,1,0,0:0:0:0:
260,200,207611,5,8,0:0:0:0:
260,200,207651,1,0,0:0:0:0:
260,200,207720,5,8,0:0:0:0:
260,200,207760,1,0,0:0:0:0:
260,200,207828,5,8,0:0:0:0:
260,200,207868,1,0,0:0:0:0:
260,200,207938,5,8,0:0:0:0:
260,200,207978,1,0,0:0:0:0:
260,200,208047,1,0,0:0:0:0:
260,200,208155,1,0,0:0:0:0:
260,200,208264,1,0,0:0:0:0:
260,200,208373,1,0,0:0:0:0:
260,200,208482,1,0,0:0:0:0:
260,200,208590,1,0,0:0:0:0:
260,200,208699,1,0,0:0:0:0:
260,200,208808,1,0,0:0:0:0:
260,200,208916,5,8,0:0:0:0:
260,200,208956,1,0,0:0:0:0:
260,200,209025,5,8,0:0:0:0:
260,200,209065,1,0,0:0:0:0:
260,200,209133,5,8,0:0:0:0:
260,200,209173,1,0,0:0:0:0:
260,200,209241,5,8,0:0:0:0:
260,200,209281,1,0,0:0:0:0:
260,200,209350,5,8,0:0:0:0:
260,200,209390,1,0,0:0:0:0:
260,200,209459,5,8,0:0:0:0:
260,200,209499,1,0,0:0:0:0:
260,200,209567,5,8,0:0:0:0:
260,200,209607,1,0,0:0:0:0:
260,200,209677,5,8,0:0:0:0:
260,200,209717,1,0,0:0:0:0:
260,200,209785,5,8,0:0:0:0:
260,200,209825,1,0,0:0:0:0:
260,200,209894,1,0,0:0:0:0:
260,200,210002,5,8,0:0:0:0:
260,200,210042,1,0,0:0:0:0:
260,200,210111,1,0,0:0:0:0:
260,200,210220,5,8,0:0:0:0:
260,200,210260,1,0,0:0:0:0:
260,200,210329,1,0,0:0:0:0:
260,200,210437,5,8,0:0:0:0:
260,200,210477,1,0,0:0:0:0:
260,200,210546,1,0,0:0:0:0:
260,200,210655,5,8,0:0:0:0:
260,200,210695,1,0,0:0:0:0:
260,200,210764,5,8,0:0:0:0:
260,200,210804,1,0,0:0:0:0:
260,200,210872,5,8,0:0:0:0:
260,200,210912,1,0,0:0:0:0:
260,200,210980,5,8,0:0:0:0:
260,200,211020,1,0,0:0:0:0:
260,200,211089,5,8,0:0:0:0:
260,200,211129,1,0,0:0:0:0:
260,200,211198,5,8,0:0:0:0:
260,200,211238,1,0,0:0:0:0:
260,200,211306,5,8,0:0:0:0:
260,200,211346,1,0,0:0:0:0:
260,200,211416,5,8,0:0:0:0:
260,200,211456,1,0,0:0:0:0:
260,200,211525,1,0,0:0:0:0:
260,200,211633,1,0,0:0:0:0:
260,200,211742,1,0,0:0:0:0:
260,200,211851,1,0,0:0:0:0:
260,200,211960,1,0,0:0:0:0:
260,200,212068,1,0,0:0:0:0:
260,200,212177,1,0,0:0:0:0:
260,200,212286,1,0,0:0:0:0:
260,200,212394,5,8,0:0:0:0:
260,200,212434,1,0,0:0:0:0:
260,200,212503,5,8,0:0:0:0:
260,200,212543,1,0,0:0:0:0:
260,200,212611,5,8,0:0:0:0:
260,200,212651,1,0,0:0:0:0:
260,200,212719,5,8,0:0:0:0:
260,200,212759,1,0,0:0:0:0:
260,200,212828,5,8,0:0:0:0:
260,200,212868,1,0,0:0:0:0:
260,200,212937,5,8,0:0:0:0:
260,200,212977,1,0,0:0:0:0:
260,200,213045,5,8,0:0:0:0:
260,200,213085,1,0,0:0:0:0:
260,200,213155,5,8,0:0:0:0:
260,200,213195,1,0,0:0:0:0:
260,200,213264,1,0,0:0:0:0:
260,200,213373,1,0,0:0:0:0:
260,200,213482,1,0,0:0:0:0:
260,200,213590,1,0,0:0:0:0:
260,200,213699,1,0,0:0:0:0:
260,200,213807,1,0,0:0:0:0:
260,200,213916,1,0,0:0:0:0:
260,200,214025,1,0,0:0:0:0:
260,200,214133,5,8,0:0:0:0:
260,200,214173,1,0,0:0:0:0:
260,200,214242,5,8,0:0:0:0:
260,200,214282,1,0,0:0:0:0:
260,200,214350,5,8,0:0:0:0:
260,200,214390,1,0,0:0:0:0:
260,200,214458,5,8,0:0:0:0:
260,200,214498,1,0,0:0:0:0:
260,200,214567,5,8,0:0:0:0:
260,200,214607,1,0,0:0:0:0:
260,200,214676,5,8,0:0:0:0:
260,200,214716,1,0,0:0:0:0:
260,200,214784,5,8,0:0:0:0:
260,200,214824,1,0,0:0:0:0:
260,200,214894,5,8,0:0:0:0:
260,200,214934,1,0,0:0:0:0:
260,200,215004,1,0,0:0:0:0:
260,200,215112,1,0,0:0:0:0:
260,200,215221,1,0,0:0:0:0:
260,200,215330,1,0,0:0:0:0:
260,200,215438,5,8,0:0:0:0:
260,200,215546,5,8,0:0:0:0:
260,200,215655,5,8,0:0:0:0:
260,200,215764,5,8,0:0:0:0:
260,200,215872,5,8,0:0:0:0:
260,200,215912,1,0,0:0:0:0:
260,200,215981,5,8,0:0:0:0:
260,200,216021,1,0,0:0:0:0:
260,200,216089,5,8,0:0:0:0:
260,200,216129,1,0,0:0:0:0:
260,200,216197,5,8,0:0:0:0:
260,200,216237,1,0,0:0:0:0:
260,200,216306,5,8,0:0:0:0:
260,200,216346,1,0,0:0:0:0:
260,200,216415,5,8,0:0:0:0:
260,200,216455,1,0,0:0:0:0:
260,200,216523,5,8,0:0:0:0:
260,200,216563,1,0,0:0:0:0:
260,200,216633,5,8,0:0:0:0:
260,200,216673,1,0,0:0:0:0:
260,200,216742,5,8,0:0:0:0:
260,200,216782,1,0,0:0:0:0:
260,200,216851,5,8,0:0:0:0:
260,200,216891,1,0,0:0:0:0:
260,200,216959,5,8,0:0:0:0:
260,200,216999,1,0,0:0:0:0:
260,200,217067,5,8,0:0:0:0:
260,200,217107,1,0,0:0:0:0:
260,200,217176,5,8,0:0:0:0:
260,200,217216,1,0,0:0:0:0:
260,200,217285,5,8,0:0:0:0:
260,200,217325,1,0,0:0:0:0:
260,200,217393,5,8,0:0:0:0:
260,200,217433,1,0,0:0:0:0:
260,200,217503,5,8,0:0:0:0:
260,200,217543,1,0,0:0:0:0:
260,200,217611,5,8,0:0:0:0:
260,200,217651,1,0,0:0:0:0:
260,200,217720,5,8,0:0:0:0:
260,200,217760,1,0,0:0:0:0:
260,200,217828,5,8,0:0:0:0:
260,200,217868,1,0,0:0:0:0:
260,200,217936,5,8,0:0:0:0:
260,200,217976,1,0,0:0:0:0:
260,200,218045,5,8,0:0:0:0:
260,200,218085,1,0,0:0:0:0:
260,200,218154,5,8,0:0:0:0:
260,200,218194,1,0,0:0:0:0:
260,200,218262,5,8,0:0:0:0:
260,200,218302,1,0,0:0:0:0:
260,200,218372,5,8,0:0:0:0:
260,200,218412,1,0,0:0:0:0:
260,200,218481,5,8,0:0:0:0:
260,200,218521,1,0,0:0:0:0:
260,200,218590,5,8,0:0:0:0:
260,200,218630,1,0,0:0:0:0:
260,200,218698,5,8,0:0:0:0:
260,200,218738,1,0,0:0:0:0:
260,200,218806,5,8,0:0:0:0:
260,200,218846,1,0,0:0:0:0:
260,200,218915,5,8,0:0:0:0:
260,200,218955,1,0,0:0:0:0:
260,200,219024,5,8,0:0:0:0:
260,200,219064,1,0,0:0:0:0:
260,200,219132,5,8,0:0:0:0:
260,200,219172,1,0,0:0:0:0:
260,200,219242,5,8,0:0:0:0:
260,200,219282,1,0,0:0:0:0:
260,200,219351,5,8,0:0:0:0:
260,200,219391,1,0,0:0:0:0:
260,200,219460,5,8,0:0:0:0:
260,200,219500,1,0,0:0:0:0:
260,200,219568,5,8,0:0:0:0:
260,200,219608,1,0,0:0:0:0:
260,200,219676,5,8,0:0:0:0:
260,200,219716,1,0,0:0:0:0:
260,200,219785,5,8,0:0:0:0:
260,200,219825,1,0,0:0:0:0:
260,200,219894,5,8,0:0:0:0:
260,200,219934,1,0,0:0:0:0:
260,200,220002,5,8,0:0:0:0:
260,200,220042,1,0,0:0:0:0:
260,200,220112,5,8,0:0:0:0:
260,200,220152,1,0,0:0:0:0:
260,200,220221,1,0,0:0:0:0:
260,200,220329,1,0,0:0:0:0:
260,200,220438,1,0,0:0:0:0:
260,200,220547,1,0,0:0:0:0:
260,200,220656,1,0,0:0:0:0:
260,200,220764,1,0,0:0:0:0:
260,200,220873,1,0,0:0:0:0:
260,200,220982,1,0,0:0:0:0:
260,200,221090,5,8,0:0:0:0:
260,200,221130,1,0,0:0:0:0:
260,200,221199,5,8,0:0:0:0:
260,200,221239,1,0,0:0:0:0:
260,200,221307,5,8,0:0:0:0:
260,200,221347,1,0,0:0:0:0:
260,200,221415,5,8,0:0:0:0:
260,200,221455,1,0,0:0:0:0:
260,200,221524,5,8,0:0:0:0:
260,200,221564,1,0,0:0:0:0:
260,200,221633,5,8,0:0:0:0:
260,200,221673,1,0,0:0:0:0:
260,200,221741,5,8,0:0:0:0:
260,200,221781,1,0,0:0:0:0:
260,200,221851,5,8,0:0:0:0:
260,200,221891,1,0,0:0:0:0:
260,200,221960,1,0,0:0:0:0:
260,200,222068,1,0,0:0:0:0:
260,200,222177,1,0,0:0:0:0:
260,200,222286,1,0,0:0:0:0:
260,200,222395,1,0,0:0:0:0:
260,200,222503,1,0,0:0:0:0:
260,200,222612,1,0,0:0:0:0:
260,200,222721,1,0,0:0:0:0:
260,200,222829,5,8,0:0:0:0:
260,200,222869,1,0,0:0:0:0:
260,200,222938,5,8,0:0:0:0:
260,200,222978,1,0,0:0:0:0:
260,200,223046,5,8,0:0:0:0:
260,200,223086,1,0,0:0:0:0:
260,200,223156,5,8,0:0:0:0:
260,200,223196,1,0,0:0:0:0:
260,200,223264,1,0,0:0:0:0:
260,200,223373,5,8,0:0:0:0:
260,200,223481,5,8,0:0:0:0:
260,200,223590,5,8,0:0:0:0:
260,200,223698,5,8,0:0:0:0:
260,200,223738,1,0,0:0:0:0:
260,200,223807,5,8,0:0:0:0:
260,200,223847,1,0,0:0:0:0:
260,200,223915,5,8,0:0:0:0:
260,200,223955,1,0,0:0:0:0:
260,200,224025,5,8,0:0:0:0:
260,200,224065,1,0,0:0:0:0:
260,200,224133,5,8,0:0:0:0:
260,200,224173,1,0,0:0:0:0:
260,200,224242,5,8,0:0:0:0:
260,200,224282,1,0,0:0:0:0:
260,200,224350,5,8,0:0:0:0:
260,200,224390,1,0,0:0:0:0:
260,200,224460,5,8,0:0:0:0:
260,200,224500,1,0,0:0:0:0:
260,200,224568,5,8,0:0:0:0:
260,200,224608,1,0,0:0:0:0:
260,200,224677,5,8,0:0:0:0:
260,200,224717,1,0,0:0:0:0:
260,200,224785,5,8,0:0:0:0:
260,200,224825,1,0,0:0:0:0:
260,200,224895,5,8,0:0:0:0:
260,200,224935,1,0,0:0:0:0:
260,200,225003,5,8,0:0:0:0:
260,200,225043,1,0,0:0:0:0:
260,200,225112,5,8,0:0:0:0:
260,200,225152,1,0,0:0:0:0:
260,200,225220,5,8,0:0:0:0:
260,200,225260,1,0,0:0:0:0:
260,200,225330,5,8,0:0:0:0:
260,200,225370,1,0,0:0:0:0:
260,200,225438,5,8,0:0:0:0:
260,200,225478,1,0,0:0:0:0:
260,200,225547,5,8,0:0:0:0:
260,200,225587,1,0,0:0:0:0:
260,200,225655,5,8,0:0:0:0:
260,200,225695,1,0,0:0:0:0:
260,200,225765,5,8,0:0:0:0:
260,200,225805,1,0,0:0:0:0:
260,200,225873,5,8,0:0:0:0:
260,200,225913,1,0,0:0:0:0:
260,200,225982,5,8,0:0:0:0:
260,200,226022,1,0,0:0:0:0:
260,200,226090,5,8,0:0:0:0:
260,200,226130,1,0,0:0:0:0:
260,200,226200,5,8,0:0:0:0:
260,200,226240,1,0,0:0:0:0:
260,200,226307,5,8,0:0:0:0:
260,200,226347,1,0,0:0:0:0:
260,200,226416,5,8,0:0:0:0:
260,200,226456,1,0,0:0:0:0:
260,200,226524,5,8,0:0:0:0:
260,200,226564,1,0,0:0:0:0:
260,200,226634,5,8,0:0:0:0:
260,200,226674,1,0,0:0:0:0:
260,200,226742,5,8,0:0:0:0:
260,200,226782,1,0,0:0:0:0:
260,200,226851,5,8,0:0:0:0:
260,200,226891,1,0,0:0:0:0:
260,200,226959,5,8,0:0:0:0:
260,200,226999,1,0,0:0:0:0:
260,200,227069,5,8,0:0:0:0:
260,200,227109,1,0,0:0:0:0:
260,200,227177,5,8,0:0:0:0:
260,200,227217,1,0,0:0:0:0:
260,200,227286,5,8,0:0:0:0:
260,200,227326,1,0,0:0:0:0:
260,200,227394,5,8,0:0:0:0:
260,200,227434,1,0,0:0:0:0:
260,200,227504,5,8,0:0:0:0:
260,200,227544,1,0,0:0:0:0:
260,200,227612,5,8,0:0:0:0:
260,200,227652,1,0,0:0:0:0:
260,200,227721,5,8,0:0:0:0:
260,200,227761,1,0,0:0:0:0:
260,200,227829,5,8,0:0:0:0:
260,200,227869,1,0,0:0:0:0:
260,200,227939,5,8,0:0:0:0:
260,200,227979,1,0,0:0:0:0:
260,200,228046,5,8,0:0:0:0:
260,200,228086,1,0,0:0:0:0:
260,200,228155,5,8,0:0:0:0:
260,200,228195,1,0,0:0:0:0:
260,200,228263,5,8,0:0:0:0:
260,200,228303,1,0,0:0:0:0:
260,200,228373,5,8,0:0:0:0:
260,200,228413,1,0,0:0:0:0:
260,200,228481,5,8,0:0:0:0:
260,200,228521,1,0,0:0:0:0:
260,200,228590,5,8,0:0:0:0:
260,200,228630,1,0,0:0:0:0:
260,200,228698,5,8,0:0:0:0:
260,200,228738,1,0,0:0:0:0:
260,200,228808,5,8,0:0:0:0:
260,200,228848,1,0,0:0:0:0:
260,200,228916,5,8,0:0:0:0:
260,200,228956,1,0,0:0:0:0:
260,200,229025,5,8,0:0:0:0:
260,200,229065,1,0,0:0:0:0:
260,200,229133,5,8,0:0:0:0:
260,200,229173,1,0,0:0:0:0:
260,200,229243,5,8,0:0:0:0:
260,200,229283,1,0,0:0:0:0:
260,200,229351,5,8,0:0:0:0:
260,200,229391,1,0,0:0:0:0:
260,200,229460,5,8,0:0:0:0:
260,200,229500,1,0,0:0:0:0:
260,200,229568,5,8,0:0:0:0:
260,200,229608,1,0,0:0:0:0:
260,200,229678,5,8,0:0:0:0:
260,200,229718,1,0,0:0:0:0:
260,200,229785,5,8,0:0:0:0:
260,200,229825,1,0,0:0:0:0:
260,200,229894,5,8,0:0:0:0:
260,200,229934,1,0,0:0:0:0:
260,200,230002,5,8,0:0:0:0:
260,200,230042,1,0,0:0:0:0:
260,200,230112,5,8,0:0:0:0:
260,200,230152,1,0,0:0:0:0:
260,200,230220,5,8,0:0:0:0:
260,200,230260,1,0,0:0:0:0:
260,200,230329,5,8,0:0:0:0:
260,200,230369,1,0,0:0:0:0:
260,200,230437,5,8,0:0:0:0:
260,200,230477,1,0,0:0:0:0:
260,200,230547,5,8,0:0:0:0:
260,200,230587,1,0,0:0:0:0:
380,248,230656,1,0,0:0:0:0:
336,212,230873,1,8,0:0:0:0:
336,212,230982,1,0,0:0:0:0:
332,240,231199,1,8,0:0:0:0:
332,240,231308,1,8,0:0:0:0:
336,240,231525,1,0,0:0:0:0:
336,240,231634,1,0,0:0:0:0:
336,240,231743,1,0,0:0:0:0:
336,240,231960,1,8,0:0:0:0:
