osu file format v14

[General]
AudioFilename: audio.mp3
AudioLeadIn: 0
PreviewTime: 648
Countdown: 0
SampleSet: Soft
StackLeniency: 0.7
Mode: 1
LetterboxInBreaks: 0
WidescreenStoryboard: 0

[Editor]
Bookmarks: 4220
DistanceSpacing: 0.7
BeatDivisor: 4
GridSize: 4
TimelineZoom: 2.1

[Metadata]
Title:A Fool Moon Night
TitleUnicode:A Fool Moon Night
Artist:The Koxx
ArtistUnicode:The Koxx
Creator:nyanmi-1828
Version:Lv.150
Source:o2jam
Tags:o2jam
BeatmapID:1141163
BeatmapSetID:538780

[Difficulty]
HPDrainRate:5
CircleSize:4
OverallDifficulty:6
ApproachRate:5
SliderMultiplier:1.4
SliderTickRate:1

[Events]
//Background and Video events
0,0,"background.jpg",0,0
//Break Periods
//Storyboard Layer 0 (Background)
//Storyboard Layer 1 (Fail)
//Storyboard Layer 2 (Pass)
//Storyboard Layer 3 (Foreground)
//Storyboard Sound Samples

[TimingPoints]
1091,434.782608695652,4,2,2,100,1,0
77612,-71.4285714285714,4,2,2,100,0,1
105438,-100,4,2,2,100,0,0
175004,-71.4285714285714,4,2,2,100,0,1
230656,-100,4,2,2,100,0,0

[HitObjects]
320,216,1091,5,4,0:0:0:0:
276,192,4569,1,4,0:0:0:0:
308,248,8047,1,4,0:0:0:0:
320,228,8917,1,4,0:0:0:0:
304,240,9786,1,4,0:0:0:0:
304,240,10656,1,4,0:0:0:0:
328,232,11525,1,4,0:0:0:0:
324,220,11851,1,0,0:0:0:0:
324,220,11960,1,8,0:0:0:0:
324,220,12177,1,0,0:0:0:0:
324,220,12395,1,4,0:0:0:0:
332,208,12721,1,8,0:0:0:0:
332,208,13047,1,0,0:0:0:0:
332,208,13264,1,4,0:0:0:0:
308,208,13590,1,8,0:0:0:0:
304,204,13917,1,0,0:0:0:0:
304,204,14134,1,4,0:0:0:0:
308,208,14460,1,8,0:0:0:0:
304,204,14786,1,0,0:0:0:0:
304,204,15004,1,4,0:0:0:0:
276,216,15330,1,8,0:0:0:0:
276,216,15438,1,0,0:0:0:0:
276,216,15656,1,0,0:0:0:0:
276,216,15873,1,0,0:0:0:0:
260,220,16199,1,8,0:0:0:0:
260,220,16308,1,0,0:0:0:0:
260,220,16525,1,8,0:0:0:0:
260,220,16743,1,0,0:0:0:0:
260,220,17069,1,8,0:0:0:0:
260,220,17177,1,0,0:0:0:0:
260,220,17395,1,0,0:0:0:0:
260,220,17612,1,0,0:0:0:0:
260,220,17938,1,8,0:0:0:0:
260,220,18047,1,0,0:0:0:0:
260,220,18264,1,8,0:0:0:0:
260,220,18482,1,0,0:0:0:0:
260,220,18699,1,8,0:0:0:0:
260,220,18808,1,8,0:0:0:0:
260,220,18917,1,0,0:0:0:0:
260,224,19134,1,8,0:0:0:0:
260,224,19351,1,0,0:0:0:0:
260,224,19460,1,0,0:0:0:0:
260,224,19569,1,8,0:0:0:0:
260,224,19677,1,8,0:0:0:0:
260,224,19786,1,0,0:0:0:0:
260,224,20004,1,8,0:0:0:0:
260,224,20221,1,0,0:0:0:0:
296,216,21090,1,0,0:0:0:0:
300,220,21163,1,0,0:0:0:0:
300,224,21235,1,0,0:0:0:0:
300,224,21308,1,0,0:0:0:0:
300,224,21380,1,0,0:0:0:0:
300,224,21453,1,0,0:0:0:0:
304,224,21525,1,8,0:0:0:0:
320,228,21960,1,4,0:0:0:0:
328,228,22286,1,0,0:0:0:0:
328,228,22395,1,8,0:0:0:0:
328,228,22612,1,0,0:0:0:0:
328,228,22830,1,0,0:0:0:0:
328,228,22938,1,0,0:0:0:0:
328,228,23047,1,0,0:0:0:0:
328,228,23264,1,8,0:0:0:0:
328,228,23482,1,0,0:0:0:0:
328,228,23699,1,0,0:0:0:0:
328,264,23808,1,0,0:0:0:0:
328,264,23917,1,0,0:0:0:0:
312,244,24134,1,8,0:0:0:0:
312,244,24351,1,0,0:0:0:0:
320,232,24460,1,0,0:0:0:0:
320,232,24569,1,8,0:0:0:0:
312,244,24786,1,0,0:0:0:0:
312,244,25004,1,8,0:0:0:0:
316,252,25221,1,0,0:0:0:0:
312,244,25438,1,0,0:0:0:0:
312,244,25764,1,0,0:0:0:0:
312,244,25873,1,8,0:0:0:0:
312,244,26090,1,0,0:0:0:0:
312,244,26308,1,0,0:0:0:0:
312,244,26417,1,0,0:0:0:0:
312,244,26525,1,0,0:0:0:0:
312,244,26743,1,8,0:0:0:0:
312,244,26960,1,0,0:0:0:0:
312,244,27177,1,0,0:0:0:0:
300,228,27286,1,0,0:0:0:0:
300,228,27395,1,0,0:0:0:0:
312,244,27612,1,8,0:0:0:0:
312,244,27830,1,0,0:0:0:0:
328,224,28047,1,8,0:0:0:0:
328,224,28156,1,8,0:0:0:0:
312,244,28264,1,0,0:0:0:0:
312,244,28482,1,8,0:0:0:0:
332,248,28699,1,0,0:0:0:0:
332,248,28808,1,0,0:0:0:0:
332,248,28917,1,0,0:0:0:0:
340,252,29243,1,0,0:0:0:0:
340,252,29351,1,8,0:0:0:0:
340,252,29569,1,0,0:0:0:0:
340,252,29786,1,0,0:0:0:0:
340,252,29895,1,0,0:0:0:0:
340,252,30004,1,0,0:0:0:0:
340,252,30221,1,8,0:0:0:0:
340,252,30438,1,0,0:0:0:0:
328,248,30656,1,0,0:0:0:0:
328,248,30764,1,0,0:0:0:0:
328,248,30873,1,8,0:0:0:0:
328,240,31090,1,8,0:0:0:0:
328,240,31308,1,0,0:0:0:0:
328,248,31525,1,8,0:0:0:0:
328,248,31634,1,8,0:0:0:0:
328,248,31743,1,0,0:0:0:0:
328,240,31960,1,8,0:0:0:0:
328,240,32177,1,0,0:0:0:0:
328,248,32395,1,0,0:0:0:0:
352,256,32721,1,0,0:0:0:0:
352,248,32830,1,8,0:0:0:0:
352,248,33047,1,0,0:0:0:0:
352,248,33264,1,0,0:0:0:0:
352,248,33373,1,0,0:0:0:0:
352,248,33482,1,0,0:0:0:0:
352,248,33699,1,8,0:0:0:0:
352,248,33917,1,0,0:0:0:0:
368,296,34134,1,0,0:0:0:0:
352,248,34243,1,8,0:0:0:0:
352,248,34351,1,0,0:0:0:0:
368,296,34569,1,8,0:0:0:0:
332,244,34786,1,0,0:0:0:0:
332,244,35004,1,8,0:0:0:0:
332,244,35112,1,8,0:0:0:0:
332,244,35221,1,0,0:0:0:0:
332,244,35330,1,8,0:0:0:0:
312,232,35438,1,8,0:0:0:0:
328,232,35656,1,0,0:0:0:0:
328,232,35873,1,4,0:0:0:0:
316,248,36525,1,8,0:0:0:0:
316,248,36743,1,0,0:0:0:0:
328,220,37177,1,8,0:0:0:0:
328,220,37395,1,0,0:0:0:0:
328,220,37612,1,0,0:0:0:0:
344,240,38264,1,8,0:0:0:0:
344,240,38482,1,0,0:0:0:0:
344,240,38917,1,0,0:0:0:0:
344,240,39351,1,0,0:0:0:0:
328,216,40004,1,8,0:0:0:0:
328,216,40221,1,0,0:0:0:0:
328,216,40656,1,8,0:0:0:0:
328,216,40873,1,0,0:0:0:0:
328,216,41090,1,0,0:0:0:0:
304,204,41743,1,8,0:0:0:0:
304,204,41960,1,0,0:0:0:0:
304,204,42395,1,8,0:0:0:0:
304,204,42830,1,0,0:0:0:0:
328,244,43264,1,0,0:0:0:0:
328,244,43699,1,0,0:0:0:0:
328,244,44134,1,0,0:0:0:0:
336,240,44569,1,8,0:0:0:0:
336,232,45004,1,0,0:0:0:0:
336,232,45438,1,0,0:0:0:0:
336,232,45873,1,0,0:0:0:0:
288,164,46308,1,0,0:0:0:0:
312,228,46525,1,0,0:0:0:0:
328,224,46743,1,8,0:0:0:0:
328,224,46960,1,0,0:0:0:0:
328,224,47177,1,0,0:0:0:0:
328,224,47286,1,0,0:0:0:0:
328,224,47395,1,0,0:0:0:0:
328,224,47612,1,8,0:0:0:0:
328,224,47830,1,0,0:0:0:0:
328,224,48047,1,4,0:0:0:0:
316,216,48917,1,0,0:0:0:0:
316,216,49025,1,0,0:0:0:0:
316,216,49134,1,0,0:0:0:0:
316,216,49243,1,0,0:0:0:0:
316,216,49351,1,8,0:0:0:0:
316,216,49569,1,0,0:0:0:0:
316,216,49786,1,0,0:0:0:0:
320,204,50112,1,8,0:0:0:0:
316,216,50438,1,0,0:0:0:0:
304,232,50656,1,4,0:0:0:0:
312,232,50982,1,0,0:0:0:0:
312,232,51090,1,8,0:0:0:0:
312,232,51308,1,0,0:0:0:0:
312,232,51525,1,0,0:0:0:0:
312,232,51634,1,0,0:0:0:0:
312,232,51743,1,0,0:0:0:0:
312,232,51960,1,8,0:0:0:0:
312,232,52177,1,0,0:0:0:0:
344,268,52395,1,8,0:0:0:0:
344,268,52504,1,8,0:0:0:0:
348,288,52612,1,0,0:0:0:0:
312,232,52830,1,8,0:0:0:0:
312,232,53047,1,0,0:0:0:0:
360,264,53264,1,0,0:0:0:0:
312,232,53482,1,0,0:0:0:0:
312,232,53699,1,8,0:0:0:0:
312,232,53808,1,8,0:0:0:0:
312,232,53917,1,0,0:0:0:0:
312,232,54134,1,0,0:0:0:0:
304,224,54351,1,8,0:0:0:0:
304,224,54460,1,8,0:0:0:0:
304,224,54569,1,0,0:0:0:0:
304,224,54786,1,8,0:0:0:0:
304,224,55004,1,0,0:0:0:0:
304,224,55112,1,0,0:0:0:0:
304,224,55221,1,8,0:0:0:0:
304,224,55438,1,0,0:0:0:0:
304,224,55656,1,8,0:0:0:0:
304,224,55764,1,8,0:0:0:0:
304,224,55873,1,0,0:0:0:0:
304,224,56090,1,0,0:0:0:0:
304,224,56308,1,8,0:0:0:0:
304,224,56525,1,0,0:0:0:0:
304,224,56743,1,0,0:0:0:0:
328,232,56960,1,0,0:0:0:0:
328,232,57069,1,0,0:0:0:0:
328,232,57177,1,8,0:0:0:0:
328,232,57395,1,0,0:0:0:0:
328,232,57612,1,8,0:0:0:0:
328,232,57721,1,8,0:0:0:0:
328,232,57830,1,0,0:0:0:0:
328,232,58047,1,8,0:0:0:0:
328,232,58264,1,0,0:0:0:0:
328,232,58482,1,0,0:0:0:0:
328,232,58590,1,0,0:0:0:0:
328,232,58699,1,0,0:0:0:0:
328,232,58917,1,8,0:0:0:0:
328,232,59134,1,0,0:0:0:0:
328,232,59351,1,8,0:0:0:0:
328,232,59460,1,8,0:0:0:0:
328,232,59569,1,0,0:0:0:0:
328,232,59786,1,8,0:0:0:0:
344,260,60004,1,0,0:0:0:0:
292,244,60221,1,4,0:0:0:0:
292,244,60438,1,8,0:0:0:0:
292,244,60547,1,8,0:0:0:0:
292,244,60656,1,0,0:0:0:0:
292,244,60873,1,8,0:0:0:0:
292,244,61090,1,4,0:0:0:0:
292,244,61308,1,8,0:0:0:0:
292,244,61417,1,8,0:0:0:0:
292,244,61525,1,0,0:0:0:0:
292,244,61743,1,8,0:0:0:0:
292,244,61960,1,4,0:0:0:0:
292,244,62177,1,8,0:0:0:0:
292,244,62250,1,8,0:0:0:0:
292,228,62322,1,8,0:0:0:0:
292,244,62395,1,0,0:0:0:0:
312,212,62612,1,8,0:0:0:0:
312,208,62830,1,0,0:0:0:0:
312,208,62902,1,0,0:0:0:0:
312,208,62975,1,0,0:0:0:0:
312,208,63047,1,8,0:0:0:0:
312,208,63119,1,8,0:0:0:0:
312,208,63192,1,8,0:0:0:0:
312,208,63264,1,0,0:0:0:0:
320,216,63482,1,8,0:0:0:0:
320,216,63554,1,8,0:0:0:0:
320,216,63627,1,8,0:0:0:0:
320,216,63699,1,0,0:0:0:0:
296,244,63917,1,0,0:0:0:0:
300,204,64025,1,0,0:0:0:0:
304,216,64134,1,8,0:0:0:0:
336,216,64351,1,8,0:0:0:0:
336,216,64569,1,0,0:0:0:0:
336,216,64786,1,8,0:0:0:0:
336,216,64895,1,8,0:0:0:0:
336,216,65004,1,0,0:0:0:0:
336,216,65221,1,8,0:0:0:0:
336,216,65438,1,0,0:0:0:0:
336,216,65547,1,0,0:0:0:0:
336,216,65764,1,0,0:0:0:0:
336,216,65873,1,8,0:0:0:0:
328,216,66090,1,8,0:0:0:0:
328,216,66308,1,0,0:0:0:0:
328,216,66525,1,8,0:0:0:0:
328,216,66634,1,8,0:0:0:0:
328,216,66743,1,0,0:0:0:0:
328,216,66960,1,8,0:0:0:0:
328,216,67177,1,0,0:0:0:0:
328,216,67286,1,0,0:0:0:0:
328,216,67395,1,8,0:0:0:0:
328,216,67504,1,0,0:0:0:0:
320,224,67830,1,0,0:0:0:0:
320,224,68047,1,8,0:0:0:0:
320,224,68264,1,0,0:0:0:0:
320,224,68373,1,0,0:0:0:0:
320,224,68482,1,8,0:0:0:0:
320,224,68699,1,8,0:0:0:0:
320,224,68917,1,0,0:0:0:0:
320,224,69025,1,0,0:0:0:0:
320,224,69134,1,8,0:0:0:0:
320,224,69243,1,0,0:0:0:0:
328,232,69351,1,0,0:0:0:0:
328,232,69569,1,8,0:0:0:0:
328,232,69786,1,0,0:0:0:0:
328,232,70004,1,8,0:0:0:0:
332,232,70112,1,8,0:0:0:0:
332,232,70221,1,0,0:0:0:0:
328,232,70438,1,8,0:0:0:0:
328,232,70656,1,4,0:0:0:0:
332,228,70873,1,0,0:0:0:0:
332,228,70982,1,0,0:0:0:0:
332,232,71090,1,8,0:0:0:0:
332,228,71308,1,8,0:0:0:0:
332,228,71525,1,0,0:0:0:0:
332,228,71743,1,8,0:0:0:0:
332,228,71851,1,8,0:0:0:0:
332,228,71960,1,0,0:0:0:0:
332,228,72177,1,8,0:0:0:0:
332,228,72395,1,0,0:0:0:0:
332,228,72612,1,8,0:0:0:0:
300,244,72721,1,8,0:0:0:0:
332,228,72830,1,0,0:0:0:0:
332,228,73047,1,8,0:0:0:0:
332,204,73156,1,8,0:0:0:0:
332,228,73264,1,0,0:0:0:0:
332,228,73482,1,8,0:0:0:0:
332,228,73699,1,0,0:0:0:0:
340,236,73917,1,8,0:0:0:0:
336,236,74134,1,0,0:0:0:0:
336,236,74243,1,0,0:0:0:0:
336,236,74351,1,8,0:0:0:0:
336,236,74460,1,0,0:0:0:0:
328,236,74786,1,8,0:0:0:0:
328,236,75004,1,0,0:0:0:0:
328,236,75221,1,8,0:0:0:0:
328,236,75330,1,8,0:0:0:0:
328,236,75438,1,0,0:0:0:0:
328,236,75656,1,8,0:0:0:0:
328,236,75873,1,0,0:0:0:0:
328,236,75982,1,0,0:0:0:0:
328,236,76090,1,8,0:0:0:0:
328,236,76199,1,0,0:0:0:0:
312,232,76525,5,8,0:0:0:0:
296,224,76743,1,0,0:0:0:0:
284,264,76960,1,0,0:0:0:0:
288,256,77033,1,0,0:0:0:0:
288,256,77105,1,0,0:0:0:0:
288,256,77177,1,8,0:0:0:0:
260,200,77612,5,8,0:0:0:0:
260,200,77639,1,0,0:0:0:0:
260,200,77721,5,8,0:0:0:0:
260,200,77748,1,0,0:0:0:0:
260,200,77830,5,8,0:0:0:0:
260,200,77857,1,0,0:0:0:0:
260,200,77938,5,8,0:0:0:0:
260,200,77965,1,0,0:0:0:0:
260,200,78047,5,8,0:0:0:0:
260,200,78074,1,0,0:0:0:0:
260,200,78156,5,8,0:0:0:0:
260,200,78183,1,0,0:0:0:0:
260,200,78264,5,8,0:0:0:0:
260,200,78292,1,0,0:0:0:0:
260,200,78373,5,8,0:0:0:0:
260,200,78400,1,0,0:0:0:0:
260,200,78482,5,8,0:0:0:0:
260,200,78509,1,0,0:0:0:0:
260,200,78590,5,8,0:0:0:0:
260,200,78617,1,0,0:0:0:0:
260,200,78699,5,8,0:0:0:0:
260,200,78726,1,0,0:0:0:0:
260,200,78808,5,8,0:0:0:0:
260,200,78835,1,0,0:0:0:0:
260,200,78917,5,8,0:0:0:0:
260,200,78944,1,0,0:0:0:0:
260,200,79025,5,8,0:0:0:0:
260,200,79052,1,0,0:0:0:0:
260,200,79134,5,8,0:0:0:0:
260,200,79161,1,0,0:0:0:0:
260,200,79243,5,8,0:0:0:0:
260,200,79270,1,0,0:0:0:0:
260,200,79351,5,8,0:0:0:0:
260,200,79379,1,0,0:0:0:0:
260,200,79460,5,8,0:0:0:0:
260,200,79487,1,0,0:0:0:0:
260,200,79569,5,8,0:0:0:0:
260,200,79596,1,0,0:0:0:0:
260,200,79677,5,8,0:0:0:0:
260,200,79704,1,0,0:0:0:0:
260,200,79786,5,8,0:0:0:0:
260,200,79813,1,0,0:0:0:0:
260,200,79895,5,8,0:0:0:0:
260,200,79922,1,0,0:0:0:0:
260,200,80004,5,8,0:0:0:0:
260,200,80031,1,0,0:0:0:0:
260,200,80112,5,8,0:0:0:0:
260,200,80139,1,0,0:0:0:0:
260,200,80221,5,8,0:0:0:0:
260,200,80248,1,0,0:0:0:0:
260,200,80330,5,8,0:0:0:0:
260,200,80357,1,0,0:0:0:0:
260,200,80438,5,8,0:0:0:0:
260,200,80465,1,0,0:0:0:0:
260,200,80547,5,8,0:0:0:0:
260,200,80574,1,0,0:0:0:0:
260,200,80656,5,8,0:0:0:0:
260,200,80683,1,0,0:0:0:0:
260,200,80764,5,8,0:0:0:0:
260,200,80791,1,0,0:0:0:0:
260,200,80873,5,8,0:0:0:0:
260,200,80900,1,0,0:0:0:0:
260,200,80982,5,8,0:0:0:0:
260,200,81009,1,0,0:0:0:0:
260,200,81090,1,0,0:0:0:0:
260,200,81199,1,0,0:0:0:0:
260,200,81308,1,0,0:0:0:0:
260,200,81417,1,0,0:0:0:0:
260,200,81525,1,0,0:0:0:0:
260,200,81634,1,0,0:0:0:0:
260,200,81743,1,0,0:0:0:0:
260,200,81851,1,0,0:0:0:0:
260,200,81960,5,8,0:0:0:0:
260,200,82069,5,8,0:0:0:0:
260,200,82177,5,8,0:0:0:0:
260,200,82286,1,8,0:0:0:0:
260,200,82395,5,8,0:0:0:0:
260,200,82504,5,8,0:0:0:0:
260,200,82612,5,8,0:0:0:0:
260,200,82721,5,8,0:0:0:0:
260,200,82830,5,0,0:0:0:0:
260,200,82938,1,0,0:0:0:0:
260,200,83047,1,0,0:0:0:0:
260,200,83156,1,0,0:0:0:0:
260,200,83264,1,0,0:0:0:0:
260,200,83373,1,0,0:0:0:0:
260,200,83482,1,0,0:0:0:0:
260,200,83590,1,0,0:0:0:0:
260,200,83699,5,8,0:0:0:0:
260,200,83808,5,8,0:0:0:0:
260,200,83917,5,8,0:0:0:0:
260,200,84025,5,8,0:0:0:0:
260,200,84134,1,0,0:0:0:0:
260,200,84243,1,0,0:0:0:0:
260,200,84351,1,0,0:0:0:0:
260,200,84460,1,0,0:0:0:0:
260,200,84569,5,8,0:0:0:0:
260,200,84596,1,0,0:0:0:0:
260,200,84677,5,8,0:0:0:0:
260,200,84704,1,0,0:0:0:0:
260,200,84786,5,8,0:0:0:0:
260,200,84813,1,0,0:0:0:0:
260,200,84895,5,8,0:0:0:0:
260,200,84922,1,0,0:0:0:0:
260,200,85004,5,8,0:0:0:0:
260,200,85031,1,0,0:0:0:0:
260,200,85112,5,8,0:0:0:0:
260,200,85139,1,0,0:0:0:0:
260,200,85221,5,8,0:0:0:0:
260,200,85248,1,0,0:0:0:0:
260,200,85330,5,8,0:0:0:0:
260,200,85357,1,0,0:0:0:0:
260,200,85438,5,8,0:0:0:0:
260,200,85547,5,8,0:0:0:0:
260,200,85656,5,8,0:0:0:0:
260,200,85764,5,8,0:0:0:0:
260,200,85873,5,8,0:0:0:0:
260,200,85982,5,8,0:0:0:0:
260,200,86090,5,8,0:0:0:0:
260,200,86199,5,8,0:0:0:0:
260,200,86308,5,8,0:0:0:0:
260,200,86335,1,0,0:0:0:0:
260,200,86416,5,8,0:0:0:0:
260,200,86443,1,0,0:0:0:0:
260,200,86525,5,8,0:0:0:0:
260,200,86552,1,0,0:0:0:0:
260,200,86634,5,8,0:0:0:0:
260,200,86661,1,0,0:0:0:0:
260,200,86743,5,8,0:0:0:0:
260,200,86770,1,0,0:0:0:0:
260,200,86851,5,8,0:0:0:0:
260,200,86878,1,0,0:0:0:0:
260,200,86960,5,8,0:0:0:0:
260,200,86987,1,0,0:0:0:0:
260,200,87069,5,8,0:0:0:0:
260,200,87096,1,0,0:0:0:0:
260,200,87177,1,0,0:0:0:0:
260,200,87286,1,0,0:0:0:0:
260,200,87395,5,0,0:0:0:0:
260,200,87504,1,0,0:0:0:0:
260,200,87612,1,0,0:0:0:0:
260,200,87721,1,0,0:0:0:0:
260,200,87830,1,0,0:0:0:0:
260,200,87938,1,0,0:0:0:0:
260,200,88047,5,8,0:0:0:0:
260,200,88074,1,0,0:0:0:0:
260,200,88155,5,8,0:0:0:0:
260,200,88182,1,0,0:0:0:0:
260,200,88264,5,8,0:0:0:0:
260,200,88291,1,0,0:0:0:0:
260,200,88373,5,8,0:0:0:0:
260,200,88400,1,0,0:0:0:0:
260,200,88482,1,0,0:0:0:0:
260,200,88590,1,0,0:0:0:0:
260,200,88699,1,0,0:0:0:0:
260,200,88808,1,0,0:0:0:0:
260,200,88916,5,8,0:0:0:0:
260,200,88943,1,0,0:0:0:0:
260,200,89025,5,8,0:0:0:0:
260,200,89052,1,0,0:0:0:0:
260,200,89134,5,8,0:0:0:0:
260,200,89161,1,0,0:0:0:0:
260,200,89242,5,8,0:0:0:0:
260,200,89269,1,0,0:0:0:0:
260,200,89351,5,8,0:0:0:0:
260,200,89460,5,8,0:0:0:0:
260,200,89568,5,8,0:0:0:0:
260,200,89677,5,8,0:0:0:0:
260,200,89786,5,8,0:0:0:0:
260,200,89813,1,0,0:0:0:0:
260,200,89894,5,8,0:0:0:0:
260,200,89921,1,0,0:0:0:0:
260,200,90004,5,8,0:0:0:0:
260,200,90031,1,0,0:0:0:0:
260,200,90112,5,8,0:0:0:0:
260,200,90139,1,0,0:0:0:0:
260,200,90221,5,8,0:0:0:0:
260,200,90248,1,0,0:0:0:0:
260,200,90329,5,8,0:0:0:0:
260,200,90356,1,0,0:0:0:0:
260,200,90438,5,8,0:0:0:0:
260,200,90465,1,0,0:0:0:0:
260,200,90546,5,8,0:0:0:0:
260,200,90573,1,0,0:0:0:0:
260,200,90655,5,8,0:0:0:0:
260,200,90764,5,8,0:0:0:0:
260,200,90873,5,8,0:0:0:0:
260,200,90982,5,8,0:0:0:0:
260,200,91090,5,0,0:0:0:0:
260,200,91199,5,8,0:0:0:0:
260,200,91307,5,8,0:0:0:0:
260,200,91416,5,8,0:0:0:0:
260,200,91525,5,8,0:0:0:0:
260,200,91552,1,0,0:0:0:0:
260,200,91633,5,8,0:0:0:0:
260,200,91660,1,0,0:0:0:0:
260,200,91742,5,8,0:0:0:0:
260,200,91769,1,0,0:0:0:0:
260,200,91851,5,8,0:0:0:0:
260,200,91878,1,0,0:0:0:0:
260,200,91960,5,8,0:0:0:0:
260,200,91987,1,0,0:0:0:0:
260,200,92068,5,8,0:0:0:0:
260,200,92095,1,0,0:0:0:0:
260,200,92177,5,8,0:0:0:0:
260,200,92204,1,0,0:0:0:0:
260,200,92286,5,8,0:0:0:0:
260,200,92313,1,0,0:0:0:0:
260,200,92394,5,8,0:0:0:0:
260,200,92421,1,0,0:0:0:0:
260,200,92503,5,8,0:0:0:0:
260,200,92530,1,0,0:0:0:0:
260,200,92612,5,8,0:0:0:0:
260,200,92639,1,0,0:0:0:0:
260,200,92720,5,8,0:0:0:0:
260,200,92747,1,0,0:0:0:0:
260,200,92829,5,8,0:0:0:0:
260,200,92856,1,0,0:0:0:0:
260,200,92938,5,8,0:0:0:0:
260,200,92965,1,0,0:0:0:0:
260,200,93046,5,8,0:0:0:0:
260,200,93073,1,0,0:0:0:0:
260,200,93155,5,8,0:0:0:0:
260,200,93182,1,0,0:0:0:0:
260,200,93264,5,8,0:0:0:0:
260,200,93291,1,0,0:0:0:0:
260,200,93372,5,8,0:0:0:0:
260,200,93399,1,0,0:0:0:0:
260,200,93481,5,8,0:0:0:0:
260,200,93508,1,0,0:0:0:0:
260,200,93590,5,8,0:0:0:0:
260,200,93617,1,0,0:0:0:0:
260,200,93699,5,8,0:0:0:0:
260,200,93726,1,0,0:0:0:0:
260,200,93807,5,8,0:0:0:0:
260,200,93834,1,0,0:0:0:0:
260,200,93916,5,8,0:0:0:0:
260,200,93943,1,0,0:0:0:0:
260,200,94025,5,8,0:0:0:0:
260,200,94052,1,0,0:0:0:0:
260,200,94133,5,8,0:0:0:0:
260,200,94160,1,0,0:0:0:0:
260,200,94242,5,8,0:0:0:0:
260,200,94269,1,0,0:0:0:0:
260,200,94351,5,8,0:0:0:0:
260,200,94378,1,0,0:0:0:0:
260,200,94459,5,8,0:0:0:0:
260,200,94486,1,0,0:0:0:0:
260,200,94568,5,8,0:0:0:0:
260,200,94595,1,0,0:0:0:0:
260,200,94677,5,8,0:0:0:0:
260,200,94704,1,0,0:0:0:0:
260,200,94785,5,8,0:0:0:0:
260,200,94812,1,0,0:0:0:0:
260,200,94894,5,8,0:0:0:0:
260,200,94921,1,0,0:0:0:0:
260,200,95004,1,0,0:0:0:0:
260,200,95112,1,0,0:0:0:0:
260,200,95221,1,0,0:0:0:0:
260,200,95330,1,0,0:0:0:0:
260,200,95438,1,0,0:0:0:0:
260,200,95547,1,0,0:0:0:0:
260,200,95656,1,0,0:0:0:0:
260,200,95764,1,0,0:0:0:0:
260,200,95872,5,8,0:0:0:0:
260,200,95981,5,8,0:0:0:0:
260,200,96090,5,8,0:0:0:0:
260,200,96198,5,8,0:0:0:0:
260,200,96307,5,8,0:0:0:0:
260,200,96416,5,8,0:0:0:0:
260,200,96524,5,8,0:0:0:0:
260,200,96633,5,8,0:0:0:0:
260,200,96742,5,8,0:0:0:0:
260,200,96769,1,0,0:0:0:0:
260,200,96850,5,8,0:0:0:0:
260,200,96877,1,0,0:0:0:0:
260,200,96960,5,8,0:0:0:0:
260,200,96986,1,0,0:0:0:0:
260,200,97069,5,8,0:0:0:0:
260,200,97095,1,0,0:0:0:0:
260,200,97177,5,8,0:0:0:0:
260,200,97204,1,0,0:0:0:0:
260,200,97285,5,8,0:0:0:0:
260,200,97312,1,0,0:0:0:0:
260,200,97395,5,8,0:0:0:0:
260,200,97421,1,0,0:0:0:0:
260,200,97504,5,8,0:0:0:0:
260,200,97530,1,0,0:0:0:0:
260,200,97612,1,0,0:0:0:0:
260,200,97721,1,0,0:0:0:0:
260,200,97830,1,0,0:0:0:0:
260,200,97938,1,0,0:0:0:0:
260,200,98046,5,8,0:0:0:0:
260,200,98155,5,8,0:0:0:0:
260,200,98264,1,0,0:0:0:0:
260,200,98373,1,0,0:0:0:0:
260,200,98482,5,8,0:0:0:0:
260,200,98509,1,0,0:0:0:0:
260,200,98590,5,8,0:0:0:0:
260,200,98617,1,0,0:0:0:0:
260,200,98699,5,8,0:0:0:0:
260,200,98726,1,0,0:0:0:0:
260,200,98808,5,8,0:0:0:0:
260,200,98835,1,0,0:0:0:0:
260,200,98917,5,8,0:0:0:0:
260,200,98944,1,0,0:0:0:0:
260,200,99025,5,8,0:0:0:0:
260,200,99052,1,0,0:0:0:0:
260,200,99134,5,8,0:0:0:0:
260,200,99161,1,0,0:0:0:0:
260,200,99243,5,8,0:0:0:0:
260,200,99270,1,0,0:0:0:0:
260,200,99351,5,8,0:0:0:0:
260,200,99378,1,0,0:0:0:0:
260,200,99460,5,8,0:0:0:0:
260,200,99487,1,0,0:0:0:0:
260,200,99569,5,8,0:0:0:0:
260,200,99596,1,0,0:0:0:0:
260,200,99677,5,8,0:0:0:0:
260,200,99704,1,0,0:0:0:0:
260,200,99786,5,8,0:0:0:0:
260,200,99813,1,0,0:0:0:0:
260,200,99895,5,8,0:0:0:0:
260,200,99922,1,0,0:0:0:0:
260,200,100003,5,8,0:0:0:0:
260,200,100030,1,0,0:0:0:0:
260,200,100112,5,8,0:0:0:0:
260,200,100139,1,0,0:0:0:0:
260,200,100221,5,8,0:0:0:0:
260,200,100248,1,0,0:0:0:0:
260,200,100329,5,8,0:0:0:0:
260,200,100356,1,0,0:0:0:0:
260,200,100438,5,8,0:0:0:0:
260,200,100465,1,0,0:0:0:0:
260,200,100547,5,8,0:0:0:0:
260,200,100574,1,0,0:0:0:0:
260,200,100656,5,8,0:0:0:0:
260,200,100683,1,0,0:0:0:0:
260,200,100764,5,8,0:0:0:0:
260,200,100791,1,0,0:0:0:0:
260,200,100873,5,8,0:0:0:0:
260,200,100900,1,0,0:0:0:0:
260,200,100982,5,8,0:0:0:0:
260,200,101009,1,0,0:0:0:0:
260,200,101090,5,8,0:0:0:0:
260,200,101117,1,0,0:0:0:0:
260,200,101199,5,8,0:0:0:0:
260,200,101226,1,0,0:0:0:0:
260,200,101308,5,8,0:0:0:0:
260,200,101335,1,0,0:0:0:0:
260,200,101416,5,8,0:0:0:0:
260,200,101443,1,0,0:0:0:0:
260,200,101525,5,8,0:0:0:0:
260,200,101552,1,0,0:0:0:0:
260,200,101634,5,8,0:0:0:0:
260,200,101661,1,0,0:0:0:0:
260,200,101742,5,8,0:0:0:0:
260,200,101769,1,0,0:0:0:0:
260,200,101851,5,8,0:0:0:0:
260,200,101878,1,0,0:0:0:0:
260,200,101960,5,8,0:0:0:0:
260,200,101987,1,0,0:0:0:0:
260,200,102068,5,8,0:0:0:0:
260,200,102095,1,0,0:0:0:0:
260,200,102177,5,8,0:0:0:0:
260,200,102204,1,0,0:0:0:0:
260,200,102286,5,8,0:0:0:0:
260,200,102313,1,0,0:0:0:0:
260,200,102395,5,8,0:0:0:0:
260,200,102422,1,0,0:0:0:0:
260,200,102503,5,8,0:0:0:0:
260,200,102530,1,0,0:0:0:0:
260,200,102612,5,8,0:0:0:0:
260,200,102639,1,0,0:0:0:0:
260,200,102721,5,8,0:0:0:0:
260,200,102748,1,0,0:0:0:0:
260,200,102829,5,8,0:0:0:0:
260,200,102856,1,0,0:0:0:0:
260,200,102938,5,8,0:0:0:0:
260,200,102965,1,0,0:0:0:0:
260,200,103047,5,8,0:0:0:0:
260,200,103074,1,0,0:0:0:0:
260,200,103155,5,8,0:0:0:0:
260,200,103182,1,0,0:0:0:0:
260,200,103264,5,8,0:0:0:0:
260,200,103291,1,0,0:0:0:0:
260,200,103373,5,8,0:0:0:0:
260,200,103400,1,0,0:0:0:0:
260,200,103481,5,8,0:0:0:0:
260,200,103508,1,0,0:0:0:0:
260,200,103590,5,8,0:0:0:0:
260,200,103617,1,0,0:0:0:0:
260,200,103699,5,8,0:0:0:0:
260,200,103726,1,0,0:0:0:0:
260,200,103807,5,8,0:0:0:0:
260,200,103834,1,0,0:0:0:0:
260,200,103916,5,8,0:0:0:0:
260,200,103943,1,0,0:0:0:0:
260,200,104025,5,8,0:0:0:0:
260,200,104052,1,0,0:0:0:0:
260,200,104134,5,8,0:0:0:0:
260,200,104161,1,0,0:0:0:0:
260,200,104242,5,8,0:0:0:0:
260,200,104269,1,0,0:0:0:0:
260,200,104351,5,8,0:0:0:0:
260,200,104378,1,0,0:0:0:0:
260,200,104460,5,8,0:0:0:0:
260,200,104487,1,0,0:0:0:0:
260,200,104568,5,8,0:0:0:0:
260,200,104595,1,0,0:0:0:0:
260,200,104677,5,8,0:0:0:0:
260,200,104704,1,0,0:0:0:0:
260,200,104786,5,8,0:0:0:0:
260,200,104813,1,0,0:0:0:0:
260,200,104894,5,8,0:0:0:0:
260,200,104921,1,0,0:0:0:0:
260,200,105003,5,8,0:0:0:0:
260,200,105030,1,0,0:0:0:0:
260,200,105112,5,8,0:0:0:0:
260,200,105139,1,0,0:0:0:0:
260,200,105220,5,8,0:0:0:0:
260,200,105247,1,0,0:0:0:0:
260,200,105329,5,8,0:0:0:0:
260,200,105356,1,0,0:0:0:0:
312,272,105438,5,4,0:0:0:0:
256,224,105764,1,0,0:0:0:0:
300,228,106090,1,0,0:0:0:0:
300,228,106417,1,0,0:0:0:0:
300,228,106743,1,0,0:0:0:0:
312,272,107069,1,0,0:0:0:0:
256,224,107395,1,0,0:0:0:0:
300,228,107721,1,0,0:0:0:0:
300,228,108048,1,0,0:0:0:0:
300,228,108374,1,0,0:0:0:0:
312,272,108699,1,0,0:0:0:0:
256,224,109025,1,8,0:0:0:0:
300,228,109351,1,8,0:0:0:0:
300,228,109678,1,8,0:0:0:0:
300,228,110004,1,8,0:0:0:0:
312,272,110330,1,8,0:0:0:0:
256,224,110656,1,0,0:0:0:0:
300,228,110982,1,0,0:0:0:0:
300,228,111309,1,0,0:0:0:0:
300,228,111635,1,0,0:0:0:0:
312,272,111960,1,0,0:0:0:0:
256,224,112286,1,8,0:0:0:0:
300,228,112612,1,8,0:0:0:0:
300,228,112939,1,8,0:0:0:0:
300,228,113265,1,8,0:0:0:0:
312,272,113590,1,8,0:0:0:0:
256,224,113916,1,8,0:0:0:0:
300,228,114242,1,8,0:0:0:0:
300,228,114569,1,8,0:0:0:0:
300,228,114895,1,8,0:0:0:0:
312,272,115221,1,8,0:0:0:0:
256,224,115547,1,8,0:0:0:0:
300,228,115873,1,0,0:0:0:0:
300,228,116200,1,0,0:0:0:0:
300,228,116526,1,0,0:0:0:0:
312,272,116851,1,0,0:0:0:0:
256,224,117177,1,0,0:0:0:0:
300,228,117503,1,0,0:0:0:0:
300,228,117612,1,4,0:0:0:0:
276,220,117830,1,8,0:0:0:0:
308,216,118156,1,0,0:0:0:0:
308,216,118264,1,0,0:0:0:0:
316,224,118482,1,8,0:0:0:0:
316,220,118699,1,0,0:0:0:0:
308,216,118808,1,8,0:0:0:0:
308,216,118917,1,0,0:0:0:0:
312,212,119134,1,8,0:0:0:0:
316,224,119351,1,0,0:0:0:0:
316,224,119460,1,8,0:0:0:0:
316,220,119569,1,0,0:0:0:0:
292,216,119786,1,8,0:0:0:0:
296,212,119895,1,0,0:0:0:0:
296,212,120112,1,8,0:0:0:0:
296,212,120221,1,0,0:0:0:0:
296,212,120330,1,8,0:0:0:0:
296,212,120438,1,0,0:0:0:0:
312,224,120547,1,0,0:0:0:0:
292,216,120656,1,8,0:0:0:0:
316,224,120873,1,0,0:0:0:0:
296,212,120982,1,8,0:0:0:0:
296,212,121090,1,0,0:0:0:0:
296,212,121199,1,8,0:0:0:0:
296,212,121308,1,0,0:0:0:0:
316,208,121525,1,8,0:0:0:0:
316,208,121634,1,0,0:0:0:0:
316,208,121743,1,8,0:0:0:0:
316,208,121851,1,8,0:0:0:0:
316,208,121960,1,0,0:0:0:0:
316,208,122069,1,8,0:0:0:0:
316,208,122177,1,0,0:0:0:0:
316,208,122286,1,0,0:0:0:0:
316,208,122395,1,8,0:0:0:0:
304,208,122612,1,0,0:0:0:0:
304,208,122721,1,8,0:0:0:0:
304,208,122830,1,0,0:0:0:0:
304,208,122938,1,8,0:0:0:0:
304,208,123047,1,0,0:0:0:0:
304,208,123264,1,8,0:0:0:0:
304,208,123373,1,0,0:0:0:0:
304,208,123482,1,0,0:0:0:0:
304,208,123590,1,8,0:0:0:0:
304,208,123699,1,0,0:0:0:0:
304,208,123917,1,8,0:0:0:0:
304,208,124025,1,8,0:0:0:0:
304,208,124134,1,0,0:0:0:0:
304,208,124243,1,8,0:0:0:0:
304,208,124351,1,0,0:0:0:0:
304,208,124569,1,8,0:0:0:0:
304,208,124677,1,0,0:0:0:0:
304,208,124786,1,0,0:0:0:0:
304,208,124895,1,8,0:0:0:0:
304,208,125004,1,0,0:0:0:0:
304,208,125221,1,8,0:0:0:0:
304,208,125330,1,8,0:0:0:0:
304,208,125438,1,0,0:0:0:0:
304,208,125547,1,8,0:0:0:0:
304,208,125656,1,0,0:0:0:0:
304,208,125764,1,0,0:0:0:0:
304,208,125873,1,8,0:0:0:0:
304,208,125982,1,8,0:0:0:0:
304,208,126090,1,0,0:0:0:0:
312,220,126199,1,8,0:0:0:0:
312,220,126308,1,0,0:0:0:0:
312,220,126417,1,8,0:0:0:0:
316,220,126525,1,0,0:0:0:0:
316,220,126634,1,0,0:0:0:0:
316,220,126743,1,8,0:0:0:0:
320,244,126960,1,0,0:0:0:0:
320,240,127069,1,8,0:0:0:0:
316,240,127177,1,0,0:0:0:0:
316,240,127286,1,8,0:0:0:0:
316,240,127395,1,0,0:0:0:0:
316,240,127612,1,8,0:0:0:0:
316,240,127721,1,8,0:0:0:0:
320,244,127830,1,0,0:0:0:0:
320,244,127938,1,8,0:0:0:0:
320,240,128047,1,4,0:0:0:0:
316,240,128264,1,0,0:0:0:0:
316,240,128373,1,0,0:0:0:0:
316,240,128482,1,8,0:0:0:0:
316,240,128590,1,8,0:0:0:0:
316,240,128699,1,0,0:0:0:0:
320,244,128917,1,8,0:0:0:0:
320,240,129025,1,8,0:0:0:0:
316,240,129134,1,0,0:0:0:0:
316,240,129243,1,0,0:0:0:0:
316,240,129351,1,0,0:0:0:0:
316,240,129569,1,8,0:0:0:0:
316,240,129677,1,0,0:0:0:0:
320,244,129786,1,0,0:0:0:0:
320,244,129895,1,8,0:0:0:0:
320,240,130004,1,0,0:0:0:0:
316,240,130221,1,8,0:0:0:0:
316,240,130330,1,8,0:0:0:0:
316,240,130438,1,8,0:0:0:0:
316,240,130547,1,8,0:0:0:0:
316,240,130656,1,0,0:0:0:0:
316,224,130873,1,8,0:0:0:0:
316,224,130982,1,0,0:0:0:0:
316,224,131090,1,8,0:0:0:0:
316,220,131199,1,8,0:0:0:0:
316,220,131308,1,0,0:0:0:0:
316,220,131417,1,8,0:0:0:0:
316,220,131525,1,4,0:0:0:0:
312,224,131743,1,8,0:0:0:0:
332,244,132069,1,0,0:0:0:0:
332,244,132177,1,0,0:0:0:0:
320,236,132395,1,8,0:0:0:0:
320,236,132504,1,8,0:0:0:0:
320,236,132612,1,0,0:0:0:0:
320,236,132721,1,8,0:0:0:0:
320,236,132830,1,0,0:0:0:0:
308,220,133264,1,0,0:0:0:0:
280,224,133590,1,0,0:0:0:0:
280,224,133699,1,8,0:0:0:0:
296,208,133917,1,8,0:0:0:0:
296,208,134134,1,0,0:0:0:0:
296,208,134243,1,0,0:0:0:0:
296,208,134351,1,0,0:0:0:0:
296,208,134569,1,8,0:0:0:0:
296,208,134786,1,0,0:0:0:0:
296,208,135004,1,0,0:0:0:0:
296,208,135112,1,0,0:0:0:0:
296,208,135221,1,0,0:0:0:0:
296,208,135438,1,8,0:0:0:0:
296,208,135656,1,0,0:0:0:0:
296,208,135764,1,0,0:0:0:0:
296,208,135873,1,8,0:0:0:0:
296,208,136090,1,0,0:0:0:0:
296,208,136308,1,8,0:0:0:0:
296,208,136525,1,0,0:0:0:0:
296,208,136743,1,0,0:0:0:0:
296,208,136851,1,0,0:0:0:0:
296,208,136960,1,0,0:0:0:0:
296,208,137177,1,8,0:0:0:0:
296,208,137395,1,0,0:0:0:0:
296,208,137612,1,8,0:0:0:0:
296,208,137721,1,8,0:0:0:0:
296,208,137830,1,0,0:0:0:0:
296,208,138047,1,8,0:0:0:0:
296,208,138264,1,0,0:0:0:0:
296,208,138482,1,0,0:0:0:0:
296,208,138590,1,0,0:0:0:0:
296,208,138699,1,8,0:0:0:0:
356,240,138917,1,8,0:0:0:0:
356,240,139134,1,0,0:0:0:0:
368,264,139351,1,8,0:0:0:0:
368,264,139460,1,8,0:0:0:0:
368,264,139569,1,0,0:0:0:0:
296,224,139786,1,0,0:0:0:0:
296,224,140004,1,8,0:0:0:0:
332,264,140112,1,0,0:0:0:0:
296,224,140221,1,0,0:0:0:0:
320,224,140547,1,0,0:0:0:0:
320,224,140656,1,8,0:0:0:0:
320,224,140873,1,0,0:0:0:0:
320,224,141090,1,0,0:0:0:0:
320,224,141199,1,0,0:0:0:0:
320,224,141308,1,0,0:0:0:0:
320,224,141525,1,8,0:0:0:0:
320,224,141743,1,0,0:0:0:0:
320,224,141960,1,0,0:0:0:0:
320,224,142069,1,0,0:0:0:0:
320,224,142177,1,8,0:0:0:0:
352,260,142395,1,8,0:0:0:0:
328,244,142612,1,0,0:0:0:0:
320,224,142830,1,8,0:0:0:0:
320,224,142938,1,8,0:0:0:0:
320,224,143047,1,0,0:0:0:0:
320,224,143264,1,8,0:0:0:0:
312,216,143482,1,0,0:0:0:0:
308,216,143699,1,4,0:0:0:0:
312,228,143917,1,0,0:0:0:0:
312,228,144025,1,0,0:0:0:0:
312,228,144134,1,8,0:0:0:0:
312,228,144351,1,0,0:0:0:0:
312,228,144569,1,4,0:0:0:0:
312,228,144786,1,0,0:0:0:0:
312,228,144895,1,0,0:0:0:0:
312,228,145004,1,8,0:0:0:0:
312,228,145221,1,8,0:0:0:0:
312,228,145438,1,0,0:0:0:0:
312,228,145547,1,0,0:0:0:0:
312,228,145656,1,0,0:0:0:0:
312,228,145764,1,0,0:0:0:0:
312,228,145873,1,8,0:0:0:0:
312,228,146090,1,0,0:0:0:0:
312,228,146199,1,0,0:0:0:0:
312,228,146308,1,8,0:0:0:0:
312,228,146525,1,0,0:0:0:0:
312,228,146743,1,8,0:0:0:0:
320,232,146851,1,8,0:0:0:0:
312,228,146960,1,0,0:0:0:0:
320,232,147069,1,0,0:0:0:0:
312,228,147177,1,0,0:0:0:0:
336,232,147612,1,8,0:0:0:0:
324,224,147830,1,0,0:0:0:0:
324,224,148047,1,0,0:0:0:0:
312,232,148482,1,8,0:0:0:0:
308,248,148699,1,0,0:0:0:0:
316,248,148917,1,0,0:0:0:0:
312,220,149243,1,8,0:0:0:0:
332,244,149569,1,0,0:0:0:0:
332,244,149786,1,0,0:0:0:0:
304,220,150221,1,8,0:0:0:0:
304,220,150656,1,0,0:0:0:0:
296,216,151090,1,8,0:0:0:0:
296,216,151308,1,0,0:0:0:0:
296,216,151525,1,0,0:0:0:0:
296,216,151960,1,8,0:0:0:0:
296,216,152177,1,0,0:0:0:0:
296,216,152395,1,0,0:0:0:0:
296,216,152721,1,8,0:0:0:0:
264,220,153047,1,0,0:0:0:0:
264,220,153264,1,8,0:0:0:0:
268,220,153699,1,8,0:0:0:0:
264,220,153917,1,0,0:0:0:0:
308,224,154134,1,4,0:0:0:0:
300,232,154460,1,0,0:0:0:0:
300,232,154569,1,0,0:0:0:0:
300,216,154786,1,8,0:0:0:0:
300,216,155004,1,0,0:0:0:0:
296,224,155330,1,0,0:0:0:0:
296,224,155438,1,8,0:0:0:0:
296,224,155656,1,8,0:0:0:0:
296,224,155873,1,0,0:0:0:0:
296,224,156199,1,8,0:0:0:0:
296,224,156308,1,0,0:0:0:0:
296,224,156525,1,8,0:0:0:0:
296,224,156743,1,0,0:0:0:0:
296,224,157069,1,8,0:0:0:0:
296,224,157177,1,8,0:0:0:0:
296,224,157395,1,8,0:0:0:0:
296,224,157612,1,0,0:0:0:0:
320,216,157830,1,0,0:0:0:0:
320,216,157938,1,0,0:0:0:0:
320,216,158047,1,8,0:0:0:0:
320,216,158264,1,8,0:0:0:0:
320,216,158482,1,0,0:0:0:0:
320,216,158590,1,0,0:0:0:0:
320,216,158699,1,0,0:0:0:0:
320,216,158808,1,0,0:0:0:0:
320,216,158917,1,8,0:0:0:0:
320,216,159134,1,8,0:0:0:0:
324,216,159351,1,0,0:0:0:0:
300,228,159677,1,8,0:0:0:0:
304,228,160004,1,8,0:0:0:0:
304,228,160221,1,0,0:0:0:0:
304,228,160330,1,0,0:0:0:0:
300,228,160438,1,0,0:0:0:0:
300,228,160656,1,8,0:0:0:0:
316,240,161090,1,4,0:0:0:0:
312,228,161417,1,0,0:0:0:0:
312,228,161525,1,8,0:0:0:0:
312,228,161743,1,8,0:0:0:0:
312,228,161960,1,0,0:0:0:0:
288,232,162286,1,8,0:0:0:0:
288,232,162395,1,0,0:0:0:0:
288,232,162612,1,8,0:0:0:0:
288,232,162830,1,0,0:0:0:0:
296,232,162938,1,0,0:0:0:0:
296,232,163156,1,0,0:0:0:0:
296,232,163264,1,8,0:0:0:0:
296,232,163482,1,8,0:0:0:0:
296,232,163699,1,0,0:0:0:0:
296,232,163917,1,8,0:0:0:0:
296,232,164025,1,8,0:0:0:0:
296,232,164134,1,0,0:0:0:0:
296,232,164351,1,8,0:0:0:0:
296,232,164569,1,0,0:0:0:0:
300,224,164677,1,0,0:0:0:0:
300,228,164786,1,8,0:0:0:0:
300,228,164895,1,0,0:0:0:0:
320,236,165221,1,8,0:0:0:0:
316,236,165438,1,0,0:0:0:0:
316,236,165656,1,8,0:0:0:0:
316,236,165764,1,8,0:0:0:0:
316,236,165873,1,0,0:0:0:0:
320,236,166090,1,8,0:0:0:0:
316,236,166308,1,0,0:0:0:0:
316,236,166417,1,0,0:0:0:0:
316,236,166525,1,8,0:0:0:0:
316,236,166634,1,0,0:0:0:0:
304,232,166851,1,0,0:0:0:0:
304,232,166960,1,8,0:0:0:0:
304,232,167177,1,0,0:0:0:0:
304,232,167395,1,8,0:0:0:0:
304,232,167504,1,8,0:0:0:0:
304,232,167612,1,0,0:0:0:0:
304,232,167721,1,0,0:0:0:0:
304,232,167830,1,8,0:0:0:0:
304,232,168047,1,4,0:0:0:0:
304,232,168373,1,8,0:0:0:0:
280,268,168482,1,0,0:0:0:0:
304,232,168699,1,8,0:0:0:0:
304,232,168917,1,0,0:0:0:0:
316,248,169243,1,8,0:0:0:0:
304,208,169351,1,0,0:0:0:0:
320,248,169569,1,8,0:0:0:0:
320,248,169786,1,0,0:0:0:0:
316,248,169895,1,0,0:0:0:0:
316,252,170112,1,8,0:0:0:0:
316,248,170221,1,0,0:0:0:0:
320,248,170438,1,8,0:0:0:0:
312,240,170656,1,0,0:0:0:0:
336,252,170873,1,8,0:0:0:0:
336,252,170982,1,0,0:0:0:0:
336,252,171090,1,0,0:0:0:0:
320,260,171308,1,8,0:0:0:0:
320,256,171525,1,0,0:0:0:0:
320,256,171634,1,0,0:0:0:0:
320,256,171743,1,8,0:0:0:0:
320,256,171851,1,0,0:0:0:0:
320,260,172177,1,8,0:0:0:0:
320,256,172395,1,0,0:0:0:0:
320,256,172612,1,8,0:0:0:0:
320,256,172721,1,8,0:0:0:0:
320,256,172830,1,0,0:0:0:0:
320,260,173047,1,8,0:0:0:0:
328,264,173264,1,0,0:0:0:0:
328,264,173373,1,0,0:0:0:0:
328,264,173482,1,8,0:0:0:0:
328,264,173590,1,0,0:0:0:0:
328,264,173917,5,8,0:0:0:0:
312,248,174134,1,0,0:0:0:0:
320,248,174351,1,0,0:0:0:0:
320,248,174423,1,0,0:0:0:0:
320,248,174496,1,0,0:0:0:0:
320,248,174568,1,8,0:0:0:0:
260,200,175004,5,8,0:0:0:0:
260,200,175031,1,0,0:0:0:0:
260,200,175113,5,8,0:0:0:0:
260,200,175140,1,0,0:0:0:0:
260,200,175222,5,8,0:0:0:0:
260,200,175249,1,0,0:0:0:0:
260,200,175330,5,8,0:0:0:0:
260,200,175357,1,0,0:0:0:0:
260,200,175439,5,8,0:0:0:0:
260,200,175466,1,0,0:0:0:0:
260,200,175548,5,8,0:0:0:0:
260,200,175575,1,0,0:0:0:0:
260,200,175656,5,8,0:0:0:0:
260,200,175684,1,0,0:0:0:0:
260,200,175765,5,8,0:0:0:0:
260,200,175792,1,0,0:0:0:0:
260,200,175874,5,8,0:0:0:0:
260,200,175901,1,0,0:0:0:0:
260,200,175982,5,8,0:0:0:0:
260,200,176009,1,0,0:0:0:0:
260,200,176091,5,8,0:0:0:0:
260,200,176118,1,0,0:0:0:0:
260,200,176200,5,8,0:0:0:0:
260,200,176227,1,0,0:0:0:0:
260,200,176309,5,8,0:0:0:0:
260,200,176336,1,0,0:0:0:0:
260,200,176417,5,8,0:0:0:0:
260,200,176444,1,0,0:0:0:0:
260,200,176526,5,8,0:0:0:0:
260,200,176553,1,0,0:0:0:0:
260,200,176635,5,8,0:0:0:0:
260,200,176662,1,0,0:0:0:0:
260,200,176743,5,8,0:0:0:0:
260,200,176771,1,0,0:0:0:0:
260,200,176852,5,8,0:0:0:0:
260,200,176879,1,0,0:0:0:0:
260,200,176961,5,8,0:0:0:0:
260,200,176988,1,0,0:0:0:0:
260,200,177069,5,8,0:0:0:0:
260,200,177096,1,0,0:0:0:0:
260,200,177178,5,8,0:0:0:0:
260,200,177205,1,0,0:0:0:0:
260,200,177287,5,8,0:0:0:0:
260,200,177314,1,0,0:0:0:0:
260,200,177396,5,8,0:0:0:0:
260,200,177423,1,0,0:0:0:0:
260,200,177504,5,8,0:0:0:0:
260,200,177531,1,0,0:0:0:0:
260,200,177613,5,8,0:0:0:0:
260,200,177640,1,0,0:0:0:0:
260,200,177722,5,8,0:0:0:0:
260,200,177749,1,0,0:0:0:0:
260,200,177830,5,8,0:0:0:0:
260,200,177857,1,0,0:0:0:0:
260,200,177939,5,8,0:0:0:0:
260,200,177966,1,0,0:0:0:0:
260,200,178048,5,8,0:0:0:0:
260,200,178075,1,0,0:0:0:0:
260,200,178156,5,8,0:0:0:0:
260,200,178183,1,0,0:0:0:0:
260,200,178265,5,8,0:0:0:0:
260,200,178292,1,0,0:0:0:0:
260,200,178374,5,8,0:0:0:0:
260,200,178401,1,0,0:0:0:0:
260,200,178482,1,0,0:0:0:0:
260,200,178591,1,0,0:0:0:0:
260,200,178700,1,0,0:0:0:0:
260,200,178809,1,0,0:0:0:0:
260,200,178917,1,0,0:0:0:0:
260,200,179026,1,0,0:0:0:0:
260,200,179135,1,0,0:0:0:0:
260,200,179243,1,0,0:0:0:0:
260,200,179352,5,8,0:0:0:0:
260,200,179461,5,8,0:0:0:0:
260,200,179569,5,8,0:0:0:0:
260,200,179678,1,8,0:0:0:0:
260,200,179787,5,8,0:0:0:0:
260,200,179896,5,8,0:0:0:0:
260,200,180004,5,8,0:0:0:0:
260,200,180113,5,8,0:0:0:0:
260,200,180222,5,0,0:0:0:0:
260,200,180330,1,0,0:0:0:0:
260,200,180439,1,0,0:0:0:0:
260,200,180548,1,0,0:0:0:0:
260,200,180656,1,0,0:0:0:0:
260,200,180765,1,0,0:0:0:0:
260,200,180874,1,0,0:0:0:0:
260,200,180982,1,0,0:0:0:0:
260,200,181091,5,8,0:0:0:0:
260,200,181200,5,8,0:0:0:0:
260,200,181309,5,8,0:0:0:0:
260,200,181417,5,8,0:0:0:0:
260,200,181526,1,0,0:0:0:0:
260,200,181635,1,0,0:0:0:0:
260,200,181743,1,0,0:0:0:0:
260,200,181852,1,0,0:0:0:0:
260,200,181961,5,8,0:0:0:0:
260,200,181988,1,0,0:0:0:0:
260,200,182069,5,8,0:0:0:0:
260,200,182096,1,0,0:0:0:0:
260,200,182178,5,8,0:0:0:0:
260,200,182205,1,0,0:0:0:0:
260,200,182287,5,8,0:0:0:0:
260,200,182314,1,0,0:0:0:0:
260,200,182396,5,8,0:0:0:0:
260,200,182423,1,0,0:0:0:0:
260,200,182504,5,8,0:0:0:0:
260,200,182531,1,0,0:0:0:0:
260,200,182613,5,8,0:0:0:0:
260,200,182640,1,0,0:0:0:0:
260,200,182722,5,8,0:0:0:0:
260,200,182749,1,0,0:0:0:0:
260,200,182830,5,8,0:0:0:0:
260,200,182939,5,8,0:0:0:0:
260,200,183048,5,8,0:0:0:0:
260,200,183156,5,8,0:0:0:0:
260,200,183265,5,8,0:0:0:0:
260,200,183374,5,8,0:0:0:0:
260,200,183482,5,8,0:0:0:0:
260,200,183591,5,8,0:0:0:0:
260,200,183700,5,8,0:0:0:0:
260,200,183727,1,0,0:0:0:0:
260,200,183808,5,8,0:0:0:0:
260,200,183835,1,0,0:0:0:0:
260,200,183917,5,8,0:0:0:0:
260,200,183944,1,0,0:0:0:0:
260,200,184026,5,8,0:0:0:0:
260,200,184053,1,0,0:0:0:0:
260,200,184135,5,8,0:0:0:0:
260,200,184162,1,0,0:0:0:0:
260,200,184243,5,8,0:0:0:0:
260,200,184270,1,0,0:0:0:0:
260,200,184352,5,8,0:0:0:0:
260,200,184379,1,0,0:0:0:0:
260,200,184461,5,8,0:0:0:0:
260,200,184488,1,0,0:0:0:0:
260,200,184569,1,0,0:0:0:0:
260,200,184678,1,0,0:0:0:0:
260,200,184787,5,0,0:0:0:0:
260,200,184896,1,0,0:0:0:0:
260,200,185004,1,0,0:0:0:0:
260,200,185113,1,0,0:0:0:0:
260,200,185222,1,0,0:0:0:0:
260,200,185330,1,0,0:0:0:0:
260,200,185439,5,8,0:0:0:0:
260,200,185466,1,0,0:0:0:0:
260,200,185547,5,8,0:0:0:0:
260,200,185574,1,0,0:0:0:0:
260,200,185656,5,8,0:0:0:0:
260,200,185683,1,0,0:0:0:0:
260,200,185765,5,8,0:0:0:0:
260,200,185792,1,0,0:0:0:0:
260,200,185874,1,0,0:0:0:0:
260,200,185982,1,0,0:0:0:0:
260,200,186091,1,0,0:0:0:0:
260,200,186200,1,0,0:0:0:0:
260,200,186308,5,8,0:0:0:0:
260,200,186335,1,0,0:0:0:0:
260,200,186417,5,8,0:0:0:0:
260,200,186444,1,0,0:0:0:0:
260,200,186526,5,8,0:0:0:0:
260,200,186553,1,0,0:0:0:0:
260,200,186634,5,8,0:0:0:0:
260,200,186661,1,0,0:0:0:0:
260,200,186743,5,8,0:0:0:0:
260,200,186852,5,8,0:0:0:0:
260,200,186960,5,8,0:0:0:0:
260,200,187069,5,8,0:0:0:0:
260,200,187178,5,8,0:0:0:0:
260,200,187205,1,0,0:0:0:0:
260,200,187286,5,8,0:0:0:0:
260,200,187313,1,0,0:0:0:0:
260,200,187396,5,8,0:0:0:0:
260,200,187423,1,0,0:0:0:0:
260,200,187504,5,8,0:0:0:0:
260,200,187531,1,0,0:0:0:0:
260,200,187613,5,8,0:0:0:0:
260,200,187640,1,0,0:0:0:0:
260,200,187721,5,8,0:0:0:0:
260,200,187748,1,0,0:0:0:0:
260,200,187830,5,8,0:0:0:0:
260,200,187857,1,0,0:0:0:0:
260,200,187938,5,8,0:0:0:0:
260,200,187965,1,0,0:0:0:0:
260,200,188047,5,8,0:0:0:0:
260,200,188156,5,8,0:0:0:0:
260,200,188265,5,8,0:0:0:0:
260,200,188374,5,8,0:0:0:0:
260,200,188482,5,0,0:0:0:0:
260,200,188591,5,8,0:0:0:0:
260,200,188699,5,8,0:0:0:0:
260,200,188808,5,8,0:0:0:0:
260,200,188917,5,8,0:0:0:0:
260,200,188944,1,0,0:0:0:0:
260,200,189025,5,8,0:0:0:0:
260,200,189052,1,0,0:0:0:0:
260,200,189134,5,8,0:0:0:0:
260,200,189161,1,0,0:0:0:0:
260,200,189243,5,8,0:0:0:0:
260,200,189270,1,0,0:0:0:0:
260,200,189352,5,8,0:0:0:0:
260,200,189379,1,0,0:0:0:0:
260,200,189460,5,8,0:0:0:0:
260,200,189487,1,0,0:0:0:0:
260,200,189569,5,8,0:0:0:0:
260,200,189596,1,0,0:0:0:0:
260,200,189678,5,8,0:0:0:0:
260,200,189705,1,0,0:0:0:0:
260,200,189786,5,8,0:0:0:0:
260,200,189813,1,0,0:0:0:0:
260,200,189895,5,8,0:0:0:0:
260,200,189922,1,0,0:0:0:0:
260,200,190004,5,8,0:0:0:0:
260,200,190031,1,0,0:0:0:0:
260,200,190112,5,8,0:0:0:0:
260,200,190139,1,0,0:0:0:0:
260,200,190221,5,8,0:0:0:0:
260,200,190248,1,0,0:0:0:0:
260,200,190330,5,8,0:0:0:0:
260,200,190357,1,0,0:0:0:0:
260,200,190438,5,8,0:0:0:0:
260,200,190465,1,0,0:0:0:0:
260,200,190547,5,8,0:0:0:0:
260,200,190574,1,0,0:0:0:0:
260,200,190656,5,8,0:0:0:0:
260,200,190683,1,0,0:0:0:0:
260,200,190764,5,8,0:0:0:0:
260,200,190791,1,0,0:0:0:0:
260,200,190873,5,8,0:0:0:0:
260,200,190900,1,0,0:0:0:0:
260,200,190982,5,8,0:0:0:0:
260,200,191009,1,0,0:0:0:0:
260,200,191091,5,8,0:0:0:0:
260,200,191118,1,0,0:0:0:0:
260,200,191199,5,8,0:0:0:0:
260,200,191226,1,0,0:0:0:0:
260,200,191308,5,8,0:0:0:0:
260,200,191335,1,0,0:0:0:0:
260,200,191417,5,8,0:0:0:0:
260,200,191444,1,0,0:0:0:0:
260,200,191525,5,8,0:0:0:0:
260,200,191552,1,0,0:0:0:0:
260,200,191634,5,8,0:0:0:0:
260,200,191661,1,0,0:0:0:0:
260,200,191743,5,8,0:0:0:0:
260,200,191770,1,0,0:0:0:0:
260,200,191851,5,8,0:0:0:0:
260,200,191878,1,0,0:0:0:0:
260,200,191960,5,8,0:0:0:0:
260,200,191987,1,0,0:0:0:0:
260,200,192069,5,8,0:0:0:0:
260,200,192096,1,0,0:0:0:0:
260,200,192177,5,8,0:0:0:0:
260,200,192204,1,0,0:0:0:0:
260,200,192286,5,8,0:0:0:0:
260,200,192313,1,0,0:0:0:0:
260,200,192396,1,0,0:0:0:0:
260,200,192504,1,0,0:0:0:0:
260,200,192613,1,0,0:0:0:0:
260,200,192722,1,0,0:0:0:0:
260,200,192830,1,0,0:0:0:0:
260,200,192939,1,0,0:0:0:0:
260,200,193048,1,0,0:0:0:0:
260,200,193156,1,0,0:0:0:0:
260,200,193264,5,8,0:0:0:0:
260,200,193373,5,8,0:0:0:0:
260,200,193482,5,8,0:0:0:0:
260,200,193590,5,8,0:0:0:0:
260,200,193699,5,8,0:0:0:0:
260,200,193808,5,8,0:0:0:0:
260,200,193916,5,8,0:0:0:0:
260,200,194025,5,8,0:0:0:0:
260,200,194134,5,8,0:0:0:0:
260,200,194161,1,0,0:0:0:0:
260,200,194242,5,8,0:0:0:0:
260,200,194269,1,0,0:0:0:0:
260,200,194352,5,8,0:0:0:0:
260,200,194378,1,0,0:0:0:0:
260,200,194461,5,8,0:0:0:0:
260,200,194487,1,0,0:0:0:0:
260,200,194569,5,8,0:0:0:0:
260,200,194596,1,0,0:0:0:0:
260,200,194677,5,8,0:0:0:0:
260,200,194704,1,0,0:0:0:0:
260,200,194787,5,8,0:0:0:0:
260,200,194813,1,0,0:0:0:0:
260,200,194896,5,8,0:0:0:0:
260,200,194922,1,0,0:0:0:0:
260,200,195004,1,0,0:0:0:0:
260,200,195113,1,0,0:0:0:0:
260,200,195222,1,0,0:0:0:0:
260,200,195330,1,0,0:0:0:0:
260,200,195438,5,8,0:0:0:0:
260,200,195547,5,8,0:0:0:0:
260,200,195656,1,0,0:0:0:0:
260,200,195765,1,0,0:0:0:0:
260,200,195874,5,8,0:0:0:0:
260,200,195901,1,0,0:0:0:0:
260,200,195982,5,8,0:0:0:0:
260,200,196009,1,0,0:0:0:0:
260,200,196091,5,8,0:0:0:0:
260,200,196118,1,0,0:0:0:0:
260,200,196200,5,8,0:0:0:0:
260,200,196227,1,0,0:0:0:0:
260,200,196309,5,8,0:0:0:0:
260,200,196336,1,0,0:0:0:0:
260,200,196417,5,8,0:0:0:0:
260,200,196444,1,0,0:0:0:0:
260,200,196526,5,8,0:0:0:0:
260,200,196553,1,0,0:0:0:0:
260,200,196635,5,8,0:0:0:0:
260,200,196662,1,0,0:0:0:0:
260,200,196743,5,8,0:0:0:0:
260,200,196770,1,0,0:0:0:0:
260,200,196852,5,8,0:0:0:0:
260,200,196879,1,0,0:0:0:0:
260,200,196961,5,8,0:0:0:0:
260,200,196988,1,0,0:0:0:0:
260,200,197069,5,8,0:0:0:0:
260,200,197096,1,0,0:0:0:0:
260,200,197178,5,8,0:0:0:0:
260,200,197205,1,0,0:0:0:0:
260,200,197287,5,8,0:0:0:0:
260,200,197314,1,0,0:0:0:0:
260,200,197395,5,8,0:0:0:0:
260,200,197422,1,0,0:0:0:0:
260,200,197504,5,8,0:0:0:0:
260,200,197531,1,0,0:0:0:0:
260,200,197613,5,8,0:0:0:0:
260,200,197640,1,0,0:0:0:0:
260,200,197721,5,8,0:0:0:0:
260,200,197748,1,0,0:0:0:0:
260,200,197830,5,8,0:0:0:0:
260,200,197857,1,0,0:0:0:0:
260,200,197939,5,8,0:0:0:0:
260,200,197966,1,0,0:0:0:0:
260,200,198048,5,8,0:0:0:0:
260,200,198075,1,0,0:0:0:0:
260,200,198156,5,8,0:0:0:0:
260,200,198183,1,0,0:0:0:0:
260,200,198265,5,8,0:0:0:0:
260,200,198292,1,0,0:0:0:0:
260,200,198374,5,8,0:0:0:0:
260,200,198401,1,0,0:0:0:0:
260,200,198482,5,8,0:0:0:0:
260,200,198509,1,0,0:0:0:0:
260,200,198591,5,8,0:0:0:0:
260,200,198618,1,0,0:0:0:0:
260,200,198700,5,8,0:0:0:0:
260,200,198727,1,0,0:0:0:0:
260,200,198808,5,8,0:0:0:0:
260,200,198835,1,0,0:0:0:0:
260,200,198917,5,8,0:0:0:0:
260,200,198944,1,0,0:0:0:0:
260,200,199026,5,8,0:0:0:0:
260,200,199053,1,0,0:0:0:0:
260,200,199134,5,8,0:0:0:0:
260,200,199161,1,0,0:0:0:0:
260,200,199243,5,8,0:0:0:0:
260,200,199270,1,0,0:0:0:0:
260,200,199352,5,8,0:0:0:0:
260,200,199379,1,0,0:0:0:0:
260,200,199460,5,8,0:0:0:0:
260,200,199487,1,0,0:0:0:0:
260,200,199569,5,8,0:0:0:0:
260,200,199596,1,0,0:0:0:0:
260,200,199678,5,8,0:0:0:0:
260,200,199705,1,0,0:0:0:0:
260,200,199787,5,8,0:0:0:0:
260,200,199814,1,0,0:0:0:0:
260,200,199895,5,8,0:0:0:0:
260,200,199922,1,0,0:0:0:0:
260,200,200004,5,8,0:0:0:0:
260,200,200031,1,0,0:0:0:0:
260,200,200113,5,8,0:0:0:0:
260,200,200140,1,0,0:0:0:0:
260,200,200221,5,8,0:0:0:0:
260,200,200248,1,0,0:0:0:0:
260,200,200330,5,8,0:0:0:0:
260,200,200357,1,0,0:0:0:0:
260,200,200439,5,8,0:0:0:0:
260,200,200466,1,0,0:0:0:0:
260,200,200547,5,8,0:0:0:0:
260,200,200574,1,0,0:0:0:0:
260,200,200656,5,8,0:0:0:0:
260,200,200683,1,0,0:0:0:0:
260,200,200765,5,8,0:0:0:0:
260,200,200792,1,0,0:0:0:0:
260,200,200873,5,8,0:0:0:0:
260,200,200900,1,0,0:0:0:0:
260,200,200982,5,8,0:0:0:0:
260,200,201009,1,0,0:0:0:0:
260,200,201091,5,8,0:0:0:0:
260,200,201118,1,0,0:0:0:0:
260,200,201199,5,8,0:0:0:0:
260,200,201226,1,0,0:0:0:0:
260,200,201308,5,8,0:0:0:0:
260,200,201335,1,0,0:0:0:0:
260,200,201417,5,8,0:0:0:0:
260,200,201444,1,0,0:0:0:0:
260,200,201526,5,8,0:0:0:0:
260,200,201553,1,0,0:0:0:0:
260,200,201634,5,8,0:0:0:0:
260,200,201661,1,0,0:0:0:0:
260,200,201743,5,8,0:0:0:0:
260,200,201770,1,0,0:0:0:0:
260,200,201852,5,8,0:0:0:0:
260,200,201879,1,0,0:0:0:0:
260,200,201960,5,8,0:0:0:0:
260,200,201987,1,0,0:0:0:0:
260,200,202069,5,8,0:0:0:0:
260,200,202096,1,0,0:0:0:0:
260,200,202178,5,8,0:0:0:0:
260,200,202205,1,0,0:0:0:0:
260,200,202286,5,8,0:0:0:0:
260,200,202313,1,0,0:0:0:0:
260,200,202395,5,8,0:0:0:0:
260,200,202422,1,0,0:0:0:0:
260,200,202504,5,8,0:0:0:0:
260,200,202531,1,0,0:0:0:0:
260,200,202612,5,8,0:0:0:0:
260,200,202639,1,0,0:0:0:0:
260,200,202721,5,8,0:0:0:0:
260,200,202748,1,0,0:0:0:0:
260,200,202830,5,8,0:0:0:0:
260,200,202857,1,0,0:0:0:0:
260,200,202938,1,0,0:0:0:0:
260,200,203047,5,8,0:0:0:0:
260,200,203074,1,0,0:0:0:0:
260,200,203156,1,0,0:0:0:0:
260,200,203265,5,8,0:0:0:0:
260,200,203292,1,0,0:0:0:0:
260,200,203373,1,0,0:0:0:0:
260,200,203482,5,8,0:0:0:0:
260,200,203509,1,0,0:0:0:0:
260,200,203590,1,0,0:0:0:0:
260,200,203699,5,8,0:0:0:0:
260,200,203726,1,0,0:0:0:0:
260,200,203808,1,0,0:0:0:0:
260,200,203917,5,8,0:0:0:0:
260,200,203944,1,0,0:0:0:0:
260,200,204025,1,0,0:0:0:0:
260,200,204134,5,8,0:0:0:0:
260,200,204161,1,0,0:0:0:0:
260,200,204243,1,0,0:0:0:0:
260,200,204351,5,8,0:0:0:0:
260,200,204378,1,0,0:0:0:0:
260,200,204460,1,0,0:0:0:0:
260,200,204569,5,8,0:0:0:0:
260,200,204596,1,0,0:0:0:0:
260,200,204677,1,0,0:0:0:0:
260,200,204786,5,8,0:0:0:0:
260,200,204813,1,0,0:0:0:0:
260,200,204895,1,0,0:0:0:0:
260,200,205004,5,8,0:0:0:0:
260,200,205031,1,0,0:0:0:0:
260,200,205112,1,0,0:0:0:0:
260,200,205221,5,8,0:0:0:0:
260,200,205248,1,0,0:0:0:0:
260,200,205330,1,0,0:0:0:0:
260,200,205438,5,8,0:0:0:0:
260,200,205465,1,0,0:0:0:0:
260,200,205547,5,8,0:0:0:0:
260,200,205574,1,0,0:0:0:0:
260,200,205656,5,8,0:0:0:0:
260,200,205683,1,0,0:0:0:0:
260,200,205764,5,8,0:0:0:0:
260,200,205791,1,0,0:0:0:0:
260,200,205873,5,8,0:0:0:0:
260,200,205900,1,0,0:0:0:0:
260,200,205982,5,8,0:0:0:0:
260,200,206009,1,0,0:0:0:0:
260,200,206090,5,8,0:0:0:0:
260,200,206117,1,0,0:0:0:0:
260,200,206199,5,8,0:0:0:0:
260,200,206226,1,0,0:0:0:0:
260,200,206308,1,0,0:0:0:0:
260,200,206417,1,0,0:0:0:0:
260,200,206525,1,0,0:0:0:0:
260,200,206634,1,0,0:0:0:0:
260,200,206743,1,0,0:0:0:0:
260,200,206851,1,0,0:0:0:0:
260,200,206960,1,0,0:0:0:0:
260,200,207069,1,0,0:0:0:0:
260,200,207177,5,8,0:0:0:0:
260,200,207204,1,0,0:0:0:0:
260,200,207286,5,8,0:0:0:0:
260,200,207313,1,0,0:0:0:0:
260,200,207395,5,8,0:0:0:0:
260,200,207422,1,0,0:0:0:0:
260,200,207503,5,8,0:0:0:0:
260,200,207530,1,0,0:0:0:0:
260,200,207612,5,8,0:0:0:0:
260,200,207639,1,0,0:0:0:0:
260,200,207721,5,8,0:0:0:0:
260,200,207748,1,0,0:0:0:0:
260,200,207829,5,8,0:0:0:0:
260,200,207856,1,0,0:0:0:0:
260,200,207938,5,8,0:0:0:0:
260,200,207965,1,0,0:0:0:0:
260,200,208047,1,0,0:0:0:0:
260,200,208155,1,0,0:0:0:0:
260,200,208264,1,0,0:0:0:0:
260,200,208373,1,0,0:0:0:0:
260,200,208482,1,0,0:0:0:0:
260,200,208590,1,0,0:0:0:0:
260,200,208699,1,0,0:0:0:0:
260,200,208808,1,0,0:0:0:0:
260,200,208916,5,8,0:0:0:0:
260,200,208943,1,0,0:0:0:0:
260,200,209025,5,8,0:0:0:0:
260,200,209052,1,0,0:0:0:0:
260,200,209134,5,8,0:0:0:0:
260,200,209161,1,0,0:0:0:0:
260,200,209242,5,8,0:0:0:0:
260,200,209269,1,0,0:0:0:0:
260,200,209351,5,8,0:0:0:0:
260,200,209378,1,0,0:0:0:0:
260,200,209460,5,8,0:0:0:0:
260,200,209487,1,0,0:0:0:0:
260,200,209568,5,8,0:0:0:0:
260,200,209595,1,0,0:0:0:0:
260,200,209677,5,8,0:0:0:0:
260,200,209704,1,0,0:0:0:0:
260,200,209786,5,8,0:0:0:0:
260,200,209813,1,0,0:0:0:0:
260,200,209895,1,0,0:0:0:0:
260,200,210003,5,8,0:0:0:0:
260,200,210030,1,0,0:0:0:0:
260,200,210112,1,0,0:0:0:0:
260,200,210221,5,8,0:0:0:0:
260,200,210248,1,0,0:0:0:0:
260,200,210330,1,0,0:0:0:0:
260,200,210438,5,8,0:0:0:0:
260,200,210465,1,0,0:0:0:0:
260,200,210547,1,0,0:0:0:0:
260,200,210655,5,8,0:0:0:0:
260,200,210682,1,0,0:0:0:0:
260,200,210764,5,8,0:0:0:0:
260,200,210791,1,0,0:0:0:0:
260,200,210873,5,8,0:0:0:0:
260,200,210900,1,0,0:0:0:0:
260,200,210981,5,8,0:0:0:0:
260,200,211008,1,0,0:0:0:0:
260,200,211090,5,8,0:0:0:0:
260,200,211117,1,0,0:0:0:0:
260,200,211199,5,8,0:0:0:0:
260,200,211226,1,0,0:0:0:0:
260,200,211307,5,8,0:0:0:0:
260,200,211334,1,0,0:0:0:0:
260,200,211416,5,8,0:0:0:0:
260,200,211443,1,0,0:0:0:0:
260,200,211525,1,0,0:0:0:0:
260,200,211633,1,0,0:0:0:0:
260,200,211742,1,0,0:0:0:0:
260,200,211851,1,0,0:0:0:0:
260,200,211960,1,0,0:0:0:0:
260,200,212068,1,0,0:0:0:0:
260,200,212177,1,0,0:0:0:0:
260,200,212286,1,0,0:0:0:0:
260,200,212394,5,8,0:0:0:0:
260,200,212421,1,0,0:0:0:0:
260,200,212503,5,8,0:0:0:0:
260,200,212530,1,0,0:0:0:0:
260,200,212612,5,8,0:0:0:0:
260,200,212639,1,0,0:0:0:0:
260,200,212720,5,8,0:0:0:0:
260,200,212747,1,0,0:0:0:0:
260,200,212829,5,8,0:0:0:0:
260,200,212856,1,0,0:0:0:0:
260,200,212938,5,8,0:0:0:0:
260,200,212965,1,0,0:0:0:0:
260,200,213046,5,8,0:0:0:0:
260,200,213073,1,0,0:0:0:0:
260,200,213155,5,8,0:0:0:0:
260,200,213182,1,0,0:0:0:0:
260,200,213264,1,0,0:0:0:0:
260,200,213373,1,0,0:0:0:0:
260,200,213482,1,0,0:0:0:0:
260,200,213590,1,0,0:0:0:0:
260,200,213699,1,0,0:0:0:0:
260,200,213807,1,0,0:0:0:0:
260,200,213916,1,0,0:0:0:0:
260,200,214025,1,0,0:0:0:0:
260,200,214133,5,8,0:0:0:0:
260,200,214160,1,0,0:0:0:0:
260,200,214242,5,8,0:0:0:0:
260,200,214269,1,0,0:0:0:0:
260,200,214351,5,8,0:0:0:0:
260,200,214378,1,0,0:0:0:0:
260,200,214459,5,8,0:0:0:0:
260,200,214486,1,0,0:0:0:0:
260,200,214568,5,8,0:0:0:0:
260,200,214595,1,0,0:0:0:0:
260,200,214677,5,8,0:0:0:0:
260,200,214704,1,0,0:0:0:0:
260,200,214785,5,8,0:0:0:0:
260,200,214812,1,0,0:0:0:0:
260,200,214894,5,8,0:0:0:0:
260,200,214921,1,0,0:0:0:0:
260,200,215004,1,0,0:0:0:0:
260,200,215112,1,0,0:0:0:0:
260,200,215221,1,0,0:0:0:0:
260,200,215330,1,0,0:0:0:0:
260,200,215438,5,8,0:0:0:0:
260,200,215546,5,8,0:0:0:0:
260,200,215655,5,8,0:0:0:0:
260,200,215764,5,8,0:0:0:0:
260,200,215872,5,8,0:0:0:0:
260,200,215899,1,0,0:0:0:0:
260,200,215981,5,8,0:0:0:0:
260,200,216008,1,0,0:0:0:0:
260,200,216090,5,8,0:0:0:0:
260,200,216117,1,0,0:0:0:0:
260,200,216198,5,8,0:0:0:0:
260,200,216225,1,0,0:0:0:0:
260,200,216307,5,8,0:0:0:0:
260,200,216334,1,0,0:0:0:0:
260,200,216416,5,8,0:0:0:0:
260,200,216443,1,0,0:0:0:0:
260,200,216524,5,8,0:0:0:0:
260,200,216551,1,0,0:0:0:0:
260,200,216633,5,8,0:0:0:0:
260,200,216660,1,0,0:0:0:0:
260,200,216743,5,8,0:0:0:0:
260,200,216770,1,0,0:0:0:0:
260,200,216851,5,8,0:0:0:0:
260,200,216878,1,0,0:0:0:0:
260,200,216960,5,8,0:0:0:0:
260,200,216987,1,0,0:0:0:0:
260,200,217069,5,8,0:0:0:0:
260,200,217096,1,0,0:0:0:0:
260,200,217178,5,8,0:0:0:0:
260,200,217205,1,0,0:0:0:0:
260,200,217286,5,8,0:0:0:0:
260,200,217313,1,0,0:0:0:0:
260,200,217395,5,8,0:0:0:0:
260,200,217422,1,0,0:0:0:0:
260,200,217504,5,8,0:0:0:0:
260,200,217531,1,0,0:0:0:0:
260,200,217612,5,8,0:0:0:0:
260,200,217639,1,0,0:0:0:0:
260,200,217721,5,8,0:0:0:0:
260,200,217748,1,0,0:0:0:0:
260,200,217830,5,8,0:0:0:0:
260,200,217857,1,0,0:0:0:0:
260,200,217938,5,8,0:0:0:0:
260,200,217965,1,0,0:0:0:0:
260,200,218047,5,8,0:0:0:0:
260,200,218074,1,0,0:0:0:0:
260,200,218156,5,8,0:0:0:0:
260,200,218183,1,0,0:0:0:0:
260,200,218264,5,8,0:0:0:0:
260,200,218291,1,0,0:0:0:0:
260,200,218373,5,8,0:0:0:0:
260,200,218400,1,0,0:0:0:0:
260,200,218482,5,8,0:0:0:0:
260,200,218509,1,0,0:0:0:0:
260,200,218590,5,8,0:0:0:0:
260,200,218617,1,0,0:0:0:0:
260,200,218699,5,8,0:0:0:0:
260,200,218726,1,0,0:0:0:0:
260,200,218808,5,8,0:0:0:0:
260,200,218835,1,0,0:0:0:0:
260,200,218917,5,8,0:0:0:0:
260,200,218944,1,0,0:0:0:0:
260,200,219025,5,8,0:0:0:0:
260,200,219052,1,0,0:0:0:0:
260,200,219134,5,8,0:0:0:0:
260,200,219161,1,0,0:0:0:0:
260,200,219243,5,8,0:0:0:0:
260,200,219270,1,0,0:0:0:0:
260,200,219351,5,8,0:0:0:0:
260,200,219378,1,0,0:0:0:0:
260,200,219460,5,8,0:0:0:0:
260,200,219487,1,0,0:0:0:0:
260,200,219569,5,8,0:0:0:0:
260,200,219596,1,0,0:0:0:0:
260,200,219677,5,8,0:0:0:0:
260,200,219704,1,0,0:0:0:0:
260,200,219786,5,8,0:0:0:0:
260,200,219813,1,0,0:0:0:0:
260,200,219895,5,8,0:0:0:0:
260,200,219922,1,0,0:0:0:0:
260,200,220003,5,8,0:0:0:0:
260,200,220030,1,0,0:0:0:0:
260,200,220112,5,8,0:0:0:0:
260,200,220139,1,0,0:0:0:0:
260,200,220221,1,0,0:0:0:0:
260,200,220329,1,0,0:0:0:0:
260,200,220438,1,0,0:0:0:0:
260,200,220547,1,0,0:0:0:0:
260,200,220656,1,0,0:0:0:0:
260,200,220764,1,0,0:0:0:0:
260,200,220873,1,0,0:0:0:0:
260,200,220982,1,0,0:0:0:0:
260,200,221090,5,8,0:0:0:0:
260,200,221117,1,0,0:0:0:0:
260,200,221199,5,8,0:0:0:0:
260,200,221226,1,0,0:0:0:0:
260,200,221308,5,8,0:0:0:0:
260,200,221335,1,0,0:0:0:0:
260,200,221416,5,8,0:0:0:0:
260,200,221443,1,0,0:0:0:0:
260,200,221525,5,8,0:0:0:0:
260,200,221552,1,0,0:0:0:0:
260,200,221634,5,8,0:0:0:0:
260,200,221661,1,0,0:0:0:0:
260,200,221742,5,8,0:0:0:0:
260,200,221769,1,0,0:0:0:0:
260,200,221851,5,8,0:0:0:0:
260,200,221878,1,0,0:0:0:0:
260,200,221960,1,0,0:0:0:0:
260,200,222068,1,0,0:0:0:0:
260,200,222177,1,0,0:0:0:0:
260,200,222286,1,0,0:0:0:0:
260,200,222395,1,0,0:0:0:0:
260,200,222503,1,0,0:0:0:0:
260,200,222612,1,0,0:0:0:0:
260,200,222721,1,0,0:0:0:0:
260,200,222829,5,8,0:0:0:0:
260,200,222856,1,0,0:0:0:0:
260,200,222938,5,8,0:0:0:0:
260,200,222965,1,0,0:0:0:0:
260,200,223047,5,8,0:0:0:0:
260,200,223074,1,0,0:0:0:0:
260,200,223155,5,8,0:0:0:0:
260,200,223182,1,0,0:0:0:0:
260,200,223264,1,0,0:0:0:0:
260,200,223373,5,8,0:0:0:0:
260,200,223481,5,8,0:0:0:0:
260,200,223590,5,8,0:0:0:0:
260,200,223699,5,8,0:0:0:0:
260,200,223726,1,0,0:0:0:0:
260,200,223807,5,8,0:0:0:0:
260,200,223834,1,0,0:0:0:0:
260,200,223916,5,8,0:0:0:0:
260,200,223943,1,0,0:0:0:0:
260,200,224025,5,8,0:0:0:0:
260,200,224052,1,0,0:0:0:0:
260,200,224134,5,8,0:0:0:0:
260,200,224161,1,0,0:0:0:0:
260,200,224242,5,8,0:0:0:0:
260,200,224269,1,0,0:0:0:0:
260,200,224351,5,8,0:0:0:0:
260,200,224378,1,0,0:0:0:0:
260,200,224460,5,8,0:0:0:0:
260,200,224487,1,0,0:0:0:0:
260,200,224568,5,8,0:0:0:0:
260,200,224595,1,0,0:0:0:0:
260,200,224677,5,8,0:0:0:0:
260,200,224704,1,0,0:0:0:0:
260,200,224786,5,8,0:0:0:0:
260,200,224813,1,0,0:0:0:0:
260,200,224894,5,8,0:0:0:0:
260,200,224921,1,0,0:0:0:0:
260,200,225003,5,8,0:0:0:0:
260,200,225030,1,0,0:0:0:0:
260,200,225112,5,8,0:0:0:0:
260,200,225139,1,0,0:0:0:0:
260,200,225220,5,8,0:0:0:0:
260,200,225247,1,0,0:0:0:0:
260,200,225329,5,8,0:0:0:0:
260,200,225356,1,0,0:0:0:0:
260,200,225438,5,8,0:0:0:0:
260,200,225465,1,0,0:0:0:0:
260,200,225546,5,8,0:0:0:0:
260,200,225573,1,0,0:0:0:0:
260,200,225655,5,8,0:0:0:0:
260,200,225682,1,0,0:0:0:0:
260,200,225764,5,8,0:0:0:0:
260,200,225791,1,0,0:0:0:0:
260,200,225873,5,8,0:0:0:0:
260,200,225900,1,0,0:0:0:0:
260,200,225981,5,8,0:0:0:0:
260,200,226008,1,0,0:0:0:0:
260,200,226090,5,8,0:0:0:0:
260,200,226117,1,0,0:0:0:0:
260,200,226199,5,8,0:0:0:0:
260,200,226226,1,0,0:0:0:0:
260,200,226307,5,8,0:0:0:0:
260,200,226334,1,0,0:0:0:0:
260,200,226416,5,8,0:0:0:0:
260,200,226443,1,0,0:0:0:0:
260,200,226525,5,8,0:0:0:0:
260,200,226552,1,0,0:0:0:0:
260,200,226633,5,8,0:0:0:0:
260,200,226660,1,0,0:0:0:0:
260,200,226742,5,8,0:0:0:0:
260,200,226769,1,0,0:0:0:0:
260,200,226851,5,8,0:0:0:0:
260,200,226878,1,0,0:0:0:0:
260,200,226959,5,8,0:0:0:0:
260,200,226986,1,0,0:0:0:0:
260,200,227068,5,8,0:0:0:0:
260,200,227095,1,0,0:0:0:0:
260,200,227177,5,8,0:0:0:0:
260,200,227204,1,0,0:0:0:0:
260,200,227285,5,8,0:0:0:0:
260,200,227312,1,0,0:0:0:0:
260,200,227394,5,8,0:0:0:0:
260,200,227421,1,0,0:0:0:0:
260,200,227503,5,8,0:0:0:0:
260,200,227530,1,0,0:0:0:0:
260,200,227612,5,8,0:0:0:0:
260,200,227639,1,0,0:0:0:0:
260,200,227720,5,8,0:0:0:0:
260,200,227747,1,0,0:0:0:0:
260,200,227829,5,8,0:0:0:0:
260,200,227856,1,0,0:0:0:0:
260,200,227938,5,8,0:0:0:0:
260,200,227965,1,0,0:0:0:0:
260,200,228046,5,8,0:0:0:0:
260,200,228073,1,0,0:0:0:0:
260,200,228155,5,8,0:0:0:0:
260,200,228182,1,0,0:0:0:0:
260,200,228264,5,8,0:0:0:0:
260,200,228291,1,0,0:0:0:0:
260,200,228372,5,8,0:0:0:0:
260,200,228399,1,0,0:0:0:0:
260,200,228481,5,8,0:0:0:0:
260,200,228508,1,0,0:0:0:0:
260,200,228590,5,8,0:0:0:0:
260,200,228617,1,0,0:0:0:0:
260,200,228698,5,8,0:0:0:0:
260,200,228725,1,0,0:0:0:0:
260,200,228807,5,8,0:0:0:0:
260,200,228834,1,0,0:0:0:0:
260,200,228916,5,8,0:0:0:0:
260,200,228943,1,0,0:0:0:0:
260,200,229024,5,8,0:0:0:0:
260,200,229051,1,0,0:0:0:0:
260,200,229133,5,8,0:0:0:0:
260,200,229160,1,0,0:0:0:0:
260,200,229242,5,8,0:0:0:0:
260,200,229269,1,0,0:0:0:0:
260,200,229351,5,8,0:0:0:0:
260,200,229378,1,0,0:0:0:0:
260,200,229459,5,8,0:0:0:0:
260,200,229486,1,0,0:0:0:0:
260,200,229568,5,8,0:0:0:0:
260,200,229595,1,0,0:0:0:0:
260,200,229677,5,8,0:0:0:0:
260,200,229704,1,0,0:0:0:0:
260,200,229785,5,8,0:0:0:0:
260,200,229812,1,0,0:0:0:0:
260,200,229894,5,8,0:0:0:0:
260,200,229921,1,0,0:0:0:0:
260,200,230003,5,8,0:0:0:0:
260,200,230030,1,0,0:0:0:0:
260,200,230111,5,8,0:0:0:0:
260,200,230138,1,0,0:0:0:0:
260,200,230220,5,8,0:0:0:0:
260,200,230247,1,0,0:0:0:0:
260,200,230329,5,8,0:0:0:0:
260,200,230356,1,0,0:0:0:0:
260,200,230437,5,8,0:0:0:0:
260,200,230464,1,0,0:0:0:0:
260,200,230546,5,8,0:0:0:0:
260,200,230573,1,0,0:0:0:0:
380,248,230656,1,0,0:0:0:0:
336,212,230873,1,8,0:0:0:0:
336,212,230982,1,0,0:0:0:0:
332,240,231199,1,8,0:0:0:0:
332,240,231308,1,8,0:0:0:0:
336,240,231525,1,0,0:0:0:0:
336,240,231634,1,0,0:0:0:0:
336,240,231743,1,0,0:0:0:0:
336,240,231960,1,8,0:0:0:0:
