osu file format v14

[General]
AudioFilename: audio.mp3
AudioLeadIn: 0
PreviewTime: 24668
Countdown: 0
SampleSet: None
StackLeniency: 0.5
Mode: 0
LetterboxInBreaks: 0
WidescreenStoryboard: 1

[Editor]
DistanceSpacing: 1
BeatDivisor: 4
GridSize: 4
TimelineZoom: 2.7

[Metadata]
Title:A FOOL MOON NIGHT
TitleUnicode:A FOOL MOON NIGHT
Artist:The Koxx
ArtistUnicode:칵스
Creator:Morbon
Version:123
Source:o2jam
Tags:
BeatmapID:1145579
BeatmapSetID:540234

[Difficulty]
HPDrainRate:5
CircleSize:4
OverallDifficulty:8.1
ApproachRate:9.8
SliderMultiplier:2.2
SliderTickRate:1

[Events]
//Background and Video events
0,0,"full_moon_night_sky_ice_constructions_47255_1366x768.jpg",0,0
//Break Periods
//Storyboard Layer 0 (Background)
//Storyboard Layer 1 (Fail)
//Storyboard Layer 2 (Pass)
//Storyboard Layer 3 (Foreground)
//Storyboard Sound Samples

[TimingPoints]
321,434.782608695652,4,1,0,30,1,0
9451,-50,4,1,0,30,0,0
9668,-100,4,1,0,30,0,0
10320,-66.6666666666667,4,1,0,30,0,0
10538,-100,4,1,0,30,0,0
22929,-133.333333333333,4,1,0,30,0,0
23799,-100,4,1,0,30,0,0
24234,-133.333333333333,4,1,0,30,0,0
24667,-125,4,1,0,100,0,0
38612,434.782608695652,4,1,0,60,1,0
45567,434.782608695652,4,1,0,60,1,0
52523,-200,4,1,0,60,0,0
52958,-66.6666666666667,4,1,0,60,0,0
53384,-100,4,1,0,80,0,0
53387,434.782608695652,4,1,0,80,1,0
54256,434.782608695652,4,1,0,80,1,0
66429,-66.6666666666667,4,1,0,80,0,0
80342,-66.6666666666667,4,1,0,100,0,1
108060,-100,4,1,0,100,0,0
120337,434.782608695652,4,1,0,100,1,0
134032,-133.333333333333,4,1,0,100,0,0
135119,-100,4,1,0,100,0,0
135981,434.782608695652,4,1,0,100,1,0
149930,434.782608695652,4,1,0,75,1,0
163831,434.782608695652,4,1,0,75,1,0
163831,-66.6666666666667,4,1,0,75,0,0
177744,-66.6666666666667,4,1,0,100,0,1
233358,434.782608695652,4,1,0,100,1,0

[Colours]
Combo1 : 0,230,230
Combo2 : 0,128,255

[HitObjects]
160,288,3582,5,0,0:0:0:0:
184,312,3637,1,0,0:0:0:0:
164,336,3691,1,0,0:0:0:0:
132,332,3745,1,0,0:0:0:0:
116,304,3800,6,0,P|92:204|128:104,2,165
400,108,4669,2,0,P|332:64|240:56,2,165
168,268,5539,2,0,P|89:284|27:221,2,165
344,304,6408,2,0,P|416:340|492:296,2,165
156,84,7169,1,0,0:0:0:0:
156,84,7278,6,0,P|236:88|300:16,1,165
108,24,7713,2,0,P|80:72|92:132,1,110
185,172,8148,2,0,L|87:123,1,110
196,84,8474,2,0,L|344:156,1,165
216,280,9017,6,0,P|124:264|96:168,1,165
56,216,9452,6,0,P|104:144|104:232,1,220
16,272,9887,6,0,P|-20:172|8:112,1,165
168,104,10321,2,0,P|204:204|176:264,1,165
64,352,10648,1,0,0:0:0:0:
64,352,10756,6,0,L|248:336,1,165
340,236,11191,2,0,P|344:284|304:328,1,110
61,348,11626,6,0,L|245:335,1,165
339,237,12061,2,0,P|342:285|301:328,1,110
58,345,12495,6,0,L|242:335,1,165
338,238,12930,2,0,P|340:287|299:329,1,110
55,341,13365,6,0,L|240:335,1,165
337,240,13800,2,0,P|339:288|296:330,1,110
53,338,14235,6,0,L|237:335,1,165
336,241,14669,2,0,P|337:289|294:331,1,110
48,332,15104,6,0,L|233:332,1,165
335,243,15539,2,0,P|256:252|192:232,1,110
340,80,15974,6,0,P|396:72|476:88,1,110
260,188,16300,2,0,L|212:20,1,165
284,308,16843,2,0,P|208:312|120:248,2,165
412,110,17713,6,0,P|371:74|307:50,1,110
320,52,18039,1,0,0:0:0:0:
320,52,18148,1,0,0:0:0:0:
192,224,18365,1,0,0:0:0:0:
64,32,18582,6,0,P|48:92|64:160,1,110
54,138,18908,1,0,0:0:0:0:
54,138,19017,1,0,0:0:0:0:
288,224,19235,1,0,0:0:0:0:
72,216,19452,6,0,P|116:260|184:276,1,110
160,275,19778,1,0,0:0:0:0:
160,275,19887,1,0,0:0:0:0:
384,128,20104,1,0,0:0:0:0:
160,275,20321,6,0,P|120:216|116:144,1,110
113,179,20648,1,0,0:0:0:0:
113,179,20756,1,0,0:0:0:0:
332,304,20974,1,0,0:0:0:0:
131,98,21191,6,0,P|77:105|40:144,1,110
40,143,21517,1,0,0:0:0:0:
40,143,21626,1,0,0:0:0:0:
256,208,21843,1,0,0:0:0:0:
408,64,22061,6,0,L|272:48,1,110
298,51,22387,1,0,0:0:0:0:
298,51,22495,1,0,0:0:0:0:
384,320,22713,1,0,0:0:0:0:
64,256,22930,6,0,P|16:264|96:284,1,288.750011014939
32,196,23800,2,0,L|48:304,1,110
32,196,24126,1,0,0:0:0:0:
464,304,24235,2,0,L|476:164,1,123.750004720688
268,36,24669,6,0,P|200:52|136:112,1,132
192,160,25104,1,0,0:0:0:0:
64,256,25321,1,0,0:0:0:0:
32,32,25539,1,0,0:0:0:0:
224,224,25756,1,0,0:0:0:0:
224,224,25865,1,0,0:0:0:0:
224,224,25974,1,0,0:0:0:0:
320,64,26191,1,0,0:0:0:0:
96,160,26408,6,0,P|80:228|112:296,1,132
192,320,26843,1,0,0:0:0:0:
384,96,27061,1,0,0:0:0:0:
448,288,27278,2,0,B|416:296|416:296|352:232,1,88
184,100,27713,2,0,B|216:92|216:92|280:156,1,88
192,304,28148,6,0,P|128:320|56:292,1,132
32,224,28582,1,0,0:0:0:0:
448,288,28800,1,0,0:0:0:0:
160,64,29017,2,0,P|152:128|168:192,1,132
256,224,29452,1,0,0:0:0:0:
416,32,29669,1,0,0:0:0:0:
64,264,29887,6,0,P|128:280|208:276,1,132
256,224,30321,1,0,0:0:0:0:
320,32,30539,1,0,0:0:0:0:
512,96,30756,5,0,0:0:0:0:
448,288,30974,1,0,0:0:0:0:
256,224,31191,1,0,0:0:0:0:
320,32,31408,1,0,0:0:0:0:
512,96,31626,6,0,P|444:112|356:120,1,132
288,128,32061,1,0,0:0:0:0:
64,288,32278,1,0,0:0:0:0:
384,352,32495,1,0,0:0:0:0:
128,64,32713,1,0,0:0:0:0:
128,64,32821,1,0,0:0:0:0:
128,64,32930,1,0,0:0:0:0:
288,280,33148,1,0,0:0:0:0:
412,32,33365,6,0,P|332:44|268:80,1,132
212,88,33800,1,0,0:0:0:0:
480,192,34017,1,0,0:0:0:0:
95,128,34235,2,0,P|80:169|82:212,1,88
392,352,34669,2,0,P|408:304|400:252,1,88
52,300,35104,6,0,P|124:296|172:236,1,132
160,160,35539,1,0,0:0:0:0:
384,320,35756,1,0,0:0:0:0:
200,56,35974,2,0,P|120:72|64:96,1,132
64,176,36408,1,0,0:0:0:0:
384,92,36626,1,0,0:0:0:0:
208,260,36843,6,0,P|143:272|79:260,1,132
64,176,37278,1,0,0:0:0:0:
288,352,37495,1,0,0:0:0:0:
64,176,37713,1,0,0:0:0:0:
80,136,37821,1,0,0:0:0:0:
108,100,37930,1,0,0:0:0:0:
148,80,38039,1,0,0:0:0:0:
220,128,38148,1,0,0:0:0:0:
264,132,38256,1,0,0:0:0:0:
304,120,38365,1,0,0:0:0:0:
336,88,38474,1,0,0:0:0:0:
416,44,38613,6,0,P|420:156|312:208,1,220
128,32,39265,1,0,0:0:0:0:
32,160,39482,1,0,0:0:0:0:
256,64,39699,1,0,0:0:0:0:
224,256,39917,1,0,0:0:0:0:
384,32,40134,1,0,0:0:0:0:
480,160,40352,6,0,P|364:204|272:156,1,220
448,32,41004,1,0,0:0:0:0:
224,96,41221,1,0,0:0:0:0:
384,256,41439,1,0,0:0:0:0:
128,96,41656,1,0,0:0:0:0:
128,320,41873,1,0,0:0:0:0:
24,52,42091,6,0,P|128:28|248:84,1,220
168,256,42743,2,0,P|128:204|124:144,1,110
288,160,43178,1,0,0:0:0:0:
96,320,43395,2,0,P|32:256|32:192,1,110
228,32,43830,6,0,P|299:113|246:225,1,220
100,164,44482,2,0,P|128:112|176:76,1,110
256,288,44917,1,0,0:0:0:0:
24,84,45134,2,0,P|64:41|120:18,1,110,0|0,0:0|0:0,0:3:0:0:
349,198,45568,6,0,P|251:240|152:200,1,220
288,128,46220,1,0,0:0:0:0:
400,272,46437,1,0,0:0:0:0:
152,56,46654,1,0,0:0:0:0:
40,200,46871,1,0,0:0:0:0:
268,312,47089,1,0,0:0:0:0:
121,180,47307,6,0,P|63:237|40:316,1,165
192,224,47741,1,0,0:0:0:0:
44,52,47959,1,0,0:0:0:0:
268,312,48176,1,0,0:0:0:0:
240,64,48394,1,0,0:0:0:0:
320,224,48611,1,0,0:0:0:0:
468,52,48827,1,0,0:0:0:0:
350,315,49046,6,0,P|252:279|244:176,1,220
428,208,49698,2,0,L|320:224,1,110
320,96,50133,1,0,0:0:0:0:
512,292,50350,2,0,L|403:307,1,110
220,236,50785,6,0,P|256:151|264:226,1,220,0|0,0:3|0:3,0:3:0:0:
160,288,51437,2,0,P|92:304|40:288,1,110
344,212,51872,1,0,0:0:0:0:
344,212,51981,1,0,0:0:0:0:
344,212,52089,2,0,P|412:228|464:212,1,110
116,60,52524,6,0,L|212:72,1,82.5
379,126,52959,6,0,L|195:150,1,165.000006294251
56,160,53388,6,0,P|80:236|144:292,1,165
224,256,53822,1,0,0:0:0:0:
288,32,54040,1,0,0:0:0:0:
456,172,54257,6,0,P|400:224|304:216,1,165
248,180,54691,1,0,0:0:0:0:
368,44,54909,1,0,0:0:0:0:
260,336,55126,2,0,B|200:336|200:336|148:316,1,110
108,132,55561,2,0,B|168:132|168:132|220:152,1,110
396,336,55996,6,0,P|424:256|408:152,1,165
320,192,56430,1,0,0:0:0:0:
480,352,56648,1,0,0:0:0:0:
322,80,56865,2,0,L|194:92,1,110
213,90,57191,1,0,0:0:0:0:
213,90,57300,1,0,0:0:0:0:
128,288,57517,1,0,0:0:0:0:
308,132,57735,6,0,P|276:36|212:4,2,165
224,256,58604,1,0,0:0:0:0:
64,96,58822,1,0,0:0:0:0:
96,320,59039,1,0,0:0:0:0:
192,32,59257,1,0,0:0:0:0:
371,300,59474,6,0,P|303:342|224:328,1,165
164,268,59909,1,0,0:0:0:0:
448,352,60126,1,0,0:0:0:0:
124,184,60343,2,0,P|82:253|93:333,1,165
172,348,60778,1,0,0:0:0:0:
224,32,60996,1,0,0:0:0:0:
288,224,61213,5,0,0:0:0:0:
96,64,61430,1,0,0:0:0:0:
96,64,61539,1,0,0:0:0:0:
96,64,61648,2,0,P|72:124|80:188,1,110
408,172,62083,2,0,P|408:117|386:67,1,110
120,248,62517,2,0,P|158:286|209:306,1,110
386,67,62952,6,0,P|294:46|218:78,1,165
288,160,63387,1,0,0:0:0:0:
488,232,63604,1,0,0:0:0:0:
128,96,63822,1,0,0:0:0:0:
168,252,64039,1,0,0:0:0:0:
168,252,64148,1,0,0:0:0:0:
168,252,64257,1,0,0:0:0:0:
288,32,64474,1,0,0:0:0:0:
448,264,64691,6,0,P|372:248|308:144,1,165
400,104,65126,1,0,0:0:0:0:
296,344,65343,1,0,0:0:0:0:
132,336,65561,1,0,0:0:0:0:
84,304,65670,1,0,0:0:0:0:
72,252,65778,1,0,0:0:0:0:
84,200,65887,1,0,0:0:0:0:
148,248,65996,1,0,0:0:0:0:
186,204,66103,1,0,0:0:0:0:
184,151,66213,1,0,0:0:0:0:
159,104,66322,1,0,0:0:0:0:
104,60,66430,6,0,P|76:168|116:304,1,247.500009441376
256,120,66865,2,0,L|68:112,1,165.000006294251
216,264,67300,2,0,L|468:280,1,247.500009441376
140,48,67735,2,0,P|112:128|144:220,1,165.000006294251
424,348,68170,6,0,P|480:256|396:136,2,247.500009441376
40,288,69039,2,0,L|76:36,1,247.500009441376
172,189,69474,2,0,L|32:293,1,165.000006294251
172,48,69909,6,0,L|328:120,1,165.000006294251
190,266,70235,2,0,L|340:336,1,165.000006294251
221,157,70561,2,0,L|72:88,1,165.000006294251
90,306,70887,2,0,L|239:375,1,165.000006294251
448,192,71213,1,0,0:0:0:0:
32,224,71430,1,0,0:0:0:0:
320,64,71648,6,0,L|512:32,1,165.000006294251
29,347,71974,2,0,L|192:320,1,165.000006294251
376,188,72300,1,0,0:0:0:0:
276,188,72409,1,0,0:0:0:0:
208,120,72517,2,0,P|260:52|412:64,2,247.500009441376
288,320,73278,1,0,0:0:0:0:
208,196,73387,6,0,L|156:368,1,165.000006294251
424,48,73713,2,0,L|260:76,1,165.000006294251
72,112,74039,2,0,L|224:136,1,82.5000031471254
344,268,74257,2,0,P|425:182|433:56,2,247.500009441376
95,375,75126,6,0,P|27:278|72:168,1,247.500009441376
268,232,75561,2,0,L|100:276,1,165.000006294251
248,144,75887,1,0,0:0:0:0:
304,84,75996,2,0,L|472:40,1,165.000006294251
188,200,76430,2,0,L|28:158,1,165.000006294251
348,8,76865,6,0,P|380:96|328:168,1,165.000006294251
408,356,77191,2,0,P|440:268|388:196,1,165.000006294251
188,53,77517,2,0,P|155:126|188:200,1,165.000006294251
408,209,77843,2,0,P|441:136|408:62,1,165.000006294251
64,204,78170,2,0,P|30:276|63:350,1,165.000006294251
408,209,78604,5,0,0:0:0:0:
160,128,78822,1,0,0:0:0:0:
160,128,78930,1,0,0:0:0:0:
448,224,79257,1,0,0:0:0:0:
136,96,79474,2,0,B|132:124|132:124|124:124|124:124|140:124|140:124|132:132|132:132|120:180|156:248,1,165.000006294251
96,32,79909,1,0,0:0:0:0:
96,32,80343,5,0,0:0:0:0:
56,124,80452,1,0,0:0:0:0:
56,224,80561,1,0,0:0:0:0:
96,316,80670,1,0,0:0:0:0:
136,316,80778,5,0,0:0:0:0:
96,224,80887,1,0,0:0:0:0:
96,124,80996,1,0,0:0:0:0:
136,32,81103,1,0,0:0:0:0:
176,32,81213,5,0,0:0:0:0:
136,124,81322,1,0,0:0:0:0:
136,224,81429,1,0,0:0:0:0:
176,316,81538,1,0,0:0:0:0:
216,316,81648,5,0,0:0:0:0:
176,224,81755,1,0,0:0:0:0:
176,124,81864,1,0,0:0:0:0:
216,32,81973,1,0,0:0:0:0:
256,32,82083,5,0,0:0:0:0:
216,124,82190,1,0,0:0:0:0:
216,224,82299,1,0,0:0:0:0:
256,316,82408,1,0,0:0:0:0:
296,316,82516,5,0,0:0:0:0:
256,224,82625,1,0,0:0:0:0:
256,124,82734,1,0,0:0:0:0:
296,32,82842,1,0,0:0:0:0:
336,32,82951,5,0,0:0:0:0:
296,124,83060,1,0,0:0:0:0:
296,224,83169,1,0,0:0:0:0:
336,316,83277,1,0,0:0:0:0:
376,316,83386,5,0,0:0:0:0:
336,224,83495,1,0,0:0:0:0:
336,124,83603,1,0,0:0:0:0:
376,32,83712,1,0,0:0:0:0:
416,96,83822,5,0,0:0:0:0:
480,144,83930,1,0,0:0:0:0:
432,208,84039,1,0,0:0:0:0:
368,160,84148,1,0,0:0:0:0:
362,160,84256,5,0,0:0:0:0:
432,213,84365,1,0,0:0:0:0:
485,143,84474,1,0,0:0:0:0:
415,90,84582,1,0,0:0:0:0:
416,176,84691,5,0,0:0:0:0:
320,208,84800,1,0,0:0:0:0:
224,192,84909,1,0,0:0:0:0:
156,120,85017,1,0,0:0:0:0:
125,213,85126,5,0,0:0:0:0:
224,192,85235,1,0,0:0:0:0:
299,130,85342,1,0,0:0:0:0:
322,34,85452,1,0,0:0:0:0:
392,104,85561,5,0,0:0:0:0:
484,144,85670,1,0,0:0:0:0:
360,180,85778,1,0,0:0:0:0:
452,220,85887,1,0,0:0:0:0:
272,168,85996,5,0,0:0:0:0:
180,208,86103,1,0,0:0:0:0:
304,244,86213,1,0,0:0:0:0:
212,284,86322,1,0,0:0:0:0:
180,208,86430,5,0,0:0:0:0:
272,168,86538,1,0,0:0:0:0:
360,180,86647,1,0,0:0:0:0:
452,220,86756,1,0,0:0:0:0:
448,128,86865,5,0,0:0:0:0:
325,74,86973,1,0,0:0:0:0:
207,90,87082,1,0,0:0:0:0:
84,144,87191,1,0,0:0:0:0:
64,288,87300,5,0,0:0:0:0:
128,224,87409,1,0,0:0:0:0:
152,320,87517,1,0,0:0:0:0:
216,256,87626,5,0,0:0:0:0:
128,224,87735,1,0,0:0:0:0:
84,144,87843,1,0,0:0:0:0:
88,56,87952,1,0,0:0:0:0:
184,88,88061,1,0,0:0:0:0:
280,88,88170,1,0,0:0:0:0:
376,56,88278,1,0,0:0:0:0:
280,88,88387,5,0,0:0:0:0:
216,256,88496,1,0,0:0:0:0:
184,88,88604,1,0,0:0:0:0:
128,224,88713,1,0,0:0:0:0:
88,56,88822,1,0,0:0:0:0:
84,144,88930,1,0,0:0:0:0:
184,88,89039,5,0,0:0:0:0:
266,146,89148,1,0,0:0:0:0:
311,232,89255,1,0,0:0:0:0:
295,329,89365,1,0,0:0:0:0:
224,72,89474,5,0,0:0:0:0:
314,114,89583,1,0,0:0:0:0:
373,191,89690,1,0,0:0:0:0:
374,289,89800,1,0,0:0:0:0:
70,343,89909,5,0,0:0:0:0:
128,261,90016,1,0,0:0:0:0:
214,216,90125,1,0,0:0:0:0:
311,232,90235,1,0,0:0:0:0:
24,224,90343,5,0,0:0:0:0:
95,153,90452,1,0,0:0:0:0:
187,123,90561,1,0,0:0:0:0:
280,156,90669,1,0,0:0:0:0:
56,260,90778,5,0,0:0:0:0:
40,256,90887,1,0,0:0:0:0:
48,240,90996,1,0,0:0:0:0:
64,236,91104,1,0,0:0:0:0:
80,244,91213,1,0,0:0:0:0:
84,260,91322,1,0,0:0:0:0:
76,276,91430,1,0,0:0:0:0:
60,280,91539,1,0,0:0:0:0:
32,260,91648,5,0,0:0:0:0:
32,228,91756,1,0,0:0:0:0:
52,204,91865,1,0,0:0:0:0:
84,192,91974,1,0,0:0:0:0:
116,196,92083,1,0,0:0:0:0:
144,216,92191,1,0,0:0:0:0:
160,244,92300,1,0,0:0:0:0:
156,276,92409,1,0,0:0:0:0:
124,312,92517,5,0,0:0:0:0:
108,264,92626,1,0,0:0:0:0:
120,216,92735,1,0,0:0:0:0:
156,180,92843,1,0,0:0:0:0:
204,168,92952,1,0,0:0:0:0:
252,176,93061,1,0,0:0:0:0:
292,208,93170,1,0,0:0:0:0:
312,252,93278,1,0,0:0:0:0:
300,316,93387,5,0,0:0:0:0:
264,260,93496,1,0,0:0:0:0:
272,196,93604,1,0,0:0:0:0:
312,144,93713,1,0,0:0:0:0:
376,124,93822,1,0,0:0:0:0:
436,148,93930,1,0,0:0:0:0:
480,196,94039,1,0,0:0:0:0:
476,264,94148,1,0,0:0:0:0:
432,312,94256,5,0,0:0:0:0:
348,308,94365,1,0,0:0:0:0:
276,264,94474,1,0,0:0:0:0:
244,188,94583,1,0,0:0:0:0:
256,108,94691,1,0,0:0:0:0:
316,52,94800,1,0,0:0:0:0:
400,44,94909,1,0,0:0:0:0:
468,88,95017,1,0,0:0:0:0:
480,168,95126,1,0,0:0:0:0:
428,232,95235,1,0,0:0:0:0:
348,228,95343,1,0,0:0:0:0:
280,180,95452,1,0,0:0:0:0:
236,108,95561,1,0,0:0:0:0:
180,48,95670,1,0,0:0:0:0:
100,36,95778,1,0,0:0:0:0:
28,76,95887,1,0,0:0:0:0:
16,156,95996,5,0,0:0:0:0:
64,220,96104,1,0,0:0:0:0:
148,212,96213,1,0,0:0:0:0:
200,148,96322,1,0,0:0:0:0:
168,72,96430,1,0,0:0:0:0:
88,52,96539,1,0,0:0:0:0:
96,136,96648,1,0,0:0:0:0:
128,212,96756,1,0,0:0:0:0:
200,248,96865,1,0,0:0:0:0:
284,244,96974,1,0,0:0:0:0:
356,200,97083,1,0,0:0:0:0:
376,120,97191,1,0,0:0:0:0:
364,40,97300,1,0,0:0:0:0:
300,96,97409,1,0,0:0:0:0:
376,120,97517,1,0,0:0:0:0:
436,176,97626,1,0,0:0:0:0:
460,256,97735,5,0,0:0:0:0:
448,336,97843,1,0,0:0:0:0:
380,288,97952,1,0,0:0:0:0:
312,240,98061,1,0,0:0:0:0:
232,220,98170,1,0,0:0:0:0:
152,224,98278,1,0,0:0:0:0:
72,248,98387,1,0,0:0:0:0:
24,316,98496,1,0,0:0:0:0:
104,292,98604,1,0,0:0:0:0:
168,240,98713,1,0,0:0:0:0:
188,160,98822,1,0,0:0:0:0:
172,80,98930,1,0,0:0:0:0:
128,8,99039,1,0,0:0:0:0:
88,80,99148,1,0,0:0:0:0:
168,84,99256,1,0,0:0:0:0:
244,56,99365,1,0,0:0:0:0:
308,4,99474,5,0,0:0:0:0:
348,76,99583,1,0,0:0:0:0:
408,132,99691,1,0,0:0:0:0:
484,160,99800,1,0,0:0:0:0:
476,76,99909,1,0,0:0:0:0:
408,132,100017,1,0,0:0:0:0:
384,212,100126,1,0,0:0:0:0:
392,296,100235,1,0,0:0:0:0:
428,368,100343,1,0,0:0:0:0:
388,296,100452,1,0,0:0:0:0:
316,256,100561,1,0,0:0:0:0:
236,236,100670,1,0,0:0:0:0:
156,240,100778,1,0,0:0:0:0:
80,272,100887,1,0,0:0:0:0:
24,332,100996,1,0,0:0:0:0:
192,308,101104,1,0,0:0:0:0:
316,224,101213,5,0,0:0:0:0:
268,156,101322,1,0,0:0:0:0:
307,232,101430,5,0,0:3:0:0:
276,147,101539,1,0,0:3:0:0:
296,239,101648,5,0,0:0:0:0:
287,140,101755,1,0,0:0:0:0:
282,243,101865,5,0,0:0:0:0:
301,136,101974,1,0,0:0:0:0:
267,242,102083,5,0,0:0:0:0:
316,137,102190,1,0,0:0:0:0:
252,237,102300,5,0,0:0:0:0:
331,142,102409,1,0,0:0:0:0:
237,228,102517,5,0,0:0:0:0:
346,151,102626,1,0,0:0:0:0:
225,214,102735,5,0,0:0:0:0:
358,165,102842,1,0,0:0:0:0:
217,196,102952,5,0,0:0:0:0:
366,183,103061,1,0,0:0:0:0:
214,176,103170,5,0,0:0:0:0:
369,203,103277,1,0,0:0:0:0:
216,155,103387,5,0,0:0:0:0:
367,224,103496,1,0,0:0:0:0:
224,134,103604,5,0,0:0:0:0:
359,245,103713,1,0,0:0:0:0:
239,115,103822,5,0,0:0:0:0:
344,264,103929,1,0,0:0:0:0:
258,100,104039,5,0,0:0:0:0:
325,279,104148,1,0,0:0:0:0:
282,90,104256,5,0,0:0:0:0:
301,289,104365,1,0,0:0:0:0:
309,87,104474,5,0,0:0:0:0:
274,292,104583,1,0,0:0:0:0:
337,91,104691,5,0,0:0:0:0:
246,288,104800,1,0,0:0:0:0:
363,103,104909,5,0,0:0:0:0:
220,276,105016,1,0,0:0:0:0:
387,122,105126,5,0,0:0:0:0:
196,257,105235,1,0,0:0:0:0:
405,150,105343,5,0,0:0:0:0:
178,229,105452,1,0,0:0:0:0:
416,178,105561,5,0,0:0:0:0:
167,201,105670,1,0,0:0:0:0:
415,211,105778,5,0,0:0:0:0:
168,168,105887,1,0,0:0:0:0:
409,244,105996,5,0,0:0:0:0:
174,135,106103,1,0,0:0:0:0:
394,275,106213,5,0,0:0:0:0:
189,104,106322,1,0,0:0:0:0:
371,302,106430,5,0,0:0:0:0:
212,77,106539,1,0,0:0:0:0:
340,322,106648,5,0,0:0:0:0:
243,57,106755,1,0,0:0:0:0:
305,335,106865,5,0,0:0:0:0:
278,44,106974,1,0,0:0:0:0:
266,337,107083,5,0,0:0:0:0:
317,42,107190,1,0,0:0:0:0:
227,329,107300,5,0,0:0:0:0:
356,50,107409,1,0,0:0:0:0:
190,311,107517,5,0,0:0:0:0:
393,68,107626,1,0,0:0:0:0:
167,277,107735,5,0,0:3:0:0:
416,102,107842,1,0,0:3:0:0:
158,239,107952,5,0,0:0:0:0:
425,140,108061,1,0,0:0:0:0:
116,176,108170,6,0,P|88:216|148:320,10,165
428,288,111756,2,0,L|263:302,4,165
59,153,113387,2,0,L|224:168,4,165
448,56,115017,6,0,L|444:80,1,13.75
64,328,115343,2,0,L|68:304,1,13.75
212,40,115670,2,0,L|214:53,1,13.75
300,344,115996,2,0,L|297:330,1,13.75
52,48,116322,2,0,L|54:61,1,13.75
468,200,116648,2,0,L|454:202,1,13.75
40,176,116974,2,0,L|53:173,1,13.75
444,56,117300,2,0,L|431:53,1,13.75
68,328,117626,2,0,L|81:331,1,13.75
444,328,117952,2,0,L|431:331,1,13.75
68,328,118278,2,0,L|81:331,1,13.75
444,328,118604,6,0,L|431:331,1,13.75
128,64,118930,2,0,L|141:67,1,13.75
468,192,119256,2,0,L|455:195,1,13.75
48,240,119583,2,0,L|61:243,1,13.75
384,32,119909,2,0,L|371:35,1,13.75
128,264,120235,1,0,0:0:0:0:
128,264,120337,6,0,P|104:112|180:256,1,440
128,352,121424,1,0,0:0:0:0:
128,352,121532,1,0,0:0:0:0:
128,352,121642,2,0,P|72:336|24:292,1,110
360,52,122077,6,0,L|496:72,1,110
88,172,122511,2,0,L|64:56,1,110
256,160,122946,1,0,0:0:0:0:
160,320,123164,1,0,0:0:0:0:
184,64,123381,2,0,P|236:52|324:56,1,110
464,280,123816,6,0,P|412:292|324:288,1,110
36,240,124251,2,0,P|88:252|176:248,1,110
395,107,124685,1,0,0:0:0:0:
464,280,124903,1,0,0:0:0:0:
142,66,125120,1,0,0:0:0:0:
22,209,125338,1,0,0:0:0:0:
216,72,125555,6,0,P|196:16|136:-8,1,110
80,280,125990,2,0,L|208:312,1,110
436,332,126424,2,0,L|308:300,1,110
160,64,126859,1,0,0:0:0:0:
256,256,127077,1,0,0:0:0:0:
396,76,127294,6,0,P|414:129|418:189,1,110
116,308,127729,2,0,P|97:254|93:194,1,110
448,288,128164,1,0,0:0:0:0:
192,224,128381,1,0,0:0:0:0:
448,288,128598,1,0,0:0:0:0:
192,224,128816,1,0,0:0:0:0:
192,224,128924,1,0,0:0:0:0:
176,208,129033,5,0,0:0:0:0:
160,192,129142,1,0,0:0:0:0:
144,176,129251,1,0,0:0:0:0:
352,64,129468,1,0,0:0:0:0:
256,320,129685,1,0,0:0:0:0:
32,128,129903,1,0,0:0:0:0:
256,320,130120,1,0,0:0:0:0:
352,64,130338,2,0,L|480:96,1,110
88,276,130772,6,0,P|56:212|68:152,1,110,4|0,0:0|0:0,0:0:0:0:
376,252,131207,2,0,P|408:316|396:376,1,110
152,344,131642,2,0,L|16:336,1,110
42,46,132077,2,0,L|152:40,1,110
405,192,132511,5,0,0:0:0:0:
135,104,132729,1,0,0:0:0:0:
302,334,132946,1,0,0:0:0:0:
302,49,133164,1,0,0:0:0:0:
135,279,133381,1,0,0:0:0:0:
405,192,133598,1,0,0:0:0:0:
135,104,133816,1,0,0:0:0:0:
302,334,134033,1,0,0:0:0:0:
302,334,134142,1,0,0:0:0:0:
302,334,134251,6,0,P|350:326|270:306,1,288.750011014939
320,280,135120,1,0,0:0:0:0:
360,232,135229,1,0,0:0:0:0:
356,176,135338,1,0,0:0:0:0:
348,112,135446,1,0,0:0:0:0:
386,70,135555,2,0,L|340:232,1,165
286,312,135982,6,0,P|365:325|432:280,1,165
384,192,136416,1,0,0:0:0:0:
286,312,136634,1,0,0:0:0:0:
48,152,136851,2,0,P|80:108|192:76,1,165
256,160,137286,1,0,0:0:0:0:
128,320,137503,1,0,0:0:0:0:
36,44,137721,6,0,L|200:68,1,165
256,160,138155,1,0,0:0:0:0:
448,320,138373,1,0,0:0:0:0:
404,96,138590,2,0,P|368:44|324:28,1,110
88,216,139025,2,0,P|124:268|168:284,1,110
391,225,139460,6,0,P|323:161|239:165,1,165
288,256,139895,1,0,0:0:0:0:
320,32,140112,1,0,0:0:0:0:
480,224,140329,1,0,0:0:0:0:
96,64,140547,1,0,0:0:0:0:
96,64,140655,1,0,0:0:0:0:
96,64,140764,1,0,0:0:0:0:
256,192,140982,1,0,0:0:0:0:
44,280,141199,6,0,P|12:196|20:96,1,165
96,64,141634,1,0,0:0:0:0:
352,96,141851,1,0,0:0:0:0:
192,320,142068,1,0,0:0:0:0:
160,32,142286,1,0,0:0:0:0:
384,256,142503,1,0,0:0:0:0:
96,288,142721,1,0,0:0:0:0:
316,92,142938,6,0,P|399:106|498:88,1,165
448,16,143373,1,0,0:0:0:0:
64,128,143590,1,0,0:0:0:0:
416,320,143808,2,0,P|440:248|416:152,1,165
352,128,144242,1,0,0:0:0:0:
64,352,144460,1,0,0:0:0:0:
28,56,144677,6,0,P|108:32|200:56,1,165
224,128,145112,1,0,0:0:0:0:
480,256,145329,1,0,0:0:0:0:
96,192,145547,2,0,P|80:136|84:68,1,110
384,224,145982,2,0,P|400:280|396:348,1,110
128,32,146416,5,0,0:0:0:0:
224,352,146634,1,0,0:0:0:0:
224,352,146742,1,0,0:0:0:0:
224,352,146851,1,0,0:0:0:0:
320,96,147068,1,0,0:0:0:0:
32,256,147286,2,0,P|104:276|152:268,1,110
138,272,147612,1,0,0:0:0:0:
138,272,147721,1,0,0:0:0:0:
384,128,147938,1,0,0:0:0:0:
91,169,148155,6,0,P|102:88|160:32,1,165
256,32,148590,1,0,0:0:0:0:
352,320,148808,1,0,0:0:0:0:
418,187,149025,5,0,0:0:0:0:
364,178,149134,1,0,0:0:0:0:
310,169,149241,1,0,0:0:0:0:
256,160,149351,1,0,0:0:0:0:
102,88,149460,5,0,0:0:0:0:
168,88,149567,1,0,0:0:0:0:
236,88,149676,1,0,0:0:0:0:
304,88,149786,1,0,0:0:0:0:
283,276,149931,6,0,P|219:200|247:72,1,220
388,68,150583,2,0,L|496:120,1,110
120,40,151017,2,0,L|12:92,1,110
352,192,151452,1,0,0:0:0:0:
148,320,151670,6,0,P|64:254|69:149,1,220,0|0,0:0|0:3,0:0:0:0:
288,32,152322,2,0,P|336:48|396:40,1,110
352,312,152757,2,0,P|297:318|251:347,1,110
96,160,153191,1,0,0:0:0:0:
349,38,153409,6,0,L|288:192,1,165
416,128,153844,1,0,0:0:0:0:
192,64,154061,1,0,0:0:0:0:
384,288,154278,1,0,0:0:0:0:
32,160,154496,1,0,0:0:0:0:
256,320,154713,1,0,0:0:0:0:
96,32,154931,1,0,0:0:0:0:
32,248,155148,6,0,P|104:272|192:244,1,165
108,148,155583,1,0,0:0:0:0:
288,352,155800,1,0,0:0:0:0:
352,64,156017,1,0,0:0:0:0:
416,256,156235,1,0,0:0:0:0:
192,64,156452,1,0,0:0:0:0:
128,320,156670,1,0,0:0:0:0:
352,128,156887,6,0,P|412:112|472:20,1,165
352,32,157322,1,0,0:0:0:0:
288,192,157539,1,0,0:0:0:0:
384,352,157757,1,0,0:0:0:0:
96,160,157974,2,0,L|64:32,1,110
32,288,158409,1,0,0:0:0:0:
192,64,158626,6,0,L|372:72,1,165
96,64,159061,1,0,0:0:0:0:
352,192,159278,1,0,0:0:0:0:
96,192,159496,2,0,P|80:244|92:304,1,110
424,252,159931,2,0,P|440:200|428:140,1,110
92,40,160365,6,0,P|64:136|112:252,1,220
372,315,161017,1,0,0:0:0:0:
300,48,161235,1,0,0:0:0:0:
105,244,161452,1,0,0:0:0:0:
440,116,161670,1,0,0:0:0:0:
163,116,161886,1,0,0:0:0:0:
302,355,162104,6,0,P|398:331|414:199,1,220
200,44,162757,2,0,L|56:72,1,110
288,192,163191,1,0,0:0:0:0:
288,192,163300,1,0,0:0:0:0:
288,192,163409,2,0,L|468:228,1,165
96,352,163832,6,0,P|56:264|80:84,1,247.500009441376
316,40,164266,2,0,L|132:64,1,165.000006294251
376,284,164701,2,0,P|416:196|392:16,1,247.500009441376
136,192,165136,2,0,L|320:168,1,165.000006294251
96,312,165571,6,0,P|48:220|48:144,1,165.000006294251
466,160,165897,2,0,P|458:241|416:312,1,165.000006294251
256,64,166223,1,0,0:0:0:0:
256,288,166440,2,0,P|176:312|20:244,1,247.500009441376
336,64,166875,2,0,P|412:52|524:80,1,165.000006294251
64,64,167310,6,0,L|96:228,1,165.000006294251
160,320,167636,2,0,L|192:156,1,165.000006294251
248,24,167962,2,0,L|280:188,1,165.000006294251
344,348,168288,2,0,L|376:184,1,165.000006294251
448,32,168614,1,0,0:0:0:0:
64,224,168832,1,0,0:0:0:0:
448,320,169049,6,0,L|284:288,1,165.000006294251
64,224,169375,2,0,L|228:192,1,165.000006294251
480,160,169701,1,0,0:0:0:0:
432,76,169810,1,0,0:0:0:0:
340,44,169918,2,0,P|256:92|264:236,2,247.500009441376
416,320,170679,1,0,0:0:0:0:
416,320,170788,6,0,P|276:348|184:296,1,247.500009441376
72,68,171223,2,0,L|100:236,1,165.000006294251
356,280,171658,2,0,L|400:20,1,247.500009441376
496,160,172092,2,0,P|408:192|304:160,1,165.000006294251
40,84,172527,6,0,P|128:52|256:128,1,247.500009441376
376,320,172962,2,0,P|444:272|472:192,1,165.000006294251
256,32,173288,1,0,0:0:0:0:
256,32,173397,2,0,L|64:72,1,165.000006294251
94,318,173832,2,0,L|256:352,1,165.000006294251
180,192,174266,6,0,L|8:196,1,165.000006294251
304,104,174592,2,0,L|132:108,1,165.000006294251
396,256,174918,2,0,L|224:260,1,165.000006294251
496,172,175245,2,0,L|324:176,1,165.000006294251
480,64,175571,1,0,0:0:0:0:
448,352,175788,1,0,0:0:0:0:
384,32,176005,5,0,0:0:0:0:
192,256,176223,1,0,0:0:0:0:
192,256,176332,1,0,0:0:0:0:
480,32,176658,1,0,0:0:0:0:
192,256,176875,2,0,P|260:340|204:252,1,330.000012588501
192,256,177745,5,0,0:0:0:0:
96,288,177853,1,0,0:0:0:0:
144,188,177962,5,0,0:0:0:0:
48,220,178070,1,0,0:0:0:0:
132,104,178179,5,0,0:0:0:0:
36,136,178287,1,0,0:0:0:0:
156,24,178397,5,0,0:0:0:0:
60,56,178505,1,0,0:0:0:0:
248,36,178614,5,0,0:0:0:0:
344,68,178722,1,0,0:0:0:0:
272,116,178832,5,0,0:0:0:0:
368,148,178940,1,0,0:0:0:0:
260,200,179047,5,0,0:0:0:0:
356,232,179157,1,0,0:0:0:0:
212,268,179266,5,0,0:0:0:0:
308,300,179374,1,0,0:0:0:0:
136,312,179484,5,0,0:0:0:0:
108,168,179592,1,0,0:0:0:0:
84,248,179701,1,0,0:0:0:0:
56,104,179809,1,0,0:0:0:0:
28,185,179918,5,0,0:0:0:0:
108,168,180026,1,0,0:0:0:0:
168,227,180135,1,0,0:0:0:0:
248,211,180243,1,0,0:0:0:0:
232,79,180353,5,0,0:0:0:0:
152,96,180461,1,0,0:0:0:0:
292,138,180570,1,0,0:0:0:0:
372,122,180678,1,0,0:0:0:0:
116,28,180788,5,0,0:0:0:0:
36,45,180896,1,0,0:0:0:0:
400,192,181005,1,0,0:0:0:0:
480,176,181113,1,0,0:0:0:0:
240,32,181223,5,0,0:0:0:0:
180,96,181332,1,0,0:0:0:0:
104,132,181440,1,0,0:0:0:0:
24,140,181549,1,0,0:0:0:0:
272,352,181658,5,0,0:0:0:0:
332,288,181765,1,0,0:0:0:0:
408,252,181874,1,0,0:0:0:0:
488,244,181984,1,0,0:0:0:0:
148,288,182092,5,0,0:0:0:0:
140,208,182201,1,0,0:0:0:0:
104,132,182309,1,0,0:0:0:0:
40,72,182418,1,0,0:0:0:0:
364,96,182527,5,0,0:0:0:0:
372,176,182636,1,0,0:0:0:0:
408,252,182744,1,0,0:0:0:0:
472,312,182853,1,0,0:0:0:0:
480,160,182962,5,0,0:0:0:0:
320,192,183071,1,0,0:0:0:0:
160,160,183179,1,0,0:0:0:0:
0,224,183288,1,0,0:0:0:0:
224,352,183397,5,0,0:0:0:0:
320,192,183505,1,0,0:0:0:0:
160,160,183614,1,0,0:0:0:0:
256,32,183722,1,0,0:0:0:0:
320,192,183832,5,0,0:0:0:0:
344,224,183940,1,0,0:0:0:0:
368,256,184049,1,0,0:0:0:0:
392,288,184158,1,0,0:0:0:0:
480,192,184266,5,0,0:0:0:0:
484,176,184375,1,0,0:0:0:0:
488,160,184484,1,0,0:0:0:0:
492,144,184592,1,0,0:0:0:0:
320,64,184701,5,0,0:0:0:0:
248,104,184810,1,0,0:0:0:0:
248,24,184918,1,0,0:0:0:0:
320,64,185027,1,0,0:0:0:0:
248,104,185136,5,0,0:0:0:0:
212,196,185245,1,0,0:0:0:0:
236,292,185353,1,0,0:0:0:0:
296,372,185462,1,0,0:0:0:0:
416,288,185571,5,0,0:0:0:0:
420,172,185679,1,0,0:0:0:0:
316,220,185788,1,0,0:0:0:0:
416,288,185897,1,0,0:0:0:0:
420,172,186005,5,0,0:0:0:0:
324,72,186114,1,0,0:0:0:0:
188,48,186223,1,0,0:0:0:0:
56,96,186332,1,0,0:0:0:0:
192,256,186440,5,0,0:0:0:0:
96,320,186549,1,0,0:0:0:0:
32,224,186658,1,0,0:0:0:0:
256,352,186766,1,0,0:0:0:0:
96,224,186875,1,0,0:0:0:0:
160,352,186984,1,0,0:0:0:0:
288,288,187092,1,0,0:0:0:0:
224,160,187201,1,0,0:0:0:0:
192,256,187309,5,0,0:0:0:0:
140,284,187418,1,0,0:0:0:0:
92,312,187527,1,0,0:0:0:0:
44,344,187636,1,0,0:0:0:0:
288,288,187745,5,0,0:0:0:0:
344,304,187852,1,0,0:0:0:0:
398,319,187961,1,0,0:0:0:0:
454,330,188070,1,0,0:0:0:0:
224,352,188179,5,0,0:0:0:0:
160,336,188288,1,0,0:0:0:0:
176,272,188397,1,0,0:0:0:0:
240,288,188505,1,0,0:0:0:0:
320,312,188614,5,0,0:0:0:0:
397,332,188723,1,0,0:0:0:0:
416,255,188832,1,0,0:0:0:0:
339,236,188940,1,0,0:0:0:0:
252,212,189049,5,0,0:0:0:0:
162,189,189158,1,0,0:0:0:0:
184,100,189265,1,0,0:0:0:0:
274,122,189375,1,0,0:0:0:0:
364,148,189484,5,0,0:0:0:0:
453,170,189591,1,0,0:0:0:0:
475,81,189700,1,0,0:0:0:0:
386,58,189810,1,0,0:0:0:0:
289,35,189918,5,0,0:0:0:0:
175,110,190027,1,0,0:0:0:0:
252,225,190136,1,0,0:0:0:0:
364,148,190244,1,0,0:0:0:0:
441,263,190353,5,0,0:0:0:0:
327,338,190462,1,0,0:0:0:0:
252,225,190571,1,0,0:0:0:0:
364,148,190679,1,0,0:0:0:0:
289,35,190788,5,0,0:0:0:0:
175,110,190897,1,0,0:0:0:0:
289,35,191005,5,0,0:0:0:0:
364,148,191114,1,0,0:0:0:0:
289,35,191223,5,0,0:0:0:0:
252,225,191332,1,0,0:0:0:0:
392,384,191440,1,0,0:0:0:0:
429,194,191549,1,0,0:0:0:0:
240,120,191658,5,0,0:0:0:0:
252,225,191766,1,0,0:0:0:0:
156,120,191875,5,0,0:0:0:0:
168,225,191983,1,0,0:0:0:0:
320,104,192092,5,0,0:0:0:0:
332,209,192200,1,0,0:0:0:0:
76,127,192310,5,0,0:0:0:0:
88,232,192418,1,0,0:0:0:0:
400,88,192527,5,0,0:0:0:0:
412,193,192635,1,0,0:0:0:0:
0,136,192745,5,0,0:0:0:0:
12,241,192853,1,0,0:0:0:0:
476,72,192962,5,0,0:0:0:0:
488,177,193070,1,0,0:0:0:0:
0,136,193179,5,0,0:0:0:0:
256,160,193288,1,0,0:0:0:0:
192,64,193397,5,0,0:0:0:0:
108,132,193505,1,0,0:0:0:0:
148,232,193614,1,0,0:0:0:0:
52,280,193723,1,0,0:0:0:0:
200,308,193832,5,0,0:0:0:0:
296,260,193939,1,0,0:0:0:0:
256,160,194048,1,0,0:0:0:0:
340,92,194158,1,0,0:0:0:0:
488,177,194266,5,0,0:0:0:0:
328,177,194375,1,0,0:0:0:0:
168,177,194484,1,0,0:0:0:0:
8,177,194592,1,0,0:0:0:0:
68,76,194701,1,0,0:0:0:0:
88,172,194810,1,0,0:0:0:0:
52,268,194918,1,0,0:0:0:0:
68,76,195027,1,0,0:0:0:0:
140,252,195136,5,0,0:0:0:0:
236,284,195245,1,0,0:0:0:0:
332,272,195353,1,0,0:0:0:0:
416,216,195462,1,0,0:0:0:0:
202,23,195571,5,0,0:0:0:0:
171,114,195678,1,0,0:0:0:0:
183,205,195788,1,0,0:0:0:0:
236,284,195897,1,0,0:0:0:0:
420,82,196005,5,0,0:0:0:0:
333,53,196114,1,0,0:0:0:0:
247,64,196222,1,0,0:0:0:0:
171,114,196331,1,0,0:0:0:0:
364,288,196440,5,0,0:0:0:0:
391,206,196549,1,0,0:0:0:0:
381,124,196657,1,0,0:0:0:0:
333,53,196766,1,0,0:0:0:0:
171,235,196875,5,0,0:0:0:0:
247,260,196984,1,0,0:0:0:0:
324,251,197092,1,0,0:0:0:0:
391,206,197201,1,0,0:0:0:0:
220,53,197310,5,0,0:0:0:0:
196,125,197417,1,0,0:0:0:0:
205,196,197527,1,0,0:0:0:0:
247,260,197636,1,0,0:0:0:0:
389,100,197745,5,0,0:0:0:0:
321,77,197852,1,0,0:0:0:0:
254,86,197962,1,0,0:0:0:0:
196,125,198071,1,0,0:0:0:0:
345,257,198179,5,0,0:0:0:0:
365,194,198288,1,0,0:0:0:0:
357,132,198396,1,0,0:0:0:0:
321,77,198505,1,0,0:0:0:0:
200,216,198614,5,0,0:0:0:0:
448,256,198723,1,0,0:0:0:0:
196,224,198832,5,0,0:0:0:0:
444,264,198939,1,0,0:0:0:0:
192,232,199049,5,0,0:0:0:0:
440,272,199158,1,0,0:0:0:0:
188,240,199265,5,0,0:0:0:0:
436,280,199374,1,0,0:0:0:0:
184,252,199484,5,0,0:0:0:0:
432,292,199591,1,0,0:0:0:0:
180,260,199700,5,0,0:0:0:0:
428,300,199809,1,0,0:0:0:0:
172,272,199918,5,0,0:0:0:0:
420,312,200027,1,0,0:0:0:0:
168,260,200136,5,0,0:0:0:0:
416,300,200245,1,0,0:0:0:0:
164,248,200353,5,0,0:0:0:0:
412,288,200462,1,0,0:0:0:0:
160,232,200571,5,0,0:0:0:0:
408,272,200678,1,0,0:0:0:0:
168,220,200788,5,0,0:0:0:0:
416,260,200897,1,0,0:0:0:0:
180,216,201005,5,0,0:0:0:0:
428,256,201114,1,0,0:0:0:0:
196,220,201223,5,0,0:0:0:0:
444,260,201332,1,0,0:0:0:0:
208,228,201440,5,0,0:0:0:0:
456,268,201549,1,0,0:0:0:0:
208,240,201658,5,0,0:0:0:0:
456,280,201765,1,0,0:0:0:0:
200,248,201875,5,0,0:0:0:0:
448,288,201984,1,0,0:0:0:0:
188,252,202092,5,0,0:0:0:0:
436,292,202201,1,0,0:0:0:0:
176,256,202310,5,0,0:0:0:0:
424,296,202417,1,0,0:0:0:0:
184,264,202527,5,0,0:0:0:0:
432,304,202636,1,0,0:0:0:0:
192,272,202745,5,0,0:0:0:0:
440,312,202852,1,0,0:0:0:0:
200,280,202962,5,0,0:0:0:0:
448,320,203071,1,0,0:0:0:0:
192,288,203179,5,0,0:0:0:0:
440,328,203288,1,0,0:0:0:0:
184,296,203397,5,0,0:0:0:0:
432,336,203504,1,0,0:0:0:0:
192,308,203614,5,0,0:0:0:0:
440,348,203723,1,0,0:0:0:0:
200,320,203832,5,0,0:0:0:0:
448,360,203939,1,0,0:0:0:0:
208,312,204049,5,0,0:0:0:0:
456,352,204158,1,0,0:0:0:0:
216,300,204266,5,0,0:0:0:0:
464,340,204375,1,0,0:0:0:0:
224,288,204484,5,0,0:0:0:0:
472,328,204591,1,0,0:0:0:0:
232,272,204701,5,0,0:0:0:0:
480,312,204810,1,0,0:0:0:0:
228,256,204918,5,0,0:0:0:0:
476,296,205027,1,0,0:0:0:0:
216,244,205136,6,0,P|188:168|296:152,1,165.000006294251
320,160,205462,1,0,0:0:0:0:
384,96,205571,5,0,0:0:0:0:
288,64,205679,1,0,0:0:0:0:
405,196,205788,5,0,0:0:0:0:
384,96,205896,1,0,0:0:0:0:
373,292,206005,5,0,0:0:0:0:
405,196,206113,1,0,0:0:0:0:
283,338,206223,5,0,0:0:0:0:
373,292,206331,1,0,0:0:0:0:
187,306,206440,5,0,0:0:0:0:
283,338,206548,1,0,0:0:0:0:
142,216,206658,5,0,0:0:0:0:
187,306,206766,1,0,0:0:0:0:
174,120,206875,5,0,0:3:0:0:
142,216,206983,1,0,0:3:0:0:
265,75,207092,5,0,0:0:0:0:
174,120,207200,1,0,0:0:0:0:
361,107,207310,5,0,0:0:0:0:
384,248,207418,1,0,0:0:0:0:
448,128,207527,1,0,0:0:0:0:
324,184,207636,1,0,0:0:0:0:
464,212,207745,1,0,0:0:0:0:
361,107,207853,1,0,0:0:0:0:
264,84,207962,1,0,0:0:0:0:
164,92,208071,1,0,0:0:0:0:
76,132,208179,5,0,0:0:0:0:
60,212,208288,1,0,0:0:0:0:
44,292,208397,1,0,0:0:0:0:
24,372,208505,1,0,0:0:0:0:
212,324,208614,5,0,0:0:0:0:
228,244,208723,1,0,0:0:0:0:
244,164,208832,1,0,0:0:0:0:
264,84,208940,1,0,0:0:0:0:
448,32,209049,5,0,0:0:0:0:
384,120,209158,1,0,0:0:0:0:
412,224,209266,1,0,0:0:0:0:
352,312,209375,1,0,0:0:0:0:
276,236,209484,1,0,0:0:0:0:
180,192,209592,1,0,0:0:0:0:
76,216,209701,1,0,0:0:0:0:
20,308,209810,1,0,0:0:0:0:
180,192,209918,5,0,0:0:0:0:
268,128,210027,1,0,0:0:0:0:
276,236,210136,1,0,0:0:0:0:
180,192,210245,1,0,0:0:0:0:
76,216,210353,1,0,0:0:0:0:
20,308,210462,1,0,0:0:0:0:
128,300,210571,1,0,0:0:0:0:
224,348,210679,1,0,0:0:0:0:
276,236,210788,5,0,0:0:0:0:
224,348,210897,1,0,0:0:0:0:
180,192,211005,1,0,0:0:0:0:
128,300,211114,1,0,0:0:0:0:
76,216,211223,1,0,0:0:0:0:
20,308,211332,1,0,0:0:0:0:
32,128,211440,1,0,0:0:0:0:
96,32,211549,1,0,0:0:0:0:
200,64,211658,5,0,0:0:0:0:
296,108,211766,1,0,0:0:0:0:
404,104,211875,1,0,0:0:0:0:
496,48,211984,1,0,0:0:0:0:
200,64,212092,5,0,0:0:0:0:
156,160,212200,1,0,0:0:0:0:
160,268,212309,1,0,0:0:0:0:
216,360,212418,1,0,0:0:0:0:
360,88,212527,5,0,0:0:0:0:
284,56,212636,1,0,0:0:0:0:
132,20,212745,5,0,0:0:0:0:
200,64,212853,1,0,0:0:0:0:
252,136,212962,5,0,0:0:0:0:
328,168,213071,1,0,0:0:0:0:
168,144,213178,5,0,0:0:0:0:
100,100,213288,1,0,0:0:0:0:
292,248,213397,5,0,0:0:0:0:
216,216,213504,1,0,0:0:0:0:
64,180,213613,5,0,0:0:0:0:
132,224,213723,1,0,0:0:0:0:
184,300,213832,5,0,0:0:0:0:
260,332,213939,1,0,0:0:0:0:
100,308,214048,5,0,0:0:0:0:
32,264,214158,1,0,0:0:0:0:
168,144,214266,5,0,0:0:0:0:
80,124,214375,1,0,0:0:0:0:
168,144,214484,1,0,0:0:0:0:
140,60,214592,1,0,0:0:0:0:
164,144,214701,1,0,0:0:0:0:
228,76,214810,1,0,0:0:0:0:
168,144,214918,1,0,0:0:0:0:
256,160,215027,1,0,0:0:0:0:
168,144,215136,5,0,0:0:0:0:
152,232,215245,1,0,0:0:0:0:
240,248,215353,1,0,0:0:0:0:
256,160,215462,1,0,0:0:0:0:
332,112,215571,1,0,0:0:0:0:
256,160,215679,1,0,0:0:0:0:
336,204,215788,1,0,0:0:0:0:
256,160,215897,1,0,0:0:0:0:
216,80,216005,5,0,0:0:0:0:
180,60,216114,1,0,0:0:0:0:
140,64,216223,1,0,0:0:0:0:
108,88,216331,1,0,0:0:0:0:
291,112,216440,5,0,0:0:0:0:
330,90,216549,1,0,0:0:0:0:
374,95,216658,1,0,0:0:0:0:
409,121,216766,1,0,0:0:0:0:
212,152,216875,5,0,0:0:0:0:
162,144,216984,1,0,0:0:0:0:
118,164,217091,1,0,0:0:0:0:
92,204,217201,1,0,0:0:0:0:
284,192,217310,5,0,0:0:0:0:
336,183,217417,1,0,0:0:0:0:
383,205,217526,1,0,0:0:0:0:
412,249,217636,1,0,0:0:0:0:
204,244,217745,5,0,0:0:0:0:
147,254,217852,1,0,0:0:0:0:
108,295,217961,1,0,0:0:0:0:
95,349,218071,1,0,0:0:0:0:
288,272,218179,5,0,0:0:0:0:
346,283,218288,1,0,0:0:0:0:
387,325,218397,1,0,0:0:0:0:
400,381,218505,1,0,0:0:0:0:
147,254,218614,5,0,0:0:0:0:
108,202,218722,1,0,0:0:0:0:
102,138,218831,1,0,0:0:0:0:
134,81,218940,1,0,0:0:0:0:
328,32,219049,5,0,0:0:0:0:
392,120,219157,1,0,0:0:0:0:
403,229,219266,1,0,0:0:0:0:
348,327,219375,1,0,0:0:0:0:
64,352,219484,5,0,0:0:0:0:
36,260,219592,1,0,0:0:0:0:
52,168,219701,1,0,0:0:0:0:
120,100,219810,1,0,0:0:0:0:
212,76,219918,1,0,0:0:0:0:
300,116,220027,1,0,0:0:0:0:
348,196,220136,1,0,0:0:0:0:
336,292,220245,1,0,0:0:0:0:
260,344,220353,1,0,0:0:0:0:
164,332,220462,1,0,0:0:0:0:
120,252,220571,1,0,0:0:0:0:
164,180,220679,1,0,0:0:0:0:
176,84,220788,1,0,0:0:0:0:
104,24,220897,1,0,0:0:0:0:
20,68,221005,1,0,0:0:0:0:
88,132,221114,1,0,0:0:0:0:
176,84,221223,5,0,0:0:0:0:
264,52,221331,1,0,0:0:0:0:
356,72,221440,1,0,0:0:0:0:
420,140,221549,1,0,0:0:0:0:
444,232,221658,1,0,0:0:0:0:
412,320,221766,1,0,0:0:0:0:
324,356,221875,1,0,0:0:0:0:
228,348,221984,1,0,0:0:0:0:
156,288,222092,5,0,0:0:0:0:
172,196,222201,1,0,0:0:0:0:
184,100,222310,1,0,0:0:0:0:
196,8,222418,1,0,0:0:0:0:
372,124,222527,5,0,0:0:0:0:
280,112,222635,1,0,0:0:0:0:
184,100,222744,1,0,0:0:0:0:
92,84,222853,1,0,0:0:0:0:
172,196,222962,5,0,0:0:0:0:
280,112,223071,1,0,0:0:0:0:
180,248,223179,5,0,0:0:0:0:
296,168,223288,1,0,0:0:0:0:
212,292,223397,5,0,0:0:0:0:
320,216,223504,1,0,0:0:0:0:
260,328,223614,5,0,0:0:0:0:
360,248,223723,1,0,0:0:0:0:
310,322,223831,5,0,0:0:0:0:
293,324,223940,1,0,0:0:0:0:
277,326,224049,1,0,0:0:0:0:
260,328,224158,1,0,0:0:0:0:
384,172,224266,5,0,0:0:0:0:
400,170,224375,1,0,0:0:0:0:
417,168,224484,1,0,0:0:0:0:
433,166,224592,1,0,0:0:0:0:
152,232,224701,5,0,0:0:0:0:
135,234,224810,1,0,0:0:0:0:
119,236,224917,1,0,0:0:0:0:
102,238,225026,1,0,0:0:0:0:
188,80,225136,5,0,0:0:0:0:
204,78,225245,1,0,0:0:0:0:
221,76,225352,1,0,0:0:0:0:
237,74,225462,1,0,0:0:0:0:
56,40,225570,5,0,0:0:0:0:
39,42,225678,1,0,0:0:0:0:
168,152,225787,5,0,0:0:0:0:
184,150,225896,1,0,0:0:0:0:
256,32,226004,5,0,0:0:0:0:
239,34,226114,1,0,0:0:0:0:
368,144,226222,5,0,0:0:0:0:
384,142,226330,1,0,0:0:0:0:
480,32,226440,5,0,0:0:0:0:
472,116,226548,1,0,0:0:0:0:
468,32,226657,5,0,0:0:0:0:
460,120,226765,1,0,0:0:0:0:
456,32,226874,5,0,0:0:0:0:
448,124,226983,1,0,0:0:0:0:
444,32,227091,5,0,0:0:0:0:
436,128,227200,1,0,0:0:0:0:
432,32,227309,5,0,0:0:0:0:
424,132,227417,1,0,0:0:0:0:
420,32,227526,5,0,0:0:0:0:
412,136,227635,1,0,0:0:0:0:
408,32,227743,5,0,0:0:0:0:
400,140,227852,1,0,0:0:0:0:
396,32,227961,5,0,0:0:0:0:
388,144,228070,1,0,0:0:0:0:
384,32,228177,5,0,0:0:0:0:
376,148,228286,1,0,0:0:0:0:
372,32,228395,5,0,0:0:0:0:
364,152,228504,1,0,0:0:0:0:
360,32,228612,5,0,0:0:0:0:
352,156,228721,1,0,0:0:0:0:
348,32,228830,5,0,0:0:0:0:
340,160,228939,1,0,0:0:0:0:
336,32,229047,5,0,0:0:0:0:
328,164,229156,1,0,0:0:0:0:
324,32,229265,5,0,0:0:0:0:
316,168,229374,1,0,0:0:0:0:
312,32,229482,5,0,0:0:0:0:
304,172,229591,1,0,0:0:0:0:
300,32,229699,5,0,0:0:0:0:
292,174,229809,1,0,0:0:0:0:
288,32,229916,5,0,0:0:0:0:
280,178,230025,1,0,0:0:0:0:
276,32,230134,5,0,0:0:0:0:
268,182,230243,1,0,0:0:0:0:
264,32,230351,5,0,0:0:0:0:
256,186,230460,1,0,0:0:0:0:
252,32,230569,5,0,0:0:0:0:
244,190,230678,1,0,0:0:0:0:
240,32,230786,5,0,0:0:0:0:
232,192,230895,1,0,0:0:0:0:
228,32,231004,5,0,0:0:0:0:
220,196,231113,1,0,0:0:0:0:
216,32,231221,5,0,0:0:0:0:
208,200,231330,1,0,0:0:0:0:
204,32,231439,5,0,0:0:0:0:
196,204,231548,1,0,0:0:0:0:
192,32,231657,5,0,0:0:0:0:
184,208,231764,1,0,0:0:0:0:
180,32,231873,5,0,0:0:0:0:
172,212,231982,1,0,0:0:0:0:
168,32,232090,5,0,0:0:0:0:
160,216,232199,1,0,0:0:0:0:
156,32,232308,5,0,0:0:0:0:
148,220,232417,1,0,0:0:0:0:
144,32,232525,5,0,0:0:0:0:
136,224,232634,1,0,0:0:0:0:
132,32,232743,5,0,0:0:0:0:
124,228,232852,1,0,0:0:0:0:
120,32,232961,5,0,0:0:0:0:
112,232,233070,1,0,0:0:0:0:
108,32,233178,5,0,0:0:0:0:
100,236,233287,1,0,0:0:0:0:
96,32,233358,5,0,0:0:0:0:
256,192,233575,1,0,0:0:0:0:
256,192,233684,1,0,0:0:0:0:
96,32,234010,1,0,0:0:0:0:
320,260,234227,2,0,B|260:284|200:264|200:264|148:248|84:280,1,220
