osu file format v14

[General]
AudioFilename: audio.mp3
AudioLeadIn: 0
PreviewTime: 70206
Countdown: 0
SampleSet: Soft
StackLeniency: 0.7
Mode: 0
LetterboxInBreaks: 0
WidescreenStoryboard: 1

[Editor]
Bookmarks: 98141,135097,139880,167706,195532,221619,222271,222489,237271,251184,265097
DistanceSpacing: 1
BeatDivisor: 4
GridSize: 8
TimelineZoom: 1.099999

[Metadata]
Title:A Fool Moon Night
TitleUnicode:A Fool Moon Night
Artist:The Koxx
ArtistUnicode:칵스
Creator:Le Mirai
Version:hakashii's Normal
Source:
Tags:SirMirai Mirai Cacturne Shaun Kim Yun Ho 숀 / 김윤호 Dropshow Yoon paradogi Daycore rock english ENTER hakashii Kujinn Reform Hazu-
BeatmapID:3173504
BeatmapSetID:1465787

[Difficulty]
HPDrainRate:3.5
CircleSize:3
OverallDifficulty:4
ApproachRate:6
SliderMultiplier:1.1
SliderTickRate:1

[Events]
//Background and Video events
0,0,"I have to go somewhere.jpg",0,0
//Break Periods
2,195732,208275
//Storyboard Layer 0 (Background)
//Storyboard Layer 1 (Fail)
//Storyboard Layer 2 (Pass)
//Storyboard Layer 3 (Foreground)
//Storyboard Layer 4 (Overlay)
//Storyboard Sound Samples

[TimingPoints]
750,434.782608695652,4,2,1,60,1,0
16728,-100,4,2,1,70,0,0
41619,-100,4,2,1,60,0,0
42489,-100,4,2,1,75,0,0
98141,-111.111111111111,4,2,1,50,0,0
101619,-100,4,2,1,50,0,0
105097,-100,4,2,1,65,0,0
112923,-100,4,2,1,75,0,0
139880,-100,4,2,1,85,0,0
167706,-100,4,2,1,95,0,0
195532,-100,4,2,1,35,0,0
207706,-100,4,2,1,55,0,0
207815,-100,4,2,1,35,0,0
208576,-100,4,2,1,45,0,0
209445,-100,4,2,1,60,0,0
221619,-100,4,2,1,45,0,0
223358,-100,4,2,1,75,0,0
237271,-100,4,2,1,90,0,0
265097,-100,4,2,1,70,0,0
265749,-100,4,2,1,5,0,0

[Colours]
Combo1 : 153,102,103
Combo2 : 26,179,179
Combo3 : 94,66,38
Combo4 : 100,160,166

[HitObjects]
172,108,750,5,6,3:2:0:0:
256,192,967,12,0,3358,0:0:0:0:
256,72,4228,5,6,3:2:0:0:
336,112,7706,5,2,3:2:0:0:
256,192,7923,12,0,10315,0:0:0:0:
368,192,11184,5,2,3:2:0:0:
336,272,14663,5,6,3:2:0:0:
136,192,15532,1,6,3:2:0:0:
256,304,16402,5,6,3:2:0:0:
172,108,17271,1,6,3:2:0:0:
176,272,18141,5,6,3:2:0:0:
256,72,19010,1,6,3:2:0:0:
136,192,19880,5,6,3:2:0:0:
336,112,20749,1,6,3:2:0:0:
336,272,21619,5,6,3:2:0:0:
256,304,22054,1,6,3:2:0:0:
176,272,22489,1,6,3:2:0:0:
256,72,23358,5,6,3:2:0:0:
136,192,24228,2,0,P|91:202|48:192,2,82.5,6|2|2,3:2|0:0|0:0,0:0:0:0:
167,146,25097,6,0,P|146:82|154:31,2,110,6|6|6,3:2|3:2|3:2,0:0:0:0:
285,303,26836,1,6,3:2:0:0:
348,116,27706,1,6,3:2:0:0:
435,141,28141,2,0,L|498:121,1,55,0|2,0:0|0:0,0:0:0:0:
498,70,28576,6,0,P|465:17|414:7,1,110,6|6,3:2|3:2,0:0:0:0:
371,29,29228,1,2,0:0:0:0:
316,20,29445,2,0,B|236:27|288:56|212:65,1,110,6|6,3:2|3:2,0:0:0:0:
109,56,30315,6,0,B|93:71|75:85|75:85|89:110|103:151,1,110,6|6,3:2|3:2,0:0:0:0:
130,191,30967,1,2,0:0:0:0:
92,230,31184,2,0,P|45:267|71:319,1,110,6|6,3:2|3:2,0:0:0:0:
158,352,32054,6,0,P|179:320|251:325,1,110,6|6,3:2|3:2,0:0:0:0:
288,354,32706,1,2,0:0:0:0:
333,323,32923,2,0,B|408:332|357:365|449:375,1,110,6|6,3:2|3:2,0:0:0:0:
504,292,33793,6,0,P|483:231|465:167,1,110,6|6,3:2|3:2,0:0:0:0:
470,132,34445,1,2,0:0:0:0:
422,104,34663,2,0,P|429:42|433:16,2,82.5,6|2|2,3:2|0:0|0:0,0:0:0:0:
369,119,35532,6,0,P|361:185|354:240,1,110,6|6,3:2|3:2,0:0:0:0:
335,279,36184,1,2,0:0:0:0:
354,330,36402,2,0,P|294:368|260:356,1,110,6|6,3:2|3:2,0:0:0:0:
156,324,37271,6,0,B|90:332|132:355|41:366,1,110,6|6,3:2|3:2,0:0:0:0:
9,334,37923,1,2,0:0:0:0:
22,280,38141,2,0,P|15:220|10:176,2,82.5,6|2|2,3:2|0:0|0:0,0:0:0:0:
256,192,39010,12,6,40749,3:2:0:0:
23,56,41619,6,0,P|54:91|122:70,1,110,4|0,0:3|3:0,0:0:0:0:
206,24,42489,2,0,P|268:37|325:49,1,110,4|10,3:2|0:0,0:0:0:0:
344,92,43141,1,2,0:0:0:0:
326,143,43358,1,2,3:2:0:0:
219,117,43793,2,0,L|152:136,1,55,10|2,0:0|0:0,0:0:0:0:
122,165,44228,6,0,P|140:219|155:283,1,110,0|8,3:0|0:0,0:0:0:0:
175,320,44880,1,2,0:0:0:0:
135,357,45097,1,2,3:2:0:0:
26,341,45532,2,0,L|33:285,1,55,10|0,0:0|0:0,0:0:0:0:
43,232,45967,6,0,P|37:178|29:113,1,110,0|10,3:2|0:0,0:0:0:0:
7,72,46619,1,2,0:0:0:0:
50,38,46836,2,0,B|128:43|77:81|166:85,1,110,2|10,3:2|0:0,0:0:0:0:
237,22,47706,6,0,P|298:26|310:83,1,110,0|8,3:0|0:0,0:0:0:0:
306,120,48358,1,2,0:0:0:0:
350,153,48576,2,0,L|414:137,1,55,2|2,3:2|0:0,0:0:0:0:
448,108,49010,1,10,0:0:0:0:
500,204,49445,6,0,P|489:241|482:326,1,110,0|10,3:2|0:0,0:0:0:0:
455,360,50097,1,2,0:0:0:0:
401,347,50315,1,2,3:2:0:0:
389,237,50749,2,0,P|397:185|401:158,1,55,10|2,0:0|0:0,0:0:0:0:
424,134,51184,6,0,P|408:91|342:61,1,110,0|8,3:0|0:0,0:0:0:0:
308,29,51836,1,2,0:0:0:0:
256,48,52054,2,0,B|184:50|228:73|142:78,1,110,2|10,3:2|0:0,0:0:0:0:
46,47,52923,6,0,B|19:79|16:80|14:82|15:82|15:82|30:109|48:147,1,110,0|10,3:2|0:0,0:0:0:0:
74,184,53576,1,2,0:0:0:0:
53,234,53793,1,2,3:2:0:0:
97,334,54228,2,0,L|162:326,1,55,10|2,0:0|0:0,0:0:0:0:
200,301,54663,6,0,B|237:310|237:310|244:318|244:318|303:328,2,82.5,0|2|2,3:0|0:0|0:0,0:0:0:0:
176,251,55532,2,0,L|166:191,1,55,2|2,3:2|0:0,0:0:0:0:
189,146,55967,1,2,3:2:0:0:
157,40,56402,2,0,B|275:14|209:91|325:62,1,165,4|2,3:2|0:0,0:0:0:0:
352,29,57271,2,0,P|406:20|440:79,1,110,2|10,3:2|0:0,0:0:0:0:
442,168,58141,6,0,B|402:177|400:218|400:218|434:307,1,165,0|2,3:0|0:0,0:0:0:0:
474,341,59010,1,2,3:2:0:0:
370,379,59445,1,10,0:0:0:0:
281,313,59880,6,0,B|158:300|242:360|105:337,1,165,0|2,3:2|0:0,0:0:0:0:
76,312,60749,1,2,3:2:0:0:
132,217,61184,2,0,L|151:156,1,55,10|2,0:0|0:0,0:0:0:0:
166,112,61619,6,0,P|144:62|76:48,1,110,0|8,3:0|0:0,0:0:0:0:
39,44,62271,1,2,0:0:0:0:
5,87,62489,1,2,3:2:0:0:
28,194,62923,1,10,0:0:0:0:
11,302,63358,6,0,B|124:282|54:351|167:328,1,165,0|2,3:2|0:0,0:0:0:0:
207,294,64228,2,0,P|257:306|318:322,1,110,2|10,3:2|0:0,0:0:0:0:
416,359,65097,6,0,B|476:343|491:293|491:293|471:263|463:236,1,165,0|2,3:0|0:0,0:0:0:0:
479,186,65967,2,0,P|473:130|472:120,1,55,2|0,3:2|0:0,0:0:0:0:
440,86,66402,1,10,0:0:0:0:
335,118,66836,6,0,P|280:62|233:53,1,110,0|10,3:2|0:0,0:0:0:0:
205,23,67489,1,2,0:0:0:0:
151,37,67706,2,0,P|95:47|60:87,1,110,2|10,3:2|0:0,0:0:0:0:
102,187,68576,6,0,P|70:226|66:303,1,110,0|8,3:0|0:0,0:0:0:0:
43,335,69228,1,2,0:0:0:0:
79,375,69445,2,0,L|146:360,1,55,2|2,3:2|0:0,0:0:0:0:
178,331,69880,2,0,L|239:360,1,55,2|2,3:2|0:0,0:0:0:0:
274,383,70315,5,2,0:2:0:0:
473,289,71184,2,0,B|370:257|475:227|347:178,1,165,6|2,3:2|0:0,0:0:0:0:
317,147,72054,2,0,P|336:101|361:27,1,110,0|8,3:0|0:0,0:0:0:0:
252,6,72923,1,2,3:2:0:0:
153,55,73358,1,10,0:0:0:0:
47,23,73793,6,0,P|12:67|26:129,1,110,2|10,3:2|0:0,0:0:0:0:
44,165,74445,1,2,0:0:0:0:
99,168,74663,2,0,P|122:221|111:283,1,110,2|10,3:2|0:0,0:0:0:0:
156,373,75532,6,0,B|242:363|176:330|270:323,1,110,2|8,3:2|0:0,0:0:0:0:
293,292,76184,1,2,0:0:0:0:
347,301,76402,1,2,3:2:0:0:
433,368,76836,2,0,P|463:356|475:330,1,55,10|2,0:0|0:0,0:0:0:0:
508,294,77271,6,0,P|488:230|472:169,1,110,0|10,3:2|0:0,0:0:0:0:
451,139,77923,1,2,0:0:0:0:
397,153,78141,2,0,P|357:109|364:50,1,110,2|10,3:2|0:0,0:0:0:0:
257,18,79010,2,0,B|177:33|233:55|151:69,1,110,0|8,3:0|0:0,0:0:0:0:
129,111,79663,1,2,0:0:0:0:
159,156,79880,1,2,3:2:0:0:
262,119,80315,2,0,L|334:138,1,55,10|0,0:0|0:0,0:0:0:0:
362,161,80749,6,0,P|423:149|478:140,1,110,0|10,3:2|0:0,0:0:0:0:
509,180,81402,1,2,0:0:0:0:
491,231,81619,1,2,3:2:0:0:
497,340,82054,2,0,P|470:354|444:354,1,55,10|2,0:0|0:0,0:0:0:0:
397,328,82489,2,0,B|325:312|367:360|278:342,1,110,0|8,3:0|0:0,0:0:0:0:
244,317,83141,1,2,0:0:0:0:
197,346,83358,1,2,3:2:0:0:
102,289,83793,1,2,3:2:0:0:
145,188,84228,5,2,0:2:0:0:
145,188,85097,2,0,B|261:222|164:245|282:283,1,165,6|2,3:2|0:0,0:0:0:0:
310,320,85967,2,0,P|371:295|423:287,1,110,0|8,3:0|0:0,0:0:0:0:
459,256,86619,1,2,0:0:0:0:
450,201,86836,1,2,3:2:0:0:
492,99,87271,1,10,0:0:0:0:
407,28,87706,6,0,P|324:43|317:67,1,110,2|10,3:2|0:2,0:0:0:0:
320,110,88358,1,2,0:0:0:0:
275,142,88576,1,2,3:2:0:0:
179,87,89010,2,0,P|127:78|106:78,1,55,10|2,0:0|0:0,0:0:0:0:
71,62,89445,2,0,P|63:122|51:189,1,110,0|8,3:0|0:0,0:0:0:0:
35,279,90315,2,0,P|80:278|98:336,1,110,2|10,3:2|0:0,0:0:0:0:
135,373,90967,1,2,0:0:0:0:
189,368,91184,6,0,B|264:355|215:333|309:325,1,110,0|10,3:2|0:0,0:0:0:0:
373,256,92054,1,2,3:2:0:0:
476,292,92489,2,0,P|504:248|507:230,1,55,10|2,0:0|0:0,0:0:0:0:
486,193,92923,2,0,P|475:128|464:70,1,110,0|8,3:0|0:0,0:0:0:0:
437,38,93576,1,2,0:0:0:0:
382,47,93793,1,2,3:2:0:0:
276,14,94228,1,10,0:0:0:0:
200,93,94663,6,0,P|242:141|294:126,1,110,0|10,3:2|0:0,0:0:0:0:
332,110,95315,1,2,0:0:0:0:
382,132,95532,1,2,3:2:0:0:
469,199,95967,2,0,P|455:247|445:268,1,55,10|2,0:0|0:0,0:0:0:0:
454,306,96402,2,0,B|379:307|426:345|333:349,1,110,0|8,3:0|0:0,0:0:0:0:
250,315,97271,2,0,L|182:309,1,55,10|10,3:2|0:0,0:0:0:0:
148,338,97706,2,0,L|86:348,1,55,10|8,3:2|0:0,0:0:0:0:
43,323,98141,6,0,P|24:259|195:237,1,296.99999093628,4|2,3:2|0:0,0:0:0:0:
242,313,99880,1,0,0:0:0:0:
499,91,101619,6,0,P|432:11|276:130,1,330,2|2,0:0|0:0,0:0:0:0:
349,195,103358,1,2,0:0:0:0:
76,348,105097,6,0,L|87:215,1,110,4|0,3:2|3:2,0:0:0:0:
18,150,105967,1,2,3:2:0:0:
78,58,106402,1,2,3:2:0:0:
181,94,106836,2,0,B|219:84|219:84|238:56|238:56|284:46,1,110,2|0,3:2|3:2,0:0:0:0:
383,30,107706,1,2,3:2:0:0:
462,106,108141,1,2,3:2:0:0:
396,194,108576,6,0,P|329:175|328:136,1,110,2|0,3:2|3:2,0:0:0:0:
254,59,109445,2,0,P|204:75|139:95,1,110,2|2,3:2|3:2,0:0:0:0:
93,90,110097,1,2,0:2:0:0:
61,135,110315,1,4,3:2:0:0:
128,344,111184,2,0,P|180:310|238:328,1,110,8|4,0:3|0:3,0:0:0:0:
321,369,112054,1,2,0:2:0:0:
507,251,112923,6,0,P|491:175|483:141,1,110,6|10,3:2|0:0,0:0:0:0:
494,89,113576,1,2,0:0:0:0:
453,51,113793,1,0,3:0:0:0:
356,103,114228,1,8,0:0:0:0:
395,205,114663,2,0,P|383:250|367:337,1,110,2|10,3:2|0:0,0:0:0:0:
278,373,115532,6,0,B|161:360|260:306|119:298,1,165,2|2,3:2|0:0,0:0:0:0:
93,328,116402,1,2,3:2:0:0:
22,244,116836,2,0,P|39:187|40:180,1,55,10|2,0:0|0:0,0:0:0:0:
57,139,117271,2,0,B|103:155|103:155|112:170|112:170|166:190,1,110,2|8,3:2|0:0,0:0:0:0:
204,282,118141,1,2,3:2:0:0:
312,299,118576,1,10,0:0:0:0:
400,234,119010,6,0,P|412:181|429:107,1,110,0|10,3:2|0:0,0:0:0:0:
401,76,119663,1,2,0:0:0:0:
346,84,119880,1,2,3:2:0:0:
265,9,120315,1,10,0:0:0:0:
156,27,120749,2,0,B|109:56|154:66|83:109,1,110,0|8,3:0|0:0,0:0:0:0:
39,138,121402,1,2,0:0:0:0:
57,189,121619,1,2,3:2:0:0:
22,293,122054,1,10,0:0:0:0:
110,358,122489,6,0,P|142:313|214:315,1,110,0|10,3:2|0:0,0:0:0:0:
246,290,123141,1,2,0:0:0:0:
294,316,123358,1,2,3:2:0:0:
387,373,123793,2,0,P|446:350|448:349,1,55,10|2,0:0|0:0,0:0:0:0:
487,328,124228,2,0,P|478:265|463:202,1,110,0|8,3:0|0:0,0:0:0:0:
473,109,125097,2,0,P|440:115|409:122,1,55,2|2,3:2|0:0,0:0:0:0:
376,154,125532,2,0,P|336:133|317:126,1,55,2|2,3:2|0:0,0:0:0:0:
289,88,125967,6,0,B|186:87|266:161|130:146,1,165,2|2,0:2|0:0,0:0:0:0:
104,112,126836,1,2,3:2:0:0:
26,190,127271,2,0,P|45:222|56:243,1,55,10|2,0:0|0:0,0:0:0:0:
104,257,127706,2,0,P|74:315|74:361,1,110,0|8,3:0|0:0,0:0:0:0:
182,377,128576,1,2,3:2:0:0:
283,335,129010,1,10,0:0:0:0:
388,365,129445,6,0,P|444:355|466:305,1,110,2|10,3:2|0:2,0:0:0:0:
489,260,130097,1,2,0:0:0:0:
455,216,130315,1,2,3:2:0:0:
353,257,130749,2,0,P|315:263|291:266,1,55,10|2,0:0|0:0,0:0:0:0:
252,294,131184,2,0,P|175:285|123:277,1,110,0|8,3:0|0:0,0:0:0:0:
88,290,131836,1,2,0:0:0:0:
45,254,132054,1,2,3:2:0:0:
71,147,132489,1,10,0:0:0:0:
17,51,132923,6,0,P|72:17|128:32,1,110,0|10,3:2|0:0,0:0:0:0:
169,17,133576,1,2,0:0:0:0:
204,58,133793,1,2,3:2:0:0:
304,103,134228,2,0,L|364:84,1,55,10|2,0:0|0:0,0:0:0:0:
394,46,134663,2,0,P|451:52|479:102,1,110,0|8,3:0|0:0,0:0:0:0:
507,139,135315,1,2,0:0:0:0:
483,188,135532,1,2,3:2:0:0:
383,140,135967,1,10,0:0:0:0:
340,241,136402,6,0,P|378:284|392:340,1,110,0|10,3:2|0:0,0:0:0:0:
356,376,137054,1,2,0:0:0:0:
301,367,137271,1,2,3:2:0:0:
191,378,137706,2,0,P|150:367|134:361,1,55,10|2,0:0|0:0,0:0:0:0:
84,351,138141,2,0,P|95:289|107:229,1,110,0|8,3:0|0:0,0:0:0:0:
213,233,139010,2,0,P|267:251|278:255,1,55,10|10,3:2|0:0,0:0:0:0:
311,279,139445,2,0,P|349:268|377:265,1,55,10|8,3:2|0:0,0:0:0:0:
417,252,139880,6,0,P|435:197|448:132,1,110,4|8,3:2|0:0,0:0:0:0:
402,44,140749,1,2,0:0:0:0:
297,77,141184,2,0,P|248:63|228:57,1,55,8|2,0:0|0:0,0:0:0:0:
195,35,141619,2,0,B|129:48|176:75|93:93,1,110,2|8,3:2|0:0,0:0:0:0:
56,118,142271,1,2,3:2:0:0:
80,167,142489,1,2,0:0:0:0:
35,267,142923,1,10,0:0:0:0:
96,358,143358,6,0,P|140:330|213:343,1,110,2|0,3:2|0:0,0:0:0:0:
250,323,144010,1,2,3:2:0:0:
301,342,144228,1,2,0:0:0:0:
408,320,144663,1,8,0:0:0:0:
471,230,145097,2,0,P|464:181|451:113,1,110,2|0,3:2|0:0,0:0:0:0:
449,66,145749,1,2,3:2:0:0:
408,28,145967,1,2,0:0:0:0:
297,26,146402,1,8,0:0:0:0:
239,119,146836,6,0,P|288:172|338:162,1,110,4|8,3:2|0:0,0:0:0:0:
371,148,147489,1,2,3:2:0:0:
419,173,147706,1,2,0:0:0:0:
482,262,148141,2,0,P|440:292|431:301,1,55,8|2,0:0|0:0,0:0:0:0:
410,342,148576,2,0,B|338:335|374:303|294:296,1,110,2|8,3:2|0:0,0:0:0:0:
206,266,149445,1,2,0:0:0:0:
136,351,149880,1,10,0:0:0:0:
38,300,150315,6,0,P|46:225|49:174,1,110,2|0,3:2|0:0,0:0:0:0:
30,138,150967,1,2,3:2:0:0:
67,98,151184,1,2,0:0:0:0:
176,109,151619,2,0,P|222:90|239:84,1,55,8|2,0:0|0:0,0:0:0:0:
271,55,152054,2,0,B|341:74|289:98|378:118,1,110,2|0,3:2|0:0,0:0:0:0:
411,134,152706,1,2,3:2:0:0:
463,117,152923,1,2,0:0:0:0:
495,222,153358,2,0,P|478:274|475:291,1,55,8|2,0:0|0:0,0:0:0:0:
469,328,153793,6,0,P|410:304|340:300,1,110,4|8,3:2|0:0,0:0:0:0:
312,280,154445,1,2,3:2:0:0:
272,318,154663,1,2,0:0:0:0:
178,374,155097,2,0,P|133:367|116:363,1,55,8|2,0:0|0:0,0:0:0:0:
68,365,155532,2,0,B|36:326|36:326|69:252,1,110,2|8,3:2|0:0,0:0:0:0:
91,165,156402,1,2,0:0:0:0:
49,63,156836,2,0,P|95:29|104:32,1,55,10|2,0:0|0:0,0:0:0:0:
137,8,157271,6,0,P|172:24|266:44,1,110,2|0,3:2|0:0,0:0:0:0:
290,65,157923,1,2,3:2:0:0:
338,38,158141,1,2,0:0:0:0:
438,81,158576,1,8,0:0:0:0:
400,184,159010,2,0,P|358:167|287:159,1,110,2|0,3:2|0:0,0:0:0:0:
239,147,159663,1,2,3:2:0:0:
190,173,159880,1,2,0:0:0:0:
87,134,160315,1,8,0:0:0:0:
12,215,160749,6,0,P|21:265|34:327,1,110,4|8,3:2|0:0,0:0:0:0:
78,354,161402,1,2,3:2:0:0:
125,326,161619,1,2,0:0:0:0:
226,368,162054,1,8,0:0:0:0:
312,299,162489,2,0,B|361:313|361:313|372:329|372:329|434:347,1,110,2|8,3:2|0:0,0:0:0:0:
464,329,163141,1,2,3:2:0:0:
464,274,163358,1,2,0:0:0:0:
427,170,163793,2,0,P|395:182|368:188,1,55,10|2,0:0|0:0,0:0:0:0:
325,162,164228,6,0,P|338:98|351:36,1,110,2|0,3:2|0:0,0:0:0:0:
243,17,165097,2,0,B|194:33|194:33|180:55|180:55|135:75,1,110,2|8,0:0|0:0,0:0:0:0:
101,93,165749,1,2,0:0:0:0:
48,77,165967,6,0,P|7:132|24:173,1,110,2|0,3:2|0:0,0:0:0:0:
44,273,166836,1,2,0:0:0:0:
147,309,167271,1,8,0:0:0:0:
243,255,167706,2,0,P|295:260|315:265,1,55,6|0,3:2|0:0,0:0:0:0:
340,295,168141,2,0,P|428:279|437:256,1,110,8|0,0:0|3:0,0:0:0:0:
482,172,169010,1,8,0:0:0:0:
458,64,169445,2,0,L|400:49,1,55,0|0,3:0|0:0,0:0:0:0:
364,12,169880,2,0,L|290:31,1,55,8|0,0:0|0:0,0:0:0:0:
258,42,170315,2,0,P|179:26|134:19,1,110,0|8,3:0|0:0,0:0:0:0:
73,100,171184,6,0,P|95:169|137:164,1,110,2|8,3:2|0:0,0:0:0:0:
176,175,171836,1,0,0:0:0:0:
211,132,172054,2,0,P|256:127|279:124,1,55,2|0,3:2|0:0,0:0:0:0:
319,138,172489,2,0,P|366:149|387:148,1,55,8|0,0:0|0:0,0:0:0:0:
423,168,172923,1,2,3:2:0:0:
480,261,173358,1,8,0:0:0:0:
412,348,173793,2,0,P|355:343|297:337,1,110,2|0,3:2|0:0,0:0:0:0:
196,367,174663,6,0,P|123:346|118:305,1,110,2|8,3:2|0:0,0:0:0:0:
95,270,175315,1,0,0:0:0:0:
119,220,175532,1,0,3:0:0:0:
58,127,175967,1,8,0:0:0:0:
97,24,176402,2,0,B|170:32|128:59|207:68,1,110,2|8,3:2|0:0,0:0:0:0:
246,87,177054,1,0,0:0:0:0:
288,51,177271,2,0,P|364:34|386:70,1,110,0|8,3:2|0:0,0:0:0:0:
471,110,178141,6,0,P|452:166|442:215,1,110,2|8,3:2|0:0,0:0:0:0:
445,270,178793,1,0,0:0:0:0:
403,306,179010,1,2,3:2:0:0:
313,241,179445,1,8,0:0:0:0:
352,138,179880,2,0,P|291:102|253:112,1,110,2|8,3:2|0:0,0:0:0:0:
201,102,180532,1,0,0:0:0:0:
154,130,180749,2,0,L|87:114,2,55,10|8|8,3:2|0:0|3:2,0:0:0:0:
186,235,181619,6,0,P|171:301|131:298,1,110,6|8,3:2|0:0,0:0:0:0:
86,314,182271,1,0,0:0:0:0:
38,285,182489,1,0,3:0:0:0:
73,181,182923,1,8,0:0:0:0:
29,79,183358,2,0,P|65:43|126:41,1,110,0|8,3:0|0:0,0:0:0:0:
174,25,184010,1,0,0:0:0:0:
216,60,184228,1,2,3:2:0:0:
315,107,184663,1,8,0:0:0:0:
410,52,185097,6,0,P|462:105|464:159,1,110,2|8,3:2|0:0,0:0:0:0:
500,182,185749,1,0,0:0:0:0:
469,227,185967,2,0,P|464:273|454:303,1,55,2|0,3:2|0:0,0:0:0:0:
456,336,186402,1,8,0:0:0:0:
350,365,186836,2,0,P|287:313|244:306,1,110,2|8,3:2|0:0,0:0:0:0:
208,290,187489,1,0,0:0:0:0:
161,318,187706,1,2,3:2:0:0:
54,291,188141,1,8,0:0:0:0:
96,189,188576,6,0,P|77:126|71:114,1,55,0|0,3:2|0:0,0:0:0:0:
38,102,189010,2,0,P|56:44|62:29,1,55,8|0,0:0|0:0,0:0:0:0:
101,21,189445,1,0,3:0:0:0:
205,54,189880,2,0,L|275:37,1,55,8|0,0:0|0:0,0:0:0:0:
307,14,190315,2,0,B|376:22|326:52|404:64,1,110,0|8,3:2|0:0,0:0:0:0:
454,58,190967,1,0,0:0:0:0:
477,107,191184,1,0,3:2:0:0:
420,199,191619,2,0,L|484:224,1,55,8|0,0:0|0:0,0:0:0:0:
506,262,192054,6,0,P|495:321|444:337,1,110,0|8,3:2|0:0,0:0:0:0:
402,360,192706,1,0,0:0:0:0:
347,359,192923,2,0,L|220:389,1,110,0|8,3:2|0:0,0:0:0:0:
139,339,193793,2,0,P|168:259|189:258,1,110,0|8,3:2|0:0,0:0:0:0:
285,281,194663,2,0,L|357:271,1,55,0|0,3:0|0:0,0:0:0:0:
392,257,195097,1,8,0:0:0:0:
439,157,195532,5,2,0:0:0:0:
428,68,209445,6,0,P|378:34|329:60,1,110,4|10,3:2|0:0,0:0:0:0:
287,76,210097,1,0,0:0:0:0:
237,100,210315,2,0,P|176:82|130:70,1,110,0|8,3:0|0:0,0:0:0:0:
35,125,211184,2,0,P|64:177|63:243,1,110,2|8,3:2|0:0,0:0:0:0:
42,275,211836,1,2,0:0:0:0:
69,322,212054,1,0,3:0:0:0:
173,357,212489,1,10,0:0:0:0:
267,300,212923,6,0,P|328:307|347:351,1,110,0|8,3:0|0:0,0:0:0:0:
399,363,213576,1,0,0:0:0:0:
452,349,213793,2,0,P|497:288|489:246,1,110,2|8,3:2|0:0,0:0:0:0:
486,147,214663,2,0,P|440:156|363:170,1,110,0|8,3:0|0:0,0:0:0:0:
319,74,215532,1,0,3:0:0:0:
210,53,215967,1,8,0:0:0:0:
137,135,216402,6,0,L|75:120,1,55,2|0,3:2|0:0,0:0:0:0:
29,115,216836,2,0,P|7:177|22:232,1,110,8|0,0:0|3:0,0:0:0:0:
100,289,217706,2,0,P|135:264|163:263,1,55,10|0,0:0|0:0,0:0:0:0:
200,253,218141,2,0,P|247:266|316:291,1,110,4|8,3:2|0:0,0:0:0:0:
391,353,219010,1,2,3:2:0:0:
471,298,219445,1,8,0:0:0:0:
400,213,219880,6,0,P|424:158|451:105,1,110,0|10,3:0|3:2,0:0:0:0:
464,4,220749,2,0,B|378:13|449:35|349:46,1,110,0|8,3:2|0:0,0:0:0:0:
258,69,221619,1,2,0:0:0:0:
38,61,222489,2,0,L|19:1,2,55,4|4|0,0:3|0:3|3:0,0:0:0:0:
82,161,223358,6,0,P|66:233|61:283,1,110,4|10,3:2|0:0,0:0:0:0:
44,321,224010,1,2,0:0:0:0:
81,361,224228,2,0,P|133:346|196:338,1,110,2|10,3:2|0:0,0:0:0:0:
274,270,225097,2,0,B|346:286|296:298|375:325,1,110,0|8,3:0|0:0,0:0:0:0:
478,329,225967,2,0,P|486:267|491:214,1,110,2|10,3:2|0:0,0:0:0:0:
468,111,226836,5,0,3:2:0:0:
360,86,227271,1,10,0:0:0:0:
257,128,227706,2,0,P|203:93|202:50,1,110,2|10,3:2|0:0,0:0:0:0:
166,9,228358,1,2,0:0:0:0:
110,0,228576,2,0,P|35:29|18:71,1,110,0|8,3:0|0:0,0:0:0:0:
68,151,229445,1,2,3:2:0:0:
111,252,229880,1,10,0:0:0:0:
53,346,230315,6,0,P|104:381|169:365,1,110,0|10,3:2|0:0,0:0:0:0:
198,350,230967,1,2,0:0:0:0:
193,295,231184,1,2,3:2:0:0:
293,250,231619,1,10,0:0:0:0:
361,336,232054,2,0,P|438:342|464:308,1,110,0|8,3:0|0:0,0:0:0:0:
487,277,232706,1,2,0:0:0:0:
467,225,232923,1,2,3:2:0:0:
497,119,233358,1,10,0:0:0:0:
466,13,233793,6,0,P|392:17|342:45,1,110,0|10,3:2|0:0,0:0:0:0:
318,67,234445,1,2,0:0:0:0:
300,119,234663,2,0,P|370:139|411:149,1,110,2|10,3:2|0:0,0:0:0:0:
470,237,235532,2,0,P|449:291|435:344,1,110,0|8,3:0|0:0,0:0:0:0:
386,367,236184,1,2,0:0:0:0:
334,346,236402,2,0,P|263:363|211:373,1,110,10|10,3:2|3:2,0:0:0:0:
116,371,237271,6,0,B|72:342|72:342|111:222,1,165,4|2,3:2|0:0,0:0:0:0:
136,189,238141,1,2,3:2:0:0:
68,101,238576,1,10,0:0:0:0:
132,12,239010,2,0,B|243:21|166:48|288:54,1,165,0|2,3:0|0:0,0:0:0:0:
336,81,239880,1,2,3:2:0:0:
434,32,240315,1,10,0:0:0:0:
491,125,240749,6,0,P|459:175|462:232,1,110,0|10,3:2|0:0,0:0:0:0:
494,267,241402,1,2,0:0:0:0:
483,320,241619,1,2,3:2:0:0:
389,377,242054,2,0,P|358:369|331:361,1,55,10|2,0:0|0:0,0:0:0:0:
289,332,242489,2,0,B|273:273|273:273|327:230,1,110,0|8,3:0|0:0,0:0:0:0:
390,166,243358,1,2,3:2:0:0:
333,71,243793,1,10,0:0:0:0:
223,83,244228,6,0,P|175:57|105:35,1,110,0|10,3:2|0:0,0:0:0:0:
68,47,244880,1,2,0:0:0:0:
26,83,245097,2,0,P|45:143|58:200,1,110,2|10,3:2|0:0,0:0:0:0:
44,298,245967,2,0,B|142:269|101:348|202:316,1,165,0|2,3:0|0:0,0:0:0:0:
231,272,246836,1,2,3:2:0:0:
340,257,247271,1,10,0:0:0:0:
424,327,247706,6,0,P|481:298|479:243,1,110,0|10,3:2|0:0,0:0:0:0:
503,205,248358,1,2,0:0:0:0:
465,164,248576,1,2,3:2:0:0:
361,200,249010,1,10,0:0:0:0:
290,115,249445,2,0,P|258:112|214:108,1,55,4|8,3:2|0:2,0:0:0:0:
181,124,249880,2,0,P|134:120|102:115,1,55,0|10,3:2|0:2,0:0:0:0:
73,104,250315,1,2,3:2:0:0:
14,196,250749,1,2,3:2:0:0:
75,287,251184,6,0,B|183:280|106:345|236:336,1,165,4|2,3:2|0:0,0:0:0:0:
272,362,252054,1,2,3:2:0:0:
381,354,252489,1,10,0:0:0:0:
442,262,252923,2,0,P|385:235|360:196,1,110,0|8,3:0|0:0,0:0:0:0:
323,155,253576,1,2,0:0:0:0:
308,102,253793,2,0,P|337:55|365:7,1,110,2|10,3:2|0:0,0:0:0:0:
467,47,254663,6,0,P|478:104|482:168,1,110,2|10,3:2|0:0,0:0:0:0:
461,206,255315,1,2,0:0:0:0:
485,255,255532,1,2,3:2:0:0:
401,326,255967,2,0,P|368:307|351:301,1,55,10|2,0:0|0:0,0:0:0:0:
300,280,256402,2,0,B|222:297|266:313|191:333,1,110,2|8,3:2|0:0,0:0:0:0:
97,358,257271,2,0,P|39:332|39:279,1,110,2|10,3:2|0:0,0:0:0:0:
20,237,257923,1,2,0:0:0:0:
61,200,258141,6,0,P|125:229|174:242,1,110,0|10,3:2|0:0,0:0:0:0:
225,330,259010,1,2,3:2:0:0:
342,338,259445,1,10,0:0:0:0:
418,258,259880,2,0,P|408:204|395:145,1,110,0|8,3:0|0:0,0:0:0:0:
384,96,260532,1,2,0:0:0:0:
433,72,260749,1,2,3:2:0:0:
507,152,261184,1,10,0:0:0:0:
429,230,261619,6,0,B|362:252|409:272|321:303,1,110,0|10,3:2|0:0,0:0:0:0:
296,325,262271,1,2,0:0:0:0:
242,310,262489,1,2,3:2:0:0:
137,343,262923,1,10,0:0:0:0:
37,296,263358,2,0,P|49:230|56:174,1,110,0|8,3:0|0:0,0:0:0:0:
81,139,264010,1,2,0:0:0:0:
37,104,264228,2,0,P|48:38|94:34,1,110,2|10,3:2|3:2,0:0:0:0:
191,20,265097,5,4,3:2:0:0:
256,192,265315,12,0,269445,0:0:0:0:
