osu file format v14

[General]
AudioFilename: audio.mp3
AudioLeadIn: 0
PreviewTime: 70206
Countdown: 0
SampleSet: Soft
StackLeniency: 0.7
Mode: 0
LetterboxInBreaks: 0
WidescreenStoryboard: 1

[Editor]
Bookmarks: 98141,135097,139880,167706,195532,221619,222271,222489,237271,251184,265097
DistanceSpacing: 1.3
BeatDivisor: 4
GridSize: 32
TimelineZoom: 2.599999

[Metadata]
Title:A Fool Moon Night
TitleUnicode:A Fool Moon Night
Artist:The Koxx
ArtistUnicode:칵스
Creator:Le Mirai
Version:Kujinn's Escapism
Source:
Tags:SirMirai Mirai Cacturne Shaun Kim Yun Ho 숀 / 김윤호 Dropshow Yoon paradogi Daycore rock english ENTER hakashii Kujinn Reform Hazu-
BeatmapID:3060360
BeatmapSetID:1465787

[Difficulty]
HPDrainRate:5
CircleSize:4.5
OverallDifficulty:8.5
ApproachRate:8.9
SliderMultiplier:1.7
SliderTickRate:1

[Events]
//Background and Video events
0,0,"I have to go somewhere.jpg",0,0
//Break Periods
//Storyboard Layer 0 (Background)
//Storyboard Layer 1 (Fail)
//Storyboard Layer 2 (Pass)
//Storyboard Layer 3 (Foreground)
//Storyboard Layer 4 (Overlay)
//Storyboard Sound Samples

[TimingPoints]
750,434.782608695652,4,2,1,60,1,0
750,-181.818181818181,4,2,1,60,0,0
14663,-117.647058823529,4,2,1,60,0,0
16728,-117.647058823529,4,2,1,70,0,0
41619,-117.647058823529,4,2,1,60,0,0
42489,-95.238095238095,4,2,1,75,0,0
56402,-86.9565217391304,4,2,1,75,0,0
98141,-181.818181818181,4,2,1,50,0,0
105097,-133.333333333333,4,2,1,65,0,0
112923,-86.9565217391303,4,2,1,75,0,0
139880,-80,4,2,1,85,0,0
167706,-74.0740740740741,4,2,1,95,0,1
195532,-400,4,2,1,35,0,0
202380,-285.714285714286,4,2,1,35,0,0
207706,-133.333333333333,4,2,1,55,0,0
207815,-133.333333333333,4,2,1,35,0,0
208576,-133.333333333333,4,2,1,45,0,0
209445,-105.263157894737,4,2,1,60,0,0
221619,-105.263157894737,4,2,1,45,0,0
223358,-95.2380952380954,4,2,1,75,0,0
237271,-80,4,2,1,90,0,0
251184,-74.0740740740741,4,2,1,90,0,0
265097,-74.0740740740741,4,2,1,70,0,0
265749,-74.0740740740741,4,2,1,5,0,0

[Colours]
Combo1 : 153,102,103
Combo2 : 26,179,179
Combo3 : 94,66,38
Combo4 : 100,160,166

[HitObjects]
296,330,750,6,0,P|258:312|219:310,2,70.1250021400452,6|0|0,3:2|0:0|0:0,0:0:0:0:
301,323,1619,2,0,P|263:305|224:303,2,70.1250021400452
306,316,2489,2,0,P|268:298|229:296,2,70.1250021400452
311,309,3358,2,0,P|273:291|234:289,2,70.1250021400452
395,246,4228,6,0,P|403:196|411:158,2,70.1250021400452,6|0|0,3:2|0:0|0:0,0:0:0:0:
389,239,5097,2,0,P|397:189|405:151,2,70.1250021400452
383,232,5967,2,0,P|391:182|399:144,2,70.1250021400452
377,225,6836,2,0,P|385:175|393:137,2,70.1250021400452
289,83,7706,6,0,P|254:88|221:101,2,70.1250021400452,2|0|0,3:2|0:0|0:0,0:0:0:0:
283,76,8576,2,0,P|248:81|215:94,2,70.1250021400452
277,69,9445,2,0,P|242:74|209:87,2,70.1250021400452
271,62,10315,2,0,P|236:67|203:80,2,70.1250021400452
136,251,11184,6,0,P|130:216|125:182,2,70.1250021400452,2|0|0,3:2|0:0|0:0,0:0:0:0:
130,258,12054,2,0,P|124:223|119:189,2,70.1250021400452
124,265,12923,2,0,P|118:230|113:196,2,70.1250021400452
118,272,13793,2,0,P|112:237|107:203,2,70.1250021400452
226,309,14663,6,0,B|349:281|298:392|432:362,1,216.750004134178,6|0,3:2|0:0,0:0:0:0:
379,234,15532,2,0,P|374:188|417:24,1,216.750004134178,6|0,3:2|0:0,0:0:0:0:
272,121,16402,2,0,P|222:131|173:-2,1,216.750004134178,6|0,3:2|0:0,0:0:0:0:
242,42,17271,2,0,P|294:52|349:60,2,108.375002067089,6|2|2,3:2|0:0|0:0,0:0:0:0:
93,92,18141,6,0,B|105:150|163:152|163:152|106:186|116:267,1,216.750004134178,6|0,3:2|0:0,0:0:0:0:
262,360,19010,2,0,B|313:379|342:298|260:263|196:291|175:341,1,216.750004134178,6|0,3:2|0:0,0:0:0:0:
425,288,19880,2,0,B|393:254|362:225|362:225|385:169|405:105,1,216.750004134178,6|0,3:2|0:0,0:0:0:0:
329,27,20749,2,0,P|291:32|219:44,2,108.375002067089,6|2|2,3:2|0:0|0:0,0:0:0:0:
276,188,21619,6,0,P|227:197|175:163,1,108.375002067089,6|0,3:2|0:0,0:0:0:0:
125,104,22054,2,0,P|134:150|149:225,1,108.375002067089,6|0,3:2|0:0,0:0:0:0:
103,327,22489,6,0,B|80:315|48:318|48:318|85:278|172:280|201:322,1,216.750004134178,6|0,3:2|0:0,0:0:0:0:
356,335,23358,2,0,B|370:368|307:416|260:359|262:291|309:243,1,216.750004134178,6|0,3:2|0:0,0:0:0:0:
379,180,24228,2,0,P|419:192|491:205,2,108.375002067089,6|2|2,3:2|0:0|0:0,0:0:0:0:
266,40,25097,6,0,P|218:61|157:77,1,108.375002067089,6|0,3:2|0:0,0:0:0:0:
83,94,25532,2,0,P|135:108|184:129,1,108.375002067089,6|0,3:2|0:0,0:0:0:0:
350,153,25967,6,0,B|238:121|272:239|151:205,1,216.750004134178,6|0,3:2|0:0,0:0:0:0:
367,309,26836,2,0,P|373:242|410:87,1,216.750004134178,6|0,3:2|0:0,0:0:0:0:
245,25,27706,2,0,P|260:73|272:134,1,108.375002067089,6|2,3:2|0:0,0:0:0:0:
218,179,28141,2,0,P|205:225|197:264,1,72.2500013780594,0|2,0:0|0:0,0:0:0:0:
469,345,28576,6,0,P|437:321|349:335,1,108.375002067089,6|2,3:2|0:0,0:0:0:0:
304,367,29010,2,0,P|260:353|216:343,1,72.2500013780594,6|2,3:2|0:0,0:0:0:0:
66,257,29445,6,0,P|83:311|101:384,1,108.375002067089,6|2,3:2|0:0,0:0:0:0:
163,301,29880,2,0,P|175:255|188:214,1,72.2500013780594,6|2,3:2|0:0,0:0:0:0:
70,63,30315,6,0,P|110:100|181:86,1,108.375002067089,6|2,3:2|0:0,0:0:0:0:
216,38,30749,2,0,P|252:28|297:18,1,72.2500013780594,6|2,3:2|0:0,0:0:0:0:
461,73,31184,6,0,P|446:127|432:206,1,108.375002067089,6|2,3:2|0:0,0:0:0:0:
362,219,31619,2,0,P|378:261|389:300,1,72.2500013780594,6|0,3:2|0:0,0:0:0:0:
277,372,32054,6,0,P|247:342|172:353,1,108.375002067089,6|2,3:2|0:0,0:0:0:0:
97,373,32489,2,0,P|106:330|117:287,1,72.2500013780594,6|2,3:2|0:0,0:0:0:0:
22,224,32923,6,0,P|11:156|0:88,1,108.375002067089,6|2,3:2|0:0,0:0:0:0:
44,33,33358,2,0,P|89:46|130:53,1,72.2500013780594,6|2,3:2|0:0,0:0:0:0:
292,133,33793,6,0,P|238:142|165:162,1,108.375002067089,6|2,3:2|0:0,0:0:0:0:
148,226,34228,2,0,P|195:237|226:248,1,72.2500013780594,6|2,3:2|0:0,0:0:0:0:
330,370,34663,6,0,P|378:356|446:342,1,108.375002067089,6|2,3:2|0:0,0:0:0:0:
483,276,35097,2,0,P|494:234|504:195,1,72.2500013780594,6|2,3:2|0:0,0:0:0:0:
395,78,35532,6,0,P|381:121|428:181,1,108.375002067089,6|2,3:2|0:0,0:0:0:0:
466,110,35967,1,6,3:2:0:0:
385,0,36184,1,2,0:0:0:0:
240,140,36402,6,0,P|189:162|114:181,1,108.375002067089,6|2,3:2|0:0,0:0:0:0:
97,112,36836,1,6,3:2:0:0:
257,213,37054,1,2,0:0:0:0:
98,328,37271,6,0,P|139:364|213:352,1,108.375002067089,6|2,3:2|0:0,0:0:0:0:
167,290,37706,1,6,3:2:0:0:
34,369,37923,1,2,0:0:0:0:
97,112,38141,6,0,P|88:155|73:239,1,108.375002067089,6|2,3:2|0:0,0:0:0:0:
146,250,38576,1,6,3:2:0:0:
21,90,38793,1,2,0:0:0:0:
173,23,39010,6,0,P|219:8|288:40,1,108.375002067089,6|2,3:2|0:0,0:0:0:0:
216,86,39445,1,6,3:2:0:0:
369,12,39663,1,2,0:0:0:0:
477,225,39880,6,0,P|416:208|350:194,1,108.375002067089,6|2,3:2|0:0,0:0:0:0:
298,230,40315,1,6,3:2:0:0:
490,150,40532,1,2,0:0:0:0:
424,367,40749,5,6,3:2:0:0:
424,367,41619,2,0,L|421:344,6,24.0833337926865,4|0|0|4|0|0|0,0:3|0:0|0:0|0:3|0:0|0:0|3:0,0:0:0:0:
424,367,42489,6,0,P|373:345|274:384,1,133.874995914459,4|0,3:2|0:0,0:0:0:0:
226,308,42923,1,10,0:0:0:0:
99,373,43141,1,2,0:0:0:0:
14,242,43358,2,0,P|32:182|39:103,1,133.874995914459,2|0,3:2|0:0,0:0:0:0:
23,29,43793,1,10,0:0:0:0:
123,162,44010,1,2,0:0:0:0:
265,18,44228,6,0,P|244:63|231:156,1,133.874995914459,0|2,3:0|0:0,0:0:0:0:
274,211,44663,2,0,P|313:242|367:245,1,89.2499972763062,8|2,0:0|0:0,0:0:0:0:
441,67,45097,2,0,P|397:75|364:103,1,89.2499972763062,2|0,3:2|0:0,0:0:0:0:
474,257,45532,2,0,P|482:204|501:152,1,89.2499972763062,10|0,0:0|0:0,0:0:0:0:
274,211,45967,6,0,P|293:279|307:369,1,133.874995914459,0|0,3:2|0:0,0:0:0:0:
236,381,46402,1,10,0:0:0:0:
347,200,46619,1,2,0:0:0:0:
208,72,46836,2,0,P|138:64|79:134,1,133.874995914459,2|0,3:2|0:0,0:0:0:0:
38,160,47271,1,10,0:0:0:0:
193,257,47489,1,2,0:0:0:0:
36,346,47706,6,0,P|96:349|178:390,1,133.874995914459,0|2,3:0|0:0,0:0:0:0:
263,371,48141,2,0,P|320:358|354:333,1,89.2499972763062,8|2,0:0|0:0,0:0:0:0:
202,157,48576,1,2,3:2:0:0:
323,220,48793,1,2,0:0:0:0:
172,320,49010,1,10,0:0:0:0:
392,286,49228,1,2,0:0:0:0:
130,187,49445,6,0,P|132:134|212:80,1,133.874995914459,0|0,3:2|0:0,0:0:0:0:
266,123,49880,1,10,0:0:0:0:
149,7,50097,1,2,0:0:0:0:
223,194,50315,2,0,P|206:240|186:362,1,133.874995914459,2|0,3:2|0:0,0:0:0:0:
250,364,50749,1,10,0:0:0:0:
146,184,50967,1,2,0:0:0:0:
362,334,51184,6,0,P|415:345|477:293,1,133.874995914459,0|2,3:0|0:0,0:0:0:0:
410,253,51619,1,8,0:0:0:0:
491,109,51836,1,2,0:0:0:0:
304,224,52054,2,0,P|295:154|284:102,1,89.2499972763062,2|0,3:2|0:0,0:0:0:0:
166,299,52489,2,0,P|175:229|186:177,1,89.2499972763062,10|0,0:0|0:0,0:0:0:0:
62,382,52923,6,0,P|56:328|30:211,1,133.874995914459,0|0,3:2|0:0,0:0:0:0:
107,202,53358,1,10,0:0:0:0:
19,356,53576,1,2,0:0:0:0:
187,175,53793,2,0,P|159:132|61:131,1,133.874995914459,2|0,3:2|0:0,0:0:0:0:
107,202,54228,1,10,0:0:0:0:
227,65,54445,1,2,0:0:0:0:
328,176,54663,6,0,P|388:196|471:252,1,133.874995914459,0|2,3:0|0:0,0:0:0:0:
478,166,55097,2,0,P|470:119|457:66,1,89.2499972763062,8|2,0:0|0:0,0:0:0:0:
354,262,55532,1,2,3:2:0:0:
271,179,55749,1,2,0:0:0:0:
249,201,55858,1,8,0:0:0:0:
240,231,55967,1,2,3:2:0:0:
241,262,56076,1,8,0:0:0:0:
249,291,56184,1,2,0:0:0:0:
69,378,56402,6,0,P|27:365|1:239,1,146.62500279665,4|0,3:2|0:0,0:0:0:0:
26,207,56836,2,0,P|41:162|33:95,1,97.7500018644333,10|2,0:0|0:0,0:0:0:0:
168,301,57271,2,0,P|226:293|297:375,1,146.62500279665,2|0,3:2|0:0,0:0:0:0:
213,370,57706,1,10,0:0:0:0:
325,253,57923,1,2,0:0:0:0:
214,18,58141,6,0,P|181:67|190:172,1,146.62500279665,0|2,3:0|0:0,0:0:0:0:
156,236,58576,2,0,P|118:269|53:266,1,97.7500018644333,8|2,0:0|0:0,0:0:0:0:
288,104,59010,2,0,P|335:108|371:140,1,97.7500018644333,2|0,3:2|0:0,0:0:0:0:
84,153,59445,2,0,P|63:106|80:44,1,97.7500018644333,10|0,0:0|0:0,0:0:0:0:
299,199,59880,6,0,P|309:253|237:338,1,146.62500279665,0|0,3:2|0:0,0:0:0:0:
222,262,60315,1,10,0:0:0:0:
364,348,60532,1,2,0:0:0:0:
342,133,60749,2,0,P|279:115|205:178,1,146.62500279665,2|0,3:2|0:0,0:0:0:0:
172,216,61184,1,10,0:0:0:0:
43,118,61402,1,2,0:0:0:0:
213,45,61619,6,0,P|273:38|355:-3,1,146.62500279665,0|2,3:0|0:0,0:0:0:0:
418,34,62054,2,0,P|470:47|514:87,1,97.7500018644333,8|2,0:0|0:0,0:0:0:0:
303,171,62489,1,2,3:2:0:0:
478,248,62706,1,2,0:0:0:0:
301,342,62923,1,10,0:0:0:0:
475,268,63141,1,2,0:0:0:0:
208,282,63358,6,0,P|152:244|153:139,1,146.62500279665,0|0,3:2|0:0,0:0:0:0:
167,97,63793,1,10,0:0:0:0:
57,230,64010,1,2,0:0:0:0:
262,204,64228,2,0,P|306:239|324:345,1,146.62500279665,2|0,3:2|0:0,0:0:0:0:
271,370,64663,1,10,0:0:0:0:
387,212,64880,1,2,0:0:0:0:
149,344,65097,6,0,P|79:345|13:265,1,146.62500279665,0|2,3:0|0:0,0:0:0:0:
7,215,65532,2,0,P|18:164|69:127,1,97.7500018644333,8|2,0:0|0:0,0:0:0:0:
263,50,65967,2,0,P|222:82|168:82,1,97.7500018644333,2|0,3:2|0:0,0:0:0:0:
353,161,66402,2,0,P|400:165|438:195,1,97.7500018644333,10|0,0:0|0:0,0:0:0:0:
243,367,66836,6,0,P|243:294|192:199,1,146.62500279665,0|0,3:2|0:0,0:0:0:0:
163,174,67271,1,10,0:0:0:0:
105,323,67489,1,2,0:0:0:0:
303,190,67706,2,0,P|307:132|367:44,1,146.62500279665,2|0,3:2|0:0,0:0:0:0:
406,112,68141,1,10,0:0:0:0:
280,0,68358,1,2,0:0:0:0:
197,150,68576,6,0,P|153:200|54:186,1,146.62500279665,0|2,3:0|0:0,0:0:0:0:
18,150,69010,2,0,P|10:93|41:41,1,97.7500018644333,8|2,0:0|0:0,0:0:0:0:
122,114,69445,1,2,3:2:0:0:
59,226,69663,1,2,0:0:0:0:
70,258,69771,1,8,0:0:0:0:
95,280,69880,1,2,3:2:0:0:
128,288,69989,1,8,0:0:0:0:
161,283,70097,1,2,0:0:0:0:
304,205,70315,5,2,0:2:0:0:
304,205,70641,2,0,P|274:192|195:263,1,146.62500279665,2|2,0:0|0:0,0:0:0:0:
432,351,71184,6,0,P|431:279|475:189,1,146.62500279665,6|0,3:2|0:0,0:0:0:0:
409,152,71619,1,10,0:0:0:0:
510,305,71836,1,2,0:0:0:0:
496,121,72054,6,0,P|453:73|346:93,1,146.62500279665,0|2,3:0|0:0,0:0:0:0:
314,133,72489,2,0,P|271:163|198:152,1,97.7500018644333,8|2,0:0|0:0,0:0:0:0:
69,31,72923,2,0,P|103:81|112:128,1,97.7500018644333,2|0,3:2|0:0,0:0:0:0:
75,311,73358,2,0,P|88:264|117:225,1,97.7500018644333,10|0,0:0|0:0,0:0:0:0:
362,346,73793,6,0,P|293:349|224:258,1,146.62500279665,2|0,3:2|0:0,0:0:0:0:
255,213,74228,2,0,P|296:187|357:196,1,97.7500018644333,10|2,0:0|0:0,0:0:0:0:
178,345,74663,2,0,P|129:347|60:258,1,146.62500279665,2|0,3:2|0:0,0:0:0:0:
133,242,75097,1,10,0:0:0:0:
25,357,75315,1,2,0:0:0:0:
79,187,75532,6,0,P|72:133|23:23,1,146.62500279665,2|2,3:2|0:0,0:0:0:0:
0,144,75967,1,8,0:0:0:0:
108,8,76184,1,2,0:0:0:0:
204,182,76402,1,2,3:2:0:0:
81,121,76619,1,2,0:0:0:0:
228,32,76836,1,10,0:0:0:0:
379,103,77054,1,2,0:0:0:0:
271,356,77271,6,0,P|200:343|161:284,1,146.62500279665,0|0,3:2|0:0,0:0:0:0:
178,205,77706,2,0,P|223:174|286:179,1,97.7500018644333,10|2,0:0|0:0,0:0:0:0:
425,360,78141,2,0,P|419:296|386:194,1,146.62500279665,2|0,3:2|0:0,0:0:0:0:
460,164,78576,1,10,0:0:0:0:
347,302,78793,1,2,0:0:0:0:
365,64,79010,6,0,P|415:16|514:34,1,146.62500279665,0|2,3:0|0:0,0:0:0:0:
487,102,79445,2,0,P|431:86|372:74,1,97.7500018644333,8|2,0:0|0:0,0:0:0:0:
247,246,79880,2,0,P|294:235|341:221,1,97.7500018644333,2|0,3:2|0:0,0:0:0:0:
253,0,80315,2,0,P|216:40|222:96,1,97.7500018644333,10|0,0:0|0:0,0:0:0:0:
425,256,80749,6,0,P|429:197|332:130,1,146.62500279665,0|0,3:2|0:0,0:0:0:0:
297,148,81184,2,0,P|269:200|280:253,1,97.7500018644333,10|2,0:0|0:0,0:0:0:0:
472,310,81619,2,0,P|415:302|345:393,1,146.62500279665,2|0,3:2|0:0,0:0:0:0:
426,380,82054,1,10,0:0:0:0:
345,215,82271,1,2,0:0:0:0:
186,371,82489,6,0,P|120:372|61:285,1,146.62500279665,0|2,3:0|0:0,0:0:0:0:
83,239,82923,2,0,P|128:214|186:225,1,97.7500018644333,8|2,0:0|0:0,0:0:0:0:
320,315,83358,1,2,3:2:0:0:
204,79,83576,1,2,0:0:0:0:
153,60,83684,1,8,0:0:0:0:
103,80,83793,1,2,3:2:0:0:
76,126,83902,1,8,0:0:0:0:
92,176,84010,2,0,P|129:213|196:209,1,97.7500018644333,2|2,0:0|0:2,0:0:0:0:
172,217,84554,6,0,L|148:380,1,146.62500279665,2|2,0:0|0:0,0:0:0:0:
373,282,85097,6,0,L|351:136,1,146.62500279665,6|0,3:2|0:0,0:0:0:0:
289,89,85532,1,10,0:0:0:0:
443,261,85749,1,2,0:0:0:0:
512,45,85967,2,0,P|464:8|359:30,1,146.62500279665,0|2,3:0|0:0,0:0:0:0:
317,58,86402,2,0,P|263:60|223:25,1,97.7500018644333,8|2,0:0|0:0,0:0:0:0:
146,240,86836,2,0,P|171:192|221:175,1,97.7500018644333,2|0,3:2|0:0,0:0:0:0:
94,0,87271,2,0,P|122:45|112:97,1,97.7500018644333,10|0,0:0|0:0,0:0:0:0:
29,258,87706,6,0,P|80:245|156:342,1,146.62500279665,2|0,3:2|0:0,0:0:0:0:
79,332,88141,1,10,0:2:0:0:
217,193,88358,1,2,0:0:0:0:
298,353,88576,2,0,P|349:366|425:269,1,146.62500279665,2|0,3:2|0:0,0:0:0:0:
354,264,89010,1,10,0:0:0:0:
512,381,89228,1,2,0:0:0:0:
391,168,89445,6,0,P|342:150|252:225,1,146.62500279665,0|2,3:0|0:0,0:0:0:0:
330,230,89880,1,8,0:0:0:0:
193,87,90097,1,2,0:0:0:0:
337,0,90315,1,2,3:2:0:0:
392,147,90532,1,2,0:0:0:0:
187,198,90749,1,10,0:0:0:0:
240,12,90967,1,2,0:0:0:0:
330,192,91184,6,0,P|338:251|360:378,1,146.62500279665,0|0,3:2|0:0,0:0:0:0:
281,368,91619,1,10,0:0:0:0:
426,238,91836,1,2,0:0:0:0:
267,104,92054,2,0,P|214:91|139:172,1,146.62500279665,2|0,3:2|0:0,0:0:0:0:
227,167,92489,1,10,0:0:0:0:
69,53,92706,1,2,0:0:0:0:
0,256,92923,6,0,P|53:243|128:324,1,146.62500279665,0|2,3:0|0:0,0:0:0:0:
161,378,93358,2,0,P|117:348|101:289,1,97.7500018644333,8|2,0:0|0:0,0:0:0:0:
260,192,93793,2,0,P|256:245|212:288,1,97.7500018644333,2|0,3:2|0:0,0:0:0:0:
48,164,94228,2,0,P|95:140|155:156,1,97.7500018644333,10|0,0:0|0:0,0:0:0:0:
38,368,94663,6,0,P|26:301|-3:191,1,146.62500279665,0|0,3:2|0:0,0:0:0:0:
48,164,95097,1,10,0:0:0:0:
155,324,95315,1,2,0:0:0:0:
332,108,95532,2,0,P|314:179|301:251,1,146.62500279665,2|0,3:2|0:0,0:0:0:0:
332,321,95967,1,10,0:0:0:0:
184,122,96184,1,2,0:0:0:0:
387,228,96402,6,0,P|448:223|485:122,1,146.62500279665,0|2,3:0|0:0,0:0:0:0:
475,77,96836,2,0,P|429:52|356:72,1,97.7500018644333,8|2,0:0|0:0,0:0:0:0:
240,194,97271,1,10,3:2:0:0:
197,205,97380,1,8,0:0:0:0:
156,187,97489,1,10,0:0:0:0:
130,151,97597,1,8,0:0:0:0:
131,106,97706,1,10,3:2:0:0:
272,5,97923,1,8,0:0:0:0:
283,18,98032,1,10,0:0:0:0:
292,31,98141,6,0,B|239:82|279:163|298:155|318:146|370:207|319:284,1,280.500008560181,4|2,3:2|0:0,0:0:0:0:
232,306,99880,6,0,B|204:237|273:180|287:195|302:211|374:176|359:85,1,280.500008560181,0|2,0:0|0:0,0:0:0:0:
84,260,101619,6,0,B|45:235|-15:261|-11:337|46:382|132:354|168:306,1,280.500008560181,2|2,0:0|0:0,0:0:0:0:
183,153,103358,6,0,B|221:177|282:151|278:75|220:30|134:58|98:106,1,280.500008560181,2|2,0:0|0:0,0:0:0:0:
383,258,105097,6,0,P|334:273|274:208,1,127.500004863739,4|0,3:2|3:2,0:0:0:0:
241,129,105749,1,2,0:2:0:0:
144,169,105967,1,2,3:2:0:0:
160,271,106184,1,2,0:2:0:0:
262,300,106402,1,2,3:2:0:0:
326,205,106619,1,0,0:0:0:0:
425,158,106836,6,0,P|467:176|486:239,1,95.6250036478044,2|0,3:2|0:0,0:0:0:0:
485,249,107271,1,0,3:2:0:0:
425,316,107489,1,2,0:2:0:0:
365,249,107706,1,2,3:2:0:0:
305,316,107923,1,2,0:2:0:0:
249,247,108141,1,2,3:2:0:0:
249,247,108576,6,0,L|266:390,1,127.500004863739,2|0,3:2|3:2,0:0:0:0:
166,301,109228,1,2,0:2:0:0:
97,377,109445,1,2,3:2:0:0:
8,317,109663,1,2,0:2:0:0:
32,220,109880,1,2,3:2:0:0:
134,207,110097,1,2,0:2:0:0:
223,302,110315,6,0,P|280:318|380:166,1,255.000009727478,4|8,3:2|0:3,0:0:0:0:
236,57,111402,1,4,0:3:0:0:
225,77,111510,1,4,0:3:0:0:
215,98,111619,2,0,P|220:158|279:214,1,127.500004863739,4|2,0:3|0:2,0:0:0:0:
263,206,112380,6,0,L|144:193,1,95.6250036478044,2|2,0:0|0:0,0:0:0:0:
57,365,112923,6,0,P|90:316|199:334,1,146.62500279665,6|0,3:2|0:0,0:0:0:0:
248,349,113358,1,10,0:0:0:0:
347,253,113576,1,2,0:0:0:0:
443,362,113793,6,0,P|400:300|433:208,1,146.62500279665,0|2,3:0|0:0,0:0:0:0:
500,185,114228,2,0,P|507:243|472:287,1,97.7500018644333,8|2,0:0|0:0,0:0:0:0:
370,103,114663,2,0,P|400:64|462:62,1,97.7500018644333,2|0,3:2|0:0,0:0:0:0:
354,242,115097,2,0,P|306:233|278:195,1,97.7500018644333,10|0,0:0|0:0,0:0:0:0:
183,35,115532,6,0,L|164:212,1,146.62500279665,2|0,3:2|0:0,0:0:0:0:
166,273,115967,2,0,L|151:156,1,97.7500018644333,10|2,0:0|0:0,0:0:0:0:
84,302,116402,2,0,P|124:351|229:332,1,146.62500279665,2|0,3:2|0:0,0:0:0:0:
276,285,116836,1,10,0:0:0:0:
378,384,117054,1,2,0:0:0:0:
468,162,117271,6,0,P|405:182|387:286,1,146.62500279665,2|2,3:2|0:0,0:0:0:0:
442,328,117706,2,0,P|422:267|394:248,1,97.7500018644333,8|2,0:0|0:0,0:0:0:0:
192,312,118141,1,2,3:2:0:0:
280,147,118358,1,2,0:0:0:0:
341,331,118576,1,10,0:0:0:0:
166,237,118793,1,2,0:0:0:0:
293,50,119010,6,0,P|356:69|379:179,1,146.62500279665,0|0,3:2|0:0,0:0:0:0:
347,210,119445,2,0,P|304:237|246:217,1,97.7500018644333,10|2,0:0|0:0,0:0:0:0:
116,34,119880,2,0,P|163:73|135:186,1,146.62500279665,2|0,3:2|0:0,0:0:0:0:
110,231,120315,1,10,0:0:0:0:
271,117,120532,1,2,0:0:0:0:
50,160,120749,6,0,P|18:224|76:308,1,146.62500279665,0|2,3:0|0:0,0:0:0:0:
116,335,121184,2,0,P|179:338|218:302,1,97.7500018644333,8|2,0:0|0:0,0:0:0:0:
266,142,121619,2,0,P|203:139|164:175,1,97.7500018644333,2|0,3:2|0:0,0:0:0:0:
405,242,122054,2,0,P|437:198|417:130,1,97.7500018644333,10|0,0:0|0:0,0:0:0:0:
274,311,122489,6,0,P|306:363|419:366,1,146.62500279665,0|0,3:2|0:0,0:0:0:0:
455,342,122923,2,0,P|415:307|358:310,1,97.7500018644333,10|2,0:0|0:0,0:0:0:0:
179,362,123358,2,0,P|122:384|35:312,1,146.62500279665,2|0,3:2|0:0,0:0:0:0:
120,294,123793,1,10,0:0:0:0:
270,382,124010,1,2,0:0:0:0:
251,117,124228,6,0,P|200:176|216:274,1,146.62500279665,0|2,3:0|0:0,0:0:0:0:
284,300,124663,2,0,P|294:237|275:196,1,97.7500018644333,8|2,0:0|0:0,0:0:0:0:
104,77,125097,1,2,3:2:0:0:
249,128,125315,1,2,0:0:0:0:
297,126,125423,1,8,0:0:0:0:
334,95,125532,1,2,3:2:0:0:
345,47,125641,1,8,0:0:0:0:
330,0,125749,1,2,0:0:0:0:
137,142,125967,6,0,P|168:205|161:320,1,146.62500279665,2|2,0:2|0:0,0:0:0:0:
114,333,126402,2,0,P|161:360|223:336,1,97.7500018644333,2|2,0:0|0:0,0:0:0:0:
387,194,126836,2,0,P|318:198|282:283,1,146.62500279665,2|0,3:2|0:0,0:0:0:0:
362,280,127271,1,10,0:0:0:0:
245,114,127489,1,2,0:0:0:0:
461,150,127706,6,0,P|467:220|376:275,1,146.62500279665,0|2,3:0|0:0,0:0:0:0:
342,311,128141,2,0,P|294:278|237:301,1,97.7500018644333,8|2,0:0|0:0,0:0:0:0:
47,359,128576,2,0,P|106:360|135:322,1,97.7500018644333,2|0,3:2|0:0,0:0:0:0:
130,87,129010,2,0,P|115:147|154:193,1,97.7500018644333,10|0,0:0|0:0,0:0:0:0:
382,237,129445,6,0,P|357:133|336:49,1,146.62500279665,2|0,3:2|0:0,0:0:0:0:
409,17,129880,2,0,L|382:138,1,97.7500018644333,10|2,0:2|0:0,0:0:0:0:
160,238,130315,2,0,P|207:185|301:221,1,146.62500279665,2|0,3:2|0:0,0:0:0:0:
336,254,130749,1,10,0:0:0:0:
474,134,130967,1,2,0:0:0:0:
397,367,131184,6,0,P|353:313|384:213,1,146.62500279665,0|2,3:0|0:0,0:0:0:0:
388,169,131619,2,0,P|430:202|434:264,1,97.7500018644333,8|2,0:0|0:0,0:0:0:0:
329,349,132054,1,2,3:2:0:0:
175,266,132271,1,2,0:0:0:0:
248,112,132489,1,10,0:0:0:0:
388,169,132706,1,2,0:0:0:0:
210,346,132923,6,0,P|145:349|86:248,1,146.62500279665,0|0,3:2|0:0,0:0:0:0:
102,213,133358,2,0,P|149:180|209:194,1,97.7500018644333,10|2,0:0|0:0,0:0:0:0:
396,344,133793,2,0,P|334:315|308:218,1,146.62500279665,2|0,3:2|0:0,0:0:0:0:
363,189,134228,1,10,0:0:0:0:
250,324,134445,1,2,0:0:0:0:
202,71,134663,6,0,P|232:134|241:234,1,146.62500279665,0|2,3:0|0:0,0:0:0:0:
194,273,135097,2,0,P|150:300|81:277,1,97.7500018644333,8|2,0:0|0:0,0:0:0:0:
261,123,135532,2,0,P|308:118|349:145,1,97.7500018644333,2|0,3:2|0:0,0:0:0:0:
96,212,135967,2,0,P|71:155|86:103,1,97.7500018644333,10|0,0:0|0:0,0:0:0:0:
295,234,136402,6,0,P|265:297|256:397,1,146.62500279665,0|0,3:2|0:0,0:0:0:0:
168,350,136836,2,0,P|204:311|267:331,1,97.7500018644333,10|2,0:0|0:0,0:0:0:0:
466,371,137271,2,0,P|405:365|376:266,1,146.62500279665,2|0,3:2|0:0,0:0:0:0:
416,234,137706,1,10,0:0:0:0:
313,112,137923,1,2,0:0:0:0:
497,21,138141,6,0,P|448:69|371:41,1,146.62500279665,0|2,3:0|0:0,0:0:0:0:
316,6,138576,2,0,P|265:10|231:68,1,97.7500018644333,8|2,0:0|0:0,0:0:0:0:
160,222,139010,1,10,3:2:0:0:
115,219,139119,1,8,0:0:0:0:
84,187,139228,1,10,0:0:0:0:
73,144,139336,1,8,0:0:0:0:
89,103,139445,1,10,3:2:0:0:
285,157,139663,1,8,0:0:0:0:
273,177,139771,1,10,0:0:0:0:
262,196,139880,6,0,P|315:225|404:171,1,159.375,4|2,3:2|3:2,0:0:0:0:
439,112,140315,2,0,L|429:248,1,106.25,8|2,0:0|3:2,0:0:0:0:
303,314,140749,6,0,B|219:291|251:375|140:337,1,159.375,2|2,0:0|0:0,0:0:0:0:
94,384,141184,2,0,P|77:327|102:286,1,106.25,8|2,0:0|0:0,0:0:0:0:
221,229,141619,5,2,3:2:0:0:
222,215,141728,1,8,0:0:0:0:
98,115,141945,5,2,3:2:0:0:
99,128,142054,1,8,0:0:0:0:
221,36,142271,5,2,3:2:0:0:
379,87,142489,1,2,0:0:0:0:
170,148,142706,1,2,0:0:0:0:
352,211,142923,1,10,0:0:0:0:
179,278,143141,1,2,0:0:0:0:
355,367,143358,6,0,P|403:336|464:358,1,106.25,2|8,3:2|0:0,0:0:0:0:
481,334,143684,2,0,P|496:281|474:235,1,106.25,2|0,3:2|0:0,0:0:0:0:
440,215,144010,1,2,3:2:0:0:
307,295,144228,6,0,L|164:271,1,106.25,2|0,0:0|0:0,0:0:0:0:
121,253,144554,1,2,0:0:0:0:
126,271,144663,2,0,L|242:246,1,106.25,8|2,0:0|0:0,0:0:0:0:
354,31,145097,6,0,P|296:17|251:57,1,106.25,2|8,3:2|0:0,0:0:0:0:
228,73,145423,2,0,P|186:96|130:80,1,106.25,2|0,3:2|0:0,0:0:0:0:
97,58,145749,1,2,3:2:0:0:
19,157,145967,6,0,L|46:272,1,106.25,2|0,0:0|0:0,0:0:0:0:
76,299,146293,1,2,0:0:0:0:
67,283,146402,2,0,L|90:177,1,106.25,8|2,0:0|0:0,0:0:0:0:
244,24,146836,6,0,L|277:192,1,159.375,4|2,3:2|3:2,0:0:0:0:
229,238,147271,2,0,P|285:253|328:232,1,106.25,8|2,0:0|3:2,0:0:0:0:
448,124,147706,6,0,L|418:293,1,159.375,2|2,0:0|0:0,0:0:0:0:
464,344,148141,2,0,P|408:355|365:334,1,106.25,8|2,0:0|0:0,0:0:0:0:
262,230,148576,5,2,3:2:0:0:
239,242,148684,1,8,0:0:0:0:
123,338,148902,5,2,3:2:0:0:
100,326,149010,1,8,0:0:0:0:
78,120,149228,5,2,3:2:0:0:
213,304,149445,1,2,0:0:0:0:
11,201,149663,1,2,0:0:0:0:
221,209,149880,1,10,0:0:0:0:
32,320,150097,1,2,0:0:0:0:
135,133,150315,6,0,P|202:104|261:137,1,106.25,2|8,3:2|0:0,0:0:0:0:
276,135,150641,2,0,P|335:159|395:124,1,106.25,2|0,3:2|0:0,0:0:0:0:
408,118,150967,1,2,3:2:0:0:
470,1,151184,6,0,L|495:126,1,106.25,2|0,0:0|0:0,0:0:0:0:
482,149,151510,1,2,0:0:0:0:
498,178,151619,2,0,L|472:306,1,106.25,8|2,0:0|0:0,0:0:0:0:
271,362,152054,6,0,P|248:294|274:249,1,106.25,2|8,3:2|0:0,0:0:0:0:
273,230,152380,2,0,P|295:164|269:119,1,106.25,2|0,3:2|0:0,0:0:0:0:
256,99,152706,1,2,3:2:0:0:
144,284,152923,6,0,P|74:298|29:261,1,106.25,2|0,0:0|0:0,0:0:0:0:
23,248,153249,1,2,0:0:0:0:
27,216,153358,2,0,L|50:84,1,106.25,8|2,0:0|0:0,0:0:0:0:
247,13,153793,6,0,L|271:172,1,159.375,4|2,3:2|3:2,0:0:0:0:
302,193,154228,2,0,L|277:329,1,106.25,8|2,0:0|3:2,0:0:0:0:
47,283,154663,6,0,B|131:246|127:338|206:294,1,159.375,2|2,0:0|0:0,0:0:0:0:
224,221,155097,2,0,P|278:263|273:323,1,106.25,8|2,0:0|0:0,0:0:0:0:
142,374,155532,5,2,3:2:0:0:
120,384,155641,1,8,0:0:0:0:
25,273,155858,5,2,3:2:0:0:
47,283,155967,1,8,0:0:0:0:
170,154,156184,5,2,3:2:0:0:
226,337,156402,1,2,0:0:0:0:
270,113,156619,1,2,0:0:0:0:
331,296,156836,1,10,0:0:0:0:
374,76,157054,1,2,0:0:0:0:
488,261,157271,6,0,P|429:263|384:211,1,106.25,2|8,3:2|0:0,0:0:0:0:
341,169,157597,2,0,P|282:167|237:219,1,106.25,2|0,3:2|0:0,0:0:0:0:
199,258,157923,1,2,3:2:0:0:
67,193,158141,6,0,L|86:75,1,106.25,2|0,0:0|0:0,0:0:0:0:
69,21,158467,1,2,0:0:0:0:
82,5,158576,2,0,L|98:109,1,106.25,8|2,0:0|0:0,0:0:0:0:
16,253,159010,6,0,P|58:218|124:236,1,106.25,2|8,3:2|0:0,0:0:0:0:
175,268,159336,2,0,P|226:272|265:237,1,106.25,2|0,3:2|0:0,0:0:0:0:
309,169,159663,1,2,3:2:0:0:
253,56,159880,6,0,L|381:77,1,106.25,2|0,0:0|0:0,0:0:0:0:
427,135,160206,1,2,0:0:0:0:
413,151,160315,2,0,L|285:172,1,106.25,8|2,0:0|0:0,0:0:0:0:
183,367,160749,6,0,P|133:320|160:210,1,159.375,4|2,3:2|3:2,0:0:0:0:
209,206,161184,2,0,P|172:167|103:169,1,106.25,8|2,0:0|3:2,0:0:0:0:
6,264,161619,6,0,P|81:284|143:212,1,159.375,2|2,0:0|0:0,0:0:0:0:
121,161,162054,2,0,P|173:167|209:206,1,106.25,8|2,0:0|0:0,0:0:0:0:
311,340,162489,5,2,3:2:0:0:
320,314,162597,1,8,0:0:0:0:
422,184,162815,5,2,3:2:0:0:
431,210,162923,1,8,0:0:0:0:
205,158,163141,5,2,3:2:0:0:
419,103,163358,1,2,0:0:0:0:
184,57,163576,1,2,0:0:0:0:
422,184,163793,1,10,0:0:0:0:
165,254,164010,1,2,0:0:0:0:
287,62,164228,6,0,L|305:182,1,106.25,2|8,3:2|0:0,0:0:0:0:
337,184,164554,2,0,L|319:304,1,106.25,2|0,3:2|0:0,0:0:0:0:
293,333,164880,1,2,3:2:0:0:
48,222,165097,6,0,P|88:186|149:197,1,106.25,2|0,0:0|0:0,0:0:0:0:
206,223,165423,1,2,0:0:0:0:
210,240,165532,2,0,P|158:242|120:207,1,106.25,8|2,0:0|0:0,0:0:0:0:
163,26,165967,5,2,3:2:0:0:
190,35,166076,1,0,0:0:0:0:
219,45,166184,1,8,0:0:0:0:
245,55,166293,2,0,P|186:76|192:174,1,159.375,2|2,3:2|3:2,0:0:0:0:
386,253,166836,2,0,L|371:101,1,106.25,2|0,0:0|0:0,0:0:0:0:
372,116,167163,1,0,0:0:0:0:
370,88,167271,1,8,0:0:0:0:
75,258,167706,5,6,3:2:0:0:
100,219,167815,1,0,0:0:0:0:
140,197,167923,1,0,0:0:0:0:
185,194,168032,1,0,0:0:0:0:
228,208,168141,1,8,0:0:0:0:
261,238,168249,1,0,0:0:0:0:
283,277,168358,1,0,0:0:0:0:
323,298,168467,1,0,0:0:0:0:
369,299,168576,1,0,3:0:0:0:
411,282,168684,1,0,0:0:0:0:
437,244,168793,1,0,0:0:0:0:
441,198,168902,1,0,0:0:0:0:
426,154,169010,1,8,0:0:0:0:
390,125,169119,1,0,0:0:0:0:
344,118,169228,1,0,0:0:0:0:
301,135,169336,1,0,0:0:0:0:
277,174,169445,1,0,3:0:0:0:
279,219,169554,1,0,0:0:0:0:
301,259,169663,1,0,0:0:0:0:
310,303,169771,1,0,0:0:0:0:
294,346,169880,1,8,0:0:0:0:
257,374,169989,1,0,0:0:0:0:
211,374,170097,1,0,0:0:0:0:
174,346,170206,1,0,0:0:0:0:
155,303,170315,6,0,L|166:234,1,57.3750002188683,0|0,3:0|0:0,0:0:0:0:
80,160,170532,2,0,L|69:229,1,57.3750002188683
247,225,170749,2,0,L|258:156,1,57.3750002188683,8|0,0:0|0:0,0:0:0:0:
172,82,170967,2,0,L|161:151,1,57.3750002188683
368,39,171184,5,2,3:2:0:0:
328,16,171293,1,0,0:0:0:0:
282,17,171402,1,0,0:0:0:0:
243,40,171510,1,0,0:0:0:0:
217,77,171619,1,8,0:0:0:0:
174,95,171728,1,0,0:0:0:0:
128,93,171836,1,0,0:0:0:0:
87,71,171945,1,0,0:0:0:0:
59,33,172054,5,2,3:2:0:0:
98,27,172163,1,0,0:0:0:0:
134,42,172271,1,0,0:0:0:0:
156,75,172380,1,0,0:0:0:0:
161,114,172489,1,8,0:0:0:0:
151,152,172597,1,0,0:0:0:0:
125,183,172706,1,0,0:0:0:0:
87,198,172815,1,0,0:0:0:0:
47,189,172923,5,2,3:2:0:0:
80,180,173032,1,0,0:0:0:0:
114,185,173141,1,0,0:0:0:0:
143,203,173249,1,0,0:0:0:0:
167,226,173358,1,8,0:0:0:0:
200,235,173467,1,0,0:0:0:0:
234,237,173576,1,0,0:0:0:0:
266,225,173684,1,0,0:0:0:0:
291,201,173793,5,2,3:2:0:0:
262,198,173902,1,0,0:0:0:0:
235,207,174010,1,0,0:0:0:0:
218,230,174119,1,0,0:0:0:0:
216,258,174228,1,0,0:0:0:0:
223,285,174336,1,0,0:0:0:0:
240,307,174445,1,0,0:0:0:0:
267,315,174554,1,8,0:0:0:0:
295,311,174663,5,2,3:2:0:0:
272,293,174771,1,8,0:0:0:0:
244,283,174880,1,4,0:0:0:0:
215,285,174989,1,0,0:0:0:0:
188,295,175097,1,8,0:0:0:0:
165,312,175206,1,0,0:0:0:0:
144,332,175315,1,0,0:0:0:0:
117,342,175423,1,0,0:0:0:0:
88,340,175532,1,0,3:0:0:0:
62,327,175641,1,0,0:0:0:0:
44,304,175749,1,0,0:0:0:0:
36,276,175858,1,0,0:0:0:0:
37,247,175967,1,8,0:0:0:0:
45,219,176076,1,0,0:0:0:0:
62,196,176184,1,0,0:0:0:0:
85,179,176293,1,0,0:0:0:0:
113,173,176402,5,2,3:2:0:0:
126,191,176510,1,0,0:0:0:0:
145,203,176619,1,0,0:0:0:0:
167,209,176728,1,0,0:0:0:0:
189,209,176836,1,8,0:0:0:0:
211,206,176945,1,0,0:0:0:0:
232,198,177054,1,0,0:0:0:0:
251,185,177163,1,0,0:0:0:0:
265,167,177271,1,0,3:2:0:0:
275,146,177380,1,0,0:0:0:0:
281,123,177489,1,0,0:0:0:0:
283,100,177597,1,0,0:0:0:0:
280,77,177706,1,8,0:0:0:0:
271,55,177815,1,0,0:0:0:0:
256,37,177923,1,0,0:0:0:0:
236,25,178032,1,0,0:0:0:0:
213,20,178141,5,2,3:2:0:0:
214,37,178249,1,0,0:0:0:0:
216,54,178358,1,0,0:0:0:0:
218,71,178467,1,0,0:0:0:0:
220,88,178576,1,8,0:0:0:0:
222,104,178684,1,0,0:0:0:0:
225,120,178793,1,0,0:0:0:0:
228,136,178902,1,0,0:0:0:0:
248,155,179010,5,2,3:2:0:0:
242,183,179119,1,0,0:0:0:0:
235,211,179228,1,0,0:0:0:0:
228,238,179336,1,0,0:0:0:0:
222,266,179445,1,8,0:0:0:0:
217,294,179554,1,0,0:0:0:0:
212,322,179663,1,0,0:0:0:0:
205,349,179771,1,0,0:0:0:0:
201,383,179880,5,2,3:2:0:0:
191,351,179989,1,0,0:0:0:0:
183,317,180097,1,0,0:0:0:0:
175,283,180206,1,0,0:0:0:0:
166,249,180315,1,8,0:0:0:0:
159,215,180423,1,0,0:0:0:0:
152,181,180532,1,0,0:0:0:0:
146,146,180641,1,0,0:0:0:0:
128,109,180749,6,0,P|165:126|202:118,1,57.3750002188683,10|8,3:2|0:0,0:0:0:0:
279,48,180967,2,0,P|242:31|205:39,1,57.3750002188683,8|8,0:0|0:0,0:0:0:0:
285,146,181184,2,0,P|322:163|359:155,1,57.3750002188683,8|8,3:2|0:0,0:0:0:0:
446,78,181402,1,8,0:0:0:0:
446,78,181510,1,8,0:0:0:0:
446,78,181619,5,6,3:2:0:0:
412,109,181728,1,0,0:0:0:0:
406,154,181836,1,0,0:0:0:0:
420,197,181945,1,0,0:0:0:0:
449,232,182054,1,8,0:0:0:0:
468,273,182163,1,0,0:0:0:0:
463,318,182271,1,0,0:0:0:0:
434,353,182380,1,0,0:0:0:0:
388,361,182489,1,0,3:0:0:0:
344,347,182597,1,0,0:0:0:0:
317,309,182706,1,0,0:0:0:0:
283,277,182815,1,0,0:0:0:0:
240,260,182923,1,8,0:0:0:0:
194,266,183032,1,0,0:0:0:0:
156,293,183141,1,0,0:0:0:0:
144,337,183249,1,0,0:0:0:0:
161,379,183358,1,0,3:0:0:0:
193,346,183467,1,0,0:0:0:0:
202,300,183576,1,0,0:0:0:0:
191,255,183684,1,0,0:0:0:0:
165,216,183793,1,8,0:0:0:0:
129,186,183902,1,0,0:0:0:0:
117,141,184010,1,0,0:0:0:0:
126,95,184119,1,0,0:0:0:0:
157,61,184228,6,0,P|167:102|152:135,1,57.3750002188683,2|0,3:2|0:0,0:0:0:0:
58,225,184445,2,0,P|48:184|63:151,1,57.3750002188683
250,116,184663,2,0,P|260:157|245:190,1,57.3750002188683,8|0,0:0|0:0,0:0:0:0:
151,280,184880,2,0,P|141:239|156:206,1,57.3750002188683
257,302,185097,5,2,3:2:0:0:
289,334,185206,1,0,0:0:0:0:
333,345,185315,1,0,0:0:0:0:
377,334,185423,1,0,0:0:0:0:
412,305,185532,1,8,0:0:0:0:
431,263,185641,1,0,0:0:0:0:
432,217,185749,1,0,0:0:0:0:
414,174,185858,1,0,0:0:0:0:
381,141,185967,5,2,3:2:0:0:
356,173,186076,1,0,0:0:0:0:
322,194,186184,1,0,0:0:0:0:
281,196,186293,1,0,0:0:0:0:
242,184,186402,1,8,0:0:0:0:
209,160,186510,1,0,0:0:0:0:
191,123,186619,1,0,0:0:0:0:
194,82,186728,1,0,0:0:0:0:
214,47,186836,5,2,3:2:0:0:
234,74,186945,1,0,0:0:0:0:
243,107,187054,1,0,0:0:0:0:
234,140,187163,1,0,0:0:0:0:
215,168,187271,1,8,0:0:0:0:
207,201,187380,1,0,0:0:0:0:
210,235,187489,1,0,0:0:0:0:
222,266,187597,1,0,0:0:0:0:
243,292,187706,5,2,3:2:0:0:
262,270,187815,1,0,0:0:0:0:
261,241,187923,1,0,0:0:0:0:
248,215,188032,1,0,0:0:0:0:
224,199,188141,1,8,0:0:0:0:
195,197,188249,1,0,0:0:0:0:
168,208,188358,2,0,P|145:232|140:285,1,57.3750002188683,2|0,0:0|0:0,0:0:0:0:
184,383,188576,5,0,3:2:0:0:
223,345,188684,1,0,0:0:0:0:
273,326,188793,1,0,0:0:0:0:
327,335,188902,1,0,0:0:0:0:
372,363,189010,1,8,0:0:0:0:
425,374,189119,1,0,0:0:0:0:
474,349,189228,1,0,0:0:0:0:
500,301,189336,1,0,0:0:0:0:
500,246,189445,1,0,3:0:0:0:
481,195,189554,1,0,0:0:0:0:
436,163,189663,1,0,0:0:0:0:
382,150,189771,1,0,0:0:0:0:
331,171,189880,1,8,0:0:0:0:
296,213,189989,1,0,0:0:0:0:
281,264,190097,1,0,0:0:0:0:
240,300,190206,1,0,0:0:0:0:
185,303,190315,1,0,3:2:0:0:
134,282,190423,1,0,0:0:0:0:
102,237,190532,1,0,0:0:0:0:
97,182,190641,1,0,0:0:0:0:
125,135,190749,1,8,0:0:0:0:
176,117,190858,1,0,0:0:0:0:
229,126,190967,1,0,0:0:0:0:
270,161,191076,1,0,0:0:0:0:
293,208,191184,1,0,3:2:0:0:
340,237,191293,1,0,0:0:0:0:
394,229,191402,1,0,0:0:0:0:
435,195,191510,1,0,0:0:0:0:
457,144,191619,1,8,0:0:0:0:
442,90,191728,1,0,0:0:0:0:
405,50,191836,1,0,0:0:0:0:
350,46,191945,1,0,0:0:0:0:
305,78,192054,1,0,3:2:0:0:
289,129,192163,1,0,0:0:0:0:
303,181,192271,1,0,0:0:0:0:
333,225,192380,1,0,0:0:0:0:
339,279,192489,1,8,0:0:0:0:
315,327,192597,1,0,0:0:0:0:
263,345,192706,1,0,0:0:0:0:
210,330,192815,1,0,0:0:0:0:
176,286,192923,1,0,3:2:0:0:
173,232,193032,1,0,0:0:0:0:
194,181,193141,1,0,0:0:0:0:
235,146,193249,1,0,0:0:0:0:
250,93,193358,1,8,0:0:0:0:
229,43,193467,1,0,0:0:0:0:
181,18,193576,1,0,0:0:0:0:
126,23,193684,1,0,0:0:0:0:
81,59,193793,1,0,3:2:0:0:
69,115,193902,1,0,0:0:0:0:
85,169,194010,1,0,0:0:0:0:
129,205,194119,1,0,0:0:0:0:
185,214,194228,1,8,0:0:0:0:
233,183,194336,1,0,0:0:0:0:
273,142,194445,1,0,0:0:0:0:
313,93,194554,1,0,0:0:0:0:
373,74,194663,1,0,3:0:0:0:
440,83,194771,1,0,0:0:0:0:
489,131,194880,1,0,0:0:0:0:
503,204,194989,1,0,0:0:0:0:
475,272,195097,1,8,0:0:0:0:
415,317,195206,1,0,0:0:0:0:
340,317,195315,1,0,0:0:0:0:
285,266,195423,1,0,0:0:0:0:
267,197,195532,6,0,L|271:158,10,31.875,2|2|2|2|2|2|2|2|2|2|2,0:0|0:0|0:0|0:0|0:0|0:0|0:0|0:0|0:0|0:0|0:0,0:0:0:0:
149,263,199119,6,0,L|152:294,4,31.875,2|2|2|2|2,0:0|0:0|0:0|0:0|0:0,0:0:0:0:
332,342,200749,6,0,L|329:373,4,31.875,2|2|2|2|2,0:0|0:0|0:0|0:0|0:0,0:0:0:0:
432,214,202380,6,0,L|485:204,10,44.6249986381531,2|2|2|2|2|2|2|2|2|2|2,0:0|0:0|0:0|0:0|0:0|0:0|0:0|0:0|0:0|0:0|0:0,0:0:0:0:
298,69,205967,6,0,L|241:57,4,44.6249986381531,2|2|2|2|2,0:0|0:0|0:0|0:0|0:0,0:0:0:0:
98,222,207706,6,0,B|43:254|65:328|135:342|212:306|231:236,1,255.000009727478,4|8,3:2|0:3,0:0:0:0:
308,117,208793,1,4,0:3:0:0:
310,126,208902,2,0,L|313:155,1,15.9375006079674,4|0,0:3|0:0,0:0:0:0:
461,286,209445,6,0,B|382:263|398:340|309:311,1,161.499995687485,4|10,3:2|0:0,0:0:0:0:
219,198,210097,1,0,0:0:0:0:
115,278,210315,2,0,P|89:309|92:364,1,80.7499978437424,0|2,3:0|0:0,0:0:0:0:
17,154,210749,2,0,P|53:181|96:178,1,80.7499978437424,8|0,0:0|0:0,0:0:0:0:
245,59,211184,6,0,P|198:45|154:29,1,80.7499978437424,2|0,3:2|0:0,0:0:0:0:
267,230,211619,1,8,0:0:0:0:
338,118,211836,1,2,0:0:0:0:
140,173,212054,2,0,P|152:217|168:276,1,80.7499978437424,0|0,3:0|0:0,0:0:0:0:
373,282,212489,1,10,0:0:0:0:
271,175,212706,1,0,0:0:0:0:
152,346,212923,6,0,P|197:344|232:310,1,80.7499978437424,0|2,3:0|0:0,0:0:0:0:
364,190,213358,1,8,0:0:0:0:
319,350,213576,1,0,0:0:0:0:
161,255,213793,2,0,P|205:239|254:223,1,80.7499978437424,2|0,3:2|0:0,0:0:0:0:
317,90,214228,1,8,0:0:0:0:
400,222,214445,1,2,0:0:0:0:
241,84,214663,6,0,P|256:37|302:17,1,80.7499978437424,0|0,3:0|0:0,0:0:0:0:
173,152,215097,2,0,P|209:179|262:177,1,80.7499978437424,8|0,0:0|0:0,0:0:0:0:
432,144,215532,1,0,3:0:0:0:
318,297,215749,1,2,0:0:0:0:
320,95,215967,1,8,0:0:0:0:
460,290,216184,5,0,0:0:0:0:
444,285,216293,1,8,0:0:0:0:
426,279,216402,1,2,3:2:0:0:
406,272,216510,1,8,0:0:0:0:
388,266,216619,1,0,0:0:0:0:
216,367,216836,2,0,P|270:371|309:339,1,80.7499978437424,8|2,0:0|0:0,0:0:0:0:
164,251,217271,2,0,P|133:279|125:330,1,80.7499978437424,0|0,3:0|0:0,0:0:0:0:
291,274,217706,1,10,0:0:0:0:
196,144,217923,1,0,0:0:0:0:
400,20,218141,6,0,P|413:66|340:110,1,121.124996765614,4|0,3:2|0:0,0:0:0:0:
336,114,218576,2,0,P|296:133|285:196,1,80.7499978437424,8|0,0:0|0:0,0:0:0:0:
304,308,219010,2,0,P|337:342|392:343,1,80.7499978437424,2|0,3:2|0:0,0:0:0:0:
487,183,219445,1,8,0:0:0:0:
362,252,219663,1,2,0:0:0:0:
482,377,219880,6,0,P|493:324|506:269,1,80.7499978437424,0|0,3:0|0:0,0:0:0:0:
385,157,220315,1,10,3:2:0:0:
278,278,220532,1,0,0:0:0:0:
133,176,220749,2,0,P|125:132|115:73,1,80.7499978437424,0|2,3:2|0:0,0:0:0:0:
62,314,221184,1,8,0:0:0:0:
286,181,221402,2,0,L|317:190,2,26.9166659479141
215,160,221619,5,2,0:0:0:0:
415,264,222489,6,0,L|412:291,3,26.9166659479141,4|0|0|4,0:3|0:0|0:0|0:3,0:0:0:0:
429,355,222815,1,8,3:3:0:0:
428,365,222923,1,0,3:0:0:0:
428,365,223358,6,0,P|372:350|348:250,1,133.874995914459,4|0,3:2|0:0,0:0:0:0:
278,246,223793,2,0,P|314:215|368:221,1,89.2499972763062,10|2,0:0|0:0,0:0:0:0:
488,135,224228,2,0,P|437:141|379:56,1,133.874995914459,2|0,3:2|0:0,0:0:0:0:
364,19,224663,1,10,0:0:0:0:
251,165,224880,1,2,0:0:0:0:
83,24,225097,6,0,P|109:71|138:175,1,133.874995914459,0|2,3:0|0:0,0:0:0:0:
67,190,225532,2,0,P|100:223|151:226,1,89.2499972763062,8|2,0:0|0:0,0:0:0:0:
311,130,225967,2,0,P|265:142|237:184,1,89.2499972763062,2|0,3:2|0:0,0:0:0:0:
238,367,226402,2,0,P|250:321|227:276,1,89.2499972763062,10|0,0:0|0:0,0:0:0:0:
2,323,226836,6,0,P|47:364|137:332,1,133.874995914459,0|0,3:2|0:0,0:0:0:0:
166,293,227271,1,10,0:0:0:0:
281,384,227489,1,2,0:0:0:0:
441,192,227706,6,0,P|411:233|318:219,1,133.874995914459,2|0,3:2|0:0,0:0:0:0:
260,173,228141,1,10,0:0:0:0:
389,61,228358,1,2,0:0:0:0:
158,11,228576,6,0,P|173:63|196:169,1,133.874995914459,0|2,3:0|0:0,0:0:0:0:
149,210,229010,2,0,P|132:261|113:329,1,89.2499972763062,8|2,0:0|0:0,0:0:0:0:
243,354,229445,1,2,3:2:0:0:
56,224,229663,1,2,0:0:0:0:
268,169,229880,1,10,0:0:0:0:
70,48,230097,1,2,0:0:0:0:
279,10,230315,6,0,P|333:5|377:97,1,133.874995914459,0|0,3:2|0:0,0:0:0:0:
384,133,230749,2,0,P|399:178|456:189,1,89.2499972763062,10|2,0:0|0:0,0:0:0:0:
313,270,231184,6,0,P|254:288|164:342,1,133.874995914459,2|0,3:2|0:0,0:0:0:0:
120,308,231619,1,10,0:0:0:0:
281,373,231836,1,2,0:0:0:0:
119,223,232054,6,0,P|75:233|43:322,1,133.874995914459,0|2,3:0|0:0,0:0:0:0:
104,390,232489,2,0,P|125:351|120:308,1,89.2499972763062,8|2,0:0|0:0,0:0:0:0:
55,168,232923,2,0,P|77:205|118:222,1,89.2499972763062,2|0,3:2|0:0,0:0:0:0:
287,242,233358,2,0,P|243:242|207:269,1,89.2499972763062,10|0,0:0|0:0,0:0:0:0:
424,365,233793,6,0,P|414:296|398:194,1,133.874995914459,0|0,3:2|0:0,0:0:0:0:
452,175,234228,2,0,P|464:119|474:66,1,89.2499972763062,10|2,0:0|0:0,0:0:0:0:
323,21,234663,6,0,P|308:71|205:65,1,133.874995914459,2|0,3:2|0:0,0:0:0:0:
168,53,235097,1,10,0:0:0:0:
51,166,235315,1,2,0:0:0:0:
165,303,235532,6,0,P|191:250|281:261,1,133.874995914459,0|2,3:0|0:0,0:0:0:0:
313,299,235967,2,0,P|335:257|318:196,1,89.2499972763062,8|2,0:0|0:0,0:0:0:0:
206,88,236402,5,10,3:2:0:0:
229,62,236510,1,8,0:2:0:0:
265,49,236619,1,10,0:2:0:0:
300,54,236728,1,8,0:2:0:0:
333,75,236836,1,10,3:2:0:0:
360,112,236945,1,8,0:2:0:0:
400,138,237054,1,10,0:2:0:0:
442,139,237163,1,8,0:2:0:0:
475,98,237271,6,0,P|459:43|336:56,1,159.375,4|0,3:2|0:0,0:0:0:0:
284,69,237706,1,10,0:0:0:0:
400,209,237923,1,2,0:0:0:0:
221,288,238141,6,0,B|270:273|310:314|280:320|317:354|381:340,1,159.375,2|0,3:2|0:0,0:0:0:0:
421,299,238576,1,10,0:0:0:0:
220,382,238793,1,2,0:0:0:0:
316,235,239010,6,0,P|303:164|265:54,1,159.375,0|2,3:0|0:0,0:0:0:0:
239,4,239445,2,0,P|195:50|205:117,1,106.25,8|2,0:0|0:0,0:0:0:0:
219,242,239880,2,0,P|162:219|88:213,1,106.25,2|0,3:2|0:0,0:0:0:0:
366,380,240315,2,0,P|409:341|405:261,1,106.25,10|0,0:0|0:0,0:0:0:0:
288,124,240749,6,0,P|257:197|229:315,1,159.375,0|0,3:2|0:0,0:0:0:0:
282,333,241184,1,10,0:0:0:0:
130,194,241402,1,2,0:0:0:0:
303,22,241619,6,0,P|325:77|426:84,1,159.375,2|0,3:2|0:0,0:0:0:0:
489,45,242054,1,10,0:0:0:0:
402,252,242271,1,2,0:0:0:0:
222,133,242489,6,0,P|158:126|96:218,1,159.375,0|2,3:0|0:0,0:0:0:0:
106,269,242923,2,0,P|55:259|23:217,1,106.25,8|2,0:0|0:0,0:0:0:0:
194,22,243358,1,2,3:2:0:0:
288,252,243576,1,2,0:0:0:0:
97,190,243793,1,10,0:0:0:0:
306,51,244010,1,2,0:0:0:0:
169,170,244228,6,0,P|207:234|224:340,1,159.375,0|0,3:2|0:0,0:0:0:0:
186,374,244663,1,10,0:0:0:0:
321,227,244880,1,2,0:0:0:0:
186,88,245097,6,0,P|129:99|105:194,1,159.375,2|0,3:2|0:0,0:0:0:0:
153,266,245532,1,10,0:0:0:0:
298,161,245749,1,2,0:0:0:0:
186,88,245967,6,0,P|123:72|64:-1,1,159.375,0|2,3:0|0:0,0:0:0:0:
3,48,246402,2,0,P|-21:89|17:150,1,106.25,8|2,0:0|0:0,0:0:0:0:
64,312,246836,2,0,P|93:266|158:269,1,106.25,2|0,3:2|0:0,0:0:0:0:
297,374,247271,2,0,P|309:307|327:249,1,106.25,10|0,0:0|0:0,0:0:0:0:
456,45,247706,6,0,P|477:104|499:215,1,159.375,0|0,3:2|0:0,0:0:0:0:
463,270,248141,1,10,0:0:0:0:
304,106,248358,1,2,0:0:0:0:
149,279,248576,6,0,P|183:334|286:315,1,159.375,2|0,3:2|0:0,0:0:0:0:
335,279,249010,1,10,0:0:0:0:
189,159,249228,1,2,0:0:0:0:
396,29,249445,5,4,3:2:0:0:
295,96,249663,1,8,0:2:0:0:
282,124,249771,1,10,0:2:0:0:
285,161,249880,1,0,3:2:0:0:
146,220,250097,5,10,0:2:0:0:
163,245,250206,1,8,0:2:0:0:
197,261,250315,1,2,3:2:0:0:
221,384,250532,5,2,0:2:0:0:
251,381,250641,1,8,0:2:0:0:
282,360,250749,1,2,3:2:0:0:
409,377,250967,5,2,0:2:0:0:
421,349,251076,1,8,0:2:0:0:
418,312,251184,6,0,P|397:234|454:126,1,172.125000656605,4|0,3:2|0:0,0:0:0:0:
469,84,251619,1,10,0:0:0:0:
297,203,251836,1,2,0:0:0:0:
116,86,252054,6,0,P|156:15|270:48,1,172.125000656605,2|0,3:2|0:0,0:0:0:0:
308,47,252489,1,10,0:0:0:0:
178,180,252706,1,2,0:0:0:0:
355,287,252923,6,0,B|303:273|257:307|295:319|245:360|183:335,1,172.125000656605,0|2,3:0|0:0,0:0:0:0:
133,292,253358,2,0,P|90:319|83:391,1,114.750000437737,8|2,0:0|0:0,0:0:0:0:
240,225,253793,2,0,P|256:137|291:30,1,172.125000656605,2|0,3:2|0:0,0:0:0:0:
267,37,254228,2,0,P|304:82|387:45,1,114.750000437737,10|0,0:0|0:0,0:0:0:0:
160,207,254663,6,0,B|120:164|64:193|64:193|52:240|-9:241,1,172.125000656605,2|0,3:2|0:0,0:0:0:0:
2,154,255097,1,10,0:0:0:0:
150,291,255315,1,2,0:0:0:0:
278,126,255532,6,0,P|301:207|321:333,1,172.125000656605,2|0,3:2|0:0,0:0:0:0:
278,359,255967,1,10,0:0:0:0:
410,193,256184,1,2,0:0:0:0:
314,37,256402,6,0,P|240:38|198:155,1,172.125000656605,2|2,3:2|0:0,0:0:0:0:
171,187,256836,2,0,P|157:237|80:256,1,114.750000437737,8|2,0:0|0:0,0:0:0:0:
98,79,257271,1,2,3:2:0:0:
288,213,257489,1,2,0:0:0:0:
288,213,257597,1,0,0:0:0:0:
288,213,257706,1,10,0:0:0:0:
73,334,257923,1,2,0:0:0:0:
277,34,258141,6,0,P|305:98|431:80,1,172.125000656605,0|0,3:2|0:0,0:0:0:0:
464,45,258576,1,10,0:0:0:0:
379,265,258793,1,2,0:0:0:0:
192,136,259010,6,0,B|144:159|160:215|160:215|224:235|204:304,1,172.125000656605,2|0,3:2|0:0,0:0:0:0:
164,340,259445,1,10,0:0:0:0:
33,204,259663,1,2,0:0:0:0:
129,54,259880,6,0,B|175:36|227:77|181:89|235:131|278:115,1,172.125000656605,0|2,3:0|0:0,0:0:0:0:
341,62,260315,2,0,P|376:19|454:41,1,114.750000437737,8|2,0:0|0:0,0:0:0:0:
426,334,260749,2,0,P|409:257|369:158,1,172.125000656605,2|0,3:2|0:0,0:0:0:0:
338,144,261184,2,0,P|375:184|446:168,1,114.750000437737,10|0,0:0|0:0,0:0:0:0:
235,261,261619,6,0,B|175:280|175:280|153:323|153:323|53:349,1,172.125000656605,0|0,3:2|0:0,0:0:0:0:
29,302,262054,1,10,0:0:0:0:
156,120,262271,1,2,0:0:0:0:
294,310,262489,6,0,B|331:275|381:305|381:305|398:356|467:342,1,172.125000656605,2|0,3:2|0:0,0:0:0:0:
499,289,262923,1,10,0:0:0:0:
338,131,263141,1,2,0:0:0:0:
479,13,263358,6,0,P|512:70|436:164,1,172.125000656605,0|2,3:0|0:0,0:0:0:0:
394,180,263793,2,0,P|354:200|349:290,1,114.750000437737,8|2,0:0|0:0,0:0:0:0:
463,372,264228,5,2,3:2:0:0:
137,167,264445,1,2,3:2:0:0:
413,79,264663,1,10,3:2:0:0:
220,375,264880,1,2,3:2:0:0:
65,117,265097,5,4,3:2:0:0:
256,192,265206,12,0,272054,0:0:0:0:
