osu file format v14

[General]
AudioFilename: audio.mp3
AudioLeadIn: 0
PreviewTime: 70206
Countdown: 0
SampleSet: Soft
StackLeniency: 0.7
Mode: 0
LetterboxInBreaks: 0
WidescreenStoryboard: 0

[Editor]
Bookmarks: 98141,135097,139880,167706,195532,221619,222271,222489,237271,251184,265097
DistanceSpacing: 0.5
BeatDivisor: 4
GridSize: 32
TimelineZoom: 2.599999

[Metadata]
Title:A Fool Moon Night
TitleUnicode:A Fool Moon Night
Artist:The Koxx
ArtistUnicode:칵스
Creator:Le Mirai
Version:Insane
Source:
Tags:SirMirai Mirai Cacturne Shaun Kim Yun Ho 숀 / 김윤호 Dropshow Yoon paradogi Daycore rock english ENTER hakashii Kujinn Reform Hazu-
BeatmapID:3010441
BeatmapSetID:1465787

[Difficulty]
HPDrainRate:4.5
CircleSize:4
OverallDifficulty:8
ApproachRate:8.8
SliderMultiplier:2.3
SliderTickRate:1

[Events]
//Background and Video events
0,0,"I have to go somewhere.jpg",0,0
//Break Periods
//Storyboard Layer 0 (Background)
//Storyboard Layer 1 (Fail)
//Storyboard Layer 2 (Pass)
//Storyboard Layer 3 (Foreground)
//Storyboard Layer 4 (Overlay)
//Storyboard Sound Samples

[TimingPoints]
750,434.782608695652,4,2,1,60,1,0
750,-142.857142857143,4,2,1,60,0,0
16728,-250.000000000001,4,2,1,70,0,0
28576,-166.666666666667,4,2,1,70,0,0
41619,-250.000000000001,4,2,1,60,0,0
42489,-100,4,2,1,75,0,0
70315,-133.333333333333,4,2,1,75,0,0
71184,-100,4,2,1,75,0,0
98141,-200,4,2,1,50,0,0
105097,-200,4,2,1,65,0,0
112923,-100,4,2,1,75,0,0
139880,-100,4,2,1,85,0,0
167706,-100,4,2,1,95,0,1
195532,-100,4,2,1,35,0,0
207706,-125,4,2,1,55,0,0
207815,-125,4,2,1,35,0,0
208576,-166.666666666667,4,2,1,45,0,0
209445,-166.666666666667,4,2,1,60,0,0
221619,-111.111111111111,4,2,1,45,0,0
223358,-99.9999999999999,4,2,1,75,0,0
237271,-83.3333333333333,4,2,1,90,0,1
265097,-1000,4,2,1,70,0,0
265749,-1000,4,2,1,5,0,0

[Colours]
Combo1 : 153,102,103
Combo2 : 26,179,179
Combo3 : 164,115,66
Combo4 : 100,160,166

[HitObjects]
382,272,750,6,0,B|429:265|429:265|449:278|449:278|518:264,2,120.749996315003,6|0|0,3:2|0:0|0:0,0:0:0:0:
326,329,1619,1,0,0:0:0:0:
217,276,1945,2,0,L|216:137,1,120.749996315003
167,91,2489,5,0,0:0:0:0:
232,28,2815,2,0,B|262:5|305:31|281:40|308:44|289:28|291:50|305:31|291:50|318:74|356:69,1,120.749996315003
455,31,3358,1,0,0:0:0:0:
480,122,3684,1,0,0:0:0:0:
437,199,3902,1,0,0:0:0:0:
445,219,4010,2,0,L|454:272,1,40.2499987716675,0|2,0:0|0:2,0:0:0:0:
395,301,4228,6,0,B|337:277|337:277|303:343,2,120.749996315003,6|0|0,3:2|0:0|0:0,0:0:0:0:
476,344,5097,1,0,0:0:0:0:
450,205,5423,2,0,P|423:156|339:150,1,120.749996315003
297,207,5967,5,0,0:0:0:0:
197,138,6293,2,0,P|163:161|64:199,1,120.749996315003
22,148,6836,1,0,0:0:0:0:
124,83,7163,2,0,P|139:36|133:3,1,80.499997543335
109,0,7489,2,0,L|154:12,1,40.2499987716675,0|2,0:0|0:2,0:0:0:0:
215,35,7706,6,0,P|271:29|373:21,1,120.749996315003,2|0,3:2|0:0,0:0:0:0:
441,81,8358,1,0,0:0:0:0:
353,133,8576,1,0,0:0:0:0:
240,88,8902,1,0,0:0:0:0:
128,40,9228,1,0,0:0:0:0:
147,117,9445,5,0,0:0:0:0:
260,76,9771,1,0,0:0:0:0:
369,26,10097,1,0,0:0:0:0:
436,70,10315,2,0,P|407:121|413:217,1,120.749996315003
454,303,10967,2,0,P|436:323|423:341,1,40.2499987716675,0|2,0:0|0:2,0:0:0:0:
424,350,11184,6,0,P|387:316|330:316,1,80.499997543335,2|0,3:2|0:0,0:0:0:0:
294,343,11510,2,0,P|250:367|219:367,1,80.499997543335
208,356,11836,1,0,0:0:0:0:
265,250,12054,1,0,0:0:0:0:
404,231,12380,1,0,0:0:0:0:
497,132,12706,1,0,0:0:0:0:
424,96,12923,5,0,0:0:0:0:
389,211,13249,1,0,0:0:0:0:
347,324,13576,1,0,0:0:0:0:
292,264,13793,2,0,P|258:250|205:260,1,80.499997543335
208,267,14119,2,0,L|214:354,1,80.499997543335
221,358,14445,1,0,0:0:0:0:
150,195,14663,5,6,3:2:0:0:
347,324,15532,1,6,3:2:0:0:
310,144,16402,5,6,3:2:0:0:
259,75,16728,2,0,L|279:6,1,69
124,16,17271,6,0,L|136:79,1,46,6|0,3:2|0:0,0:0:0:0:
127,83,17597,1,2,0:0:0:0:
47,201,17923,1,2,0:0:0:0:
115,237,18141,6,0,L|125:291,1,46,6|0,3:2|0:0,0:0:0:0:
115,297,18467,2,0,L|131:370,1,69
202,182,19010,1,6,3:2:0:0:
278,165,19336,2,0,L|260:76,1,69
330,2,19880,5,6,3:2:0:0:
418,19,20206,2,0,L|400:108,1,69
458,208,20749,2,0,L|415:225,1,46,6|0,3:2|0:0,0:0:0:0:
417,240,21076,2,0,L|490:210,1,69,2|2,0:0|0:0,0:0:0:0:
496,229,21619,5,6,3:2:0:0:
366,363,22054,1,6,3:2:0:0:
252,182,22489,5,6,3:2:0:0:
200,239,22815,2,0,L|210:318,1,69
55,136,23358,5,6,3:2:0:0:
107,193,23684,2,0,L|97:272,1,69
252,182,24228,2,0,L|260:136,1,46,6|0,3:2|0:0,0:0:0:0:
264,123,24554,1,2,0:0:0:0:
400,293,24880,5,2,0:0:0:0:
330,272,25098,2,0,L|321:226,1,46,6|0,3:2|0:0,0:0:0:0:
337,217,25423,1,0,0:0:0:0:
351,201,25532,2,0,L|360:137,1,46,6|0,3:2|0:0,0:0:0:0:
428,57,25967,5,6,3:2:0:0:
496,111,26293,2,0,L|503:190,1,69
449,291,26837,5,6,3:2:0:0:
377,233,27163,2,0,L|359:322,1,69
241,169,27706,2,0,P|264:159|287:159,1,46,6|0,3:2|0:0,0:0:0:0:
311,191,28032,1,2,0:0:0:0:
305,222,28141,2,0,L|291:280,1,46,0|2,0:0|0:0,0:0:0:0:
469,345,28576,6,0,P|437:321|357:333,1,103.499996841431,6|2,3:2|0:0,0:0:0:0:
375,321,29010,2,0,P|385:279|400:232,1,68.9999978942872,6|2,3:2|0:0,0:0:0:0:
488,112,29445,6,0,P|441:123|403:72,1,103.499996841431,6|2,3:2|0:0,0:0:0:0:
404,87,29880,2,0,P|411:48|368:15,1,68.9999978942872,6|2,3:2|0:0,0:0:0:0:
223,113,30315,6,0,B|164:93|166:50|112:44,1,103.499996841431,6|2,3:2|0:0,0:0:0:0:
140,52,30749,2,0,P|90:59|45:70,1,68.9999978942872,6|2,3:2|0:0,0:0:0:0:
30,258,31184,6,0,P|61:213|34:172,1,103.499996841431,6|2,3:2|0:0,0:0:0:0:
39,175,31619,2,0,P|81:192|111:200,1,68.9999978942872,6|0,3:2|0:0,0:0:0:0:
277,372,32054,6,0,P|247:342|179:352,1,103.499996841431,6|2,3:2|0:0,0:0:0:0:
189,344,32489,2,0,P|168:307|186:264,1,68.9999978942872,6|2,3:2|0:0,0:0:0:0:
305,147,32923,6,0,P|361:167|426:186,1,103.499996841431,6|2,3:2|0:0,0:0:0:0:
403,179,33358,2,0,P|425:152|416:114,1,68.9999978942872,6|2,3:2|0:0,0:0:0:0:
213,6,33793,6,0,P|217:52|224:121,1,103.499996841431,6|2,3:2|0:0,0:0:0:0:
222,109,34228,2,0,P|184:101|146:97,1,68.9999978942872,6|2,3:2|0:0,0:0:0:0:
28,305,34663,6,0,P|88:282|148:273,1,103.499996841431,6|2,3:2|0:0,0:0:0:0:
126,274,35097,2,0,P|120:309|115:349,1,68.9999978942872,6|2,3:2|0:0,0:0:0:0:
329,361,35532,6,0,P|336:317|276:300,1,103.499996841431,6|2,3:2|0:0,0:0:0:0:
275,298,35967,1,6,3:2:0:0:
348,166,36184,1,2,0:0:0:0:
444,347,36402,2,0,P|475:309|462:235,1,103.499996841431,6|2,3:2|0:0,0:0:0:0:
457,246,36836,1,6,3:2:0:0:
281,129,37054,1,2,0:0:0:0:
481,9,37271,6,0,P|475:62|409:74,1,103.499996841431,6|2,3:2|0:0,0:0:0:0:
424,76,37706,1,6,3:2:0:0:
270,0,37923,1,2,0:0:0:0:
185,219,38141,6,0,P|177:154|166:90,1,103.499996841431,6|2,3:2|0:0,0:0:0:0:
164,107,38576,5,6,3:2:0:0:
43,280,38793,1,2,0:0:0:0:
256,192,39010,12,6,40749,3:2:0:0:
278,177,41619,5,4,0:3:0:0:
350,240,41836,2,0,L|342:258,2,15.3333333333333,4|0|0,0:3|0:0|0:0,0:0:0:0:
410,292,42054,1,0,3:0:0:0:
410,292,42489,6,0,B|420:242|446:250|444:177,1,115,4|0,3:2|0:0,0:0:0:0:
397,133,42815,2,0,B|367:125|367:125|322:142,1,57.5,0|10,0:0|0:0,0:0:0:0:
270,252,43141,1,2,0:0:0:0:
162,167,43358,2,0,B|94:149|135:127|46:107,1,115,2|0,3:2|0:0,0:0:0:0:
21,56,43684,2,0,B|26:26|26:26|57:15,1,57.5,0|10,0:0|0:0,0:0:0:0:
59,191,44011,1,2,0:0:0:0:
203,77,44228,5,0,3:0:0:0:
259,276,44554,1,2,0:0:0:0:
295,334,44663,2,0,B|341:345|341:345|360:340|360:340|406:350,1,115,8|2,0:0|0:0,0:0:0:0:
492,242,45097,2,0,L|368:213,1,115,2|0,3:2|0:0,0:0:0:0:
340,158,45423,2,0,P|340:122|361:95,1,57.5,0|10,0:0|0:0,0:0:0:0:
476,162,45750,1,0,0:0:0:0:
304,226,45967,6,0,B|246:246|267:269|211:292,1,115,0|0,3:2|0:0,0:0:0:0:
144,275,46293,2,0,B|122:257|122:257|131:216,1,57.5,0|10,0:0|0:0,0:0:0:0:
318,301,46619,1,2,0:0:0:0:
413,201,46836,2,0,P|433:249|423:313,1,115,2|0,3:2|0:0,0:0:0:0:
479,352,47163,2,0,P|460:372|432:377,1,57.5,0|10,0:0|0:0,0:0:0:0:
318,301,47489,1,2,0:0:0:0:
373,125,47706,5,0,3:0:0:0:
241,285,48033,1,2,0:0:0:0:
195,234,48141,2,0,P|159:219|70:230,1,115,8|2,0:0|0:0,0:0:0:0:
132,300,48576,5,2,3:2:0:0:
195,234,48793,1,2,0:0:0:0:
218,100,49011,1,10,0:0:0:0:
86,22,49228,1,2,0:0:0:0:
34,198,49445,6,0,P|102:177|168:162,1,115,0|0,3:2|0:0,0:0:0:0:
209,191,49771,2,0,P|222:220|210:262,1,57.5,0|10,0:0|0:0,0:0:0:0:
115,339,50098,1,2,0:0:0:0:
250,361,50315,2,0,B|301:355|301:355|321:362|321:362|385:353,1,115,2|0,3:2|0:0,0:0:0:0:
417,312,50641,2,0,L|403:245,1,57.5,0|10,0:0|0:0,0:0:0:0:
439,121,50967,1,2,0:0:0:0:
322,263,51184,5,0,3:0:0:0:
294,58,51510,1,2,0:0:0:0:
353,93,51619,2,0,P|400:45|465:36,1,115,8|2,0:0|0:0,0:0:0:0:
419,170,52054,2,0,P|473:186|510:228,1,115,2|0,3:2|0:0,0:0:0:0:
490,295,52380,2,0,P|454:312|423:308,1,57.5,0|10,0:0|0:0,0:0:0:0:
343,209,52706,1,0,0:0:0:0:
237,359,52923,6,0,B|164:354|204:332|112:323,1,115,0|0,3:2|0:0,0:0:0:0:
68,290,53249,2,0,B|56:265|56:265|82:232,1,57.5,0|10,0:0|0:0,0:0:0:0:
224,280,53576,1,2,0:0:0:0:
343,209,53793,2,0,P|334:154|276:138,1,115,2|0,3:2|0:0,0:0:0:0:
261,70,54119,2,0,P|227:87|216:116,1,57.5,0|10,0:0|0:0,0:0:0:0:
160,221,54446,1,2,0:0:0:0:
343,209,54663,5,0,3:0:0:0:
228,381,54989,1,2,0:0:0:0:
289,349,55097,2,0,P|296:295|246:239,1,115,8|2,0:0|0:0,0:0:0:0:
150,327,55532,1,2,3:2:0:0:
73,278,55749,2,0,L|60:216,1,57.5,2|8,0:0|0:0,0:0:0:0:
111,173,55967,2,0,L|122:116,1,57.5,2|8,3:2|0:0,0:0:0:0:
106,93,56184,1,2,0:0:0:0:
232,11,56402,6,0,P|292:36|386:37,1,115,4|0,3:2|0:0,0:0:0:0:
399,79,56728,2,0,P|409:111|392:158,1,57.5,0|10,0:0|0:0,0:0:0:0:
323,245,57054,1,2,0:0:0:0:
210,165,57271,2,0,B|142:183|183:205|94:225,1,115,2|0,3:2|0:0,0:0:0:0:
60,174,57597,2,0,B|65:144|65:144|96:133,1,57.5,0|10,0:0|0:0,0:0:0:0:
218,241,57924,1,2,0:0:0:0:
73,354,58141,5,0,3:0:0:0:
274,307,58467,1,2,0:0:0:0:
332,269,58576,2,0,P|349:214|329:153,1,115,8|2,0:0|0:0,0:0:0:0:
240,58,59010,2,0,L|128:84,1,115,2|0,3:2|0:0,0:0:0:0:
66,53,59336,2,0,P|66:17|87:-10,1,57.5,0|10,0:0|0:0,0:0:0:0:
67,124,59663,1,0,0:0:0:0:
211,237,59880,6,0,B|257:228|257:228|275:235|275:235|355:224,1,115,0|0,3:2|0:0,0:0:0:0:
373,181,60206,2,0,L|361:112,1,57.5,0|10,0:0|0:0,0:0:0:0:
401,257,60532,1,2,0:0:0:0:
298,348,60749,2,0,P|219:332|154:323,1,115,2|0,3:2|0:0,0:0:0:0:
115,332,61076,2,0,P|97:354|96:382,1,57.5,0|10,0:0|0:0,0:0:0:0:
145,253,61402,1,2,0:0:0:0:
298,348,61619,5,0,3:0:0:0:
440,207,61946,1,2,0:0:0:0:
381,255,62054,2,0,P|360:192|338:121,1,115,8|2,0:0|0:0,0:0:0:0:
390,52,62489,5,2,3:2:0:0:
500,120,62706,1,2,0:0:0:0:
486,279,62924,1,10,0:0:0:0:
332,384,63141,1,2,0:0:0:0:
367,203,63358,6,0,P|397:251|386:322,1,115,0|0,3:2|0:0,0:0:0:0:
451,344,63684,2,0,P|429:370|382:375,1,57.5,0|10,0:0|0:0,0:0:0:0:
316,272,64011,1,2,0:0:0:0:
205,354,64228,2,0,P|118:360|60:365,1,115,2|0,3:2|0:0,0:0:0:0:
37,317,64554,2,0,P|20:291|33:252,1,57.5,0|10,0:0|0:0,0:0:0:0:
65,134,64880,1,2,0:0:0:0:
183,275,65098,5,0,3:0:0:0:
252,80,65423,1,2,0:0:0:0:
169,52,65532,2,0,L|196:183,1,115,8|2,0:0|0:0,0:0:0:0:
320,216,65967,2,0,B|373:182|331:163|417:116,1,115,2|0,3:2|0:0,0:0:0:0:
417,65,66293,2,0,B|396:42|396:42|359:54,1,57.5,0|10,0:0|0:0,0:0:0:0:
426,201,66619,1,0,0:0:0:0:
292,326,66836,6,0,B|219:321|259:299|167:290,1,115,0|0,3:2|0:0,0:0:0:0:
118,315,67162,2,0,B|100:337|100:337|110:364,1,57.5,0|10,0:0|0:0,0:0:0:0:
280,251,67489,1,2,0:0:0:0:
145,221,67706,2,0,P|132:159|169:102,1,115,2|0,3:2|0:0,0:0:0:0:
107,63,68032,2,0,P|151:41|172:46,1,57.5,0|10,0:0|0:0,0:0:0:0:
210,170,68359,1,2,0:0:0:0:
34,117,68576,5,0,3:0:0:0:
118,315,68902,1,2,0:0:0:0:
166,235,69010,2,0,L|35:244,1,115,8|2,0:0|0:0,0:0:0:0:
207,315,69445,1,2,3:2:0:0:
315,217,69663,6,0,L|323:160,1,57.5,2|8,0:0|0:0,0:0:0:0:
298,139,69881,2,0,L|288:82,1,57.5,2|8,3:2|0:0,0:0:0:0:
331,25,70097,1,2,0:0:0:0:
508,237,70315,6,0,P|443:268|377:237,1,129.375004935265,2|2,0:2|0:0,0:0:0:0:
376,247,70749,2,0,P|373:289|398:323,1,86.2500032901765,2|2,0:0|0:0,0:0:0:0:
444,176,71184,2,0,B|434:126|408:134|410:61,1,115,6|0,3:2|0:0,0:0:0:0:
429,52,71510,1,0,0:0:0:0:
444,52,71619,1,10,0:0:0:0:
354,168,71836,1,2,0:0:0:0:
185,93,72054,6,0,B|136:66|136:66|74:119,1,115,0|0,3:0|0:0,0:0:0:0:
93,122,72380,1,2,0:0:0:0:
97,132,72489,1,8,0:0:0:0:
201,15,72706,1,2,0:0:0:0:
284,124,72923,2,0,P|316:74|307:14,1,115,2|0,3:2|0:0,0:0:0:0:
289,22,73249,1,0,0:0:0:0:
296,44,73358,2,0,B|349:38|349:38|361:42|361:42|438:34,1,115,10|0,0:0|0:0,0:0:0:0:
503,195,73792,6,0,L|379:166,1,115,2|0,3:2|0:0,0:0:0:0:
346,221,74119,2,0,P|346:257|367:284,1,57.5,0|10,0:0|0:0,0:0:0:0:
462,112,74445,1,2,0:0:0:0:
319,150,74662,2,0,B|261:170|282:193|226:216,1,115,2|0,3:2|0:0,0:0:0:0:
157,208,74988,2,0,B|135:190|135:190|144:149,1,57.5,0|10,0:0|0:0,0:0:0:0:
187,292,75314,1,2,0:0:0:0:
355,367,75532,6,0,P|427:347|479:335,1,115,2|0,3:2|0:0,0:0:0:0:
475,349,75858,1,2,0:0:0:0:
459,359,75967,2,0,P|405:346|384:295,1,115,8|2,0:0|0:0,0:0:0:0:
469,202,76402,1,2,3:2:0:0:
496,78,76619,1,2,0:0:0:0:
347,1,76836,1,10,0:0:0:0:
391,182,77054,1,2,0:0:0:0:
428,18,77271,6,0,P|350:39|272:62,1,115,0|0,3:2|0:0,0:0:0:0:
312,60,77597,1,0,0:0:0:0:
310,69,77706,1,10,0:0:0:0:
244,189,77923,1,2,0:0:0:0:
139,98,78141,2,0,P|100:154|109:210,1,115,2|0,3:2|0:0,0:0:0:0:
35,227,78467,2,0,P|52:253|95:271,1,57.5,0|10,0:0|0:0,0:0:0:0:
175,166,78793,1,2,0:0:0:0:
86,5,79010,6,0,P|161:20|227:26,1,115,0|0,3:0|0:0,0:0:0:0:
256,63,79336,2,0,P|266:94|243:143,1,57.5,2|8,0:0|0:0,0:0:0:0:
103,198,79662,1,2,0:0:0:0:
26,313,79880,2,0,L|190:283,1,115,2|0,3:2|0:0,0:0:0:0:
149,302,80205,1,0,0:0:0:0:
157,312,80315,2,0,L|287:327,1,115,10|0,0:0|0:0,0:0:0:0:
449,370,80749,6,0,P|470:300|436:251,1,115,0|0,3:2|0:0,0:0:0:0:
436,263,81076,1,0,0:0:0:0:
422,268,81184,1,10,0:0:0:0:
340,379,81401,1,2,0:0:0:0:
242,275,81618,2,0,B|169:270|209:248|117:239,1,115,2|0,3:2|0:0,0:0:0:0:
126,249,81945,1,0,0:0:0:0:
122,256,82054,1,10,0:0:0:0:
241,187,82271,1,2,0:0:0:0:
424,158,82489,6,0,B|444:105|444:105|375:67,1,115,0|0,3:0|0:0,0:0:0:0:
353,20,82815,2,0,P|323:39|287:47,1,57.5,2|8,0:0|0:0,0:0:0:0:
166,16,83141,1,2,0:0:0:0:
302,45,83358,1,2,3:2:0:0:
372,164,83575,1,2,0:0:0:0:
361,195,83684,1,8,0:0:0:0:
354,204,83793,2,0,P|365:271|365:271,1,57.5,2|8,3:2|0:0,0:0:0:0:
388,247,84010,6,0,L|378:374,1,115,2|2,0:0|0:2,0:0:0:0:
364,359,85097,2,0,P|306:333|267:392,1,115,6|0,3:2|0:0,0:0:0:0:
284,371,85423,1,0,0:0:0:0:
296,372,85532,1,10,0:0:0:0:
277,235,85749,1,2,0:0:0:0:
136,354,85967,6,0,B|93:334|93:334|85:314|85:314|20:287,1,115,0|0,3:0|0:0,0:0:0:0:
36,302,86293,1,2,0:0:0:0:
33,314,86402,1,8,0:0:0:0:
166,280,86619,1,2,0:0:0:0:
72,178,86836,2,0,L|97:64,1,115,2|0,3:2|0:0,0:0:0:0:
108,75,87163,1,0,0:0:0:0:
110,87,87271,2,0,P|43:57|67:1,1,115,10|0,0:0|0:0,0:0:0:0:
228,10,87706,6,0,L|206:138,1,115,2|0,3:2|0:0,0:0:0:0:
255,174,88032,2,0,P|287:186|331:172,1,57.5,0|10,0:0|0:2,0:0:0:0:
321,45,88358,1,2,0:0:0:0:
208,123,88576,2,0,P|146:126|72:130,1,115,2|0,3:2|0:0,0:0:0:0:
39,172,88902,2,0,P|30:204|51:241,1,57.5,0|10,0:0|0:0,0:0:0:0:
138,319,89227,1,2,0:0:0:0:
293,219,89445,6,0,P|295:275|261:320,1,115,0|0,3:0|0:0,0:0:0:0:
243,306,89771,1,2,0:0:0:0:
256,297,89880,2,0,P|312:308|400:348,1,115,8|2,0:0|0:0,0:0:0:0:
467,264,90315,5,2,3:2:0:0:
512,140,90532,1,2,0:0:0:0:
419,19,90749,1,10,0:0:0:0:
219,45,90967,1,2,0:0:0:0:
310,204,91184,6,0,P|339:148|311:83,1,115,0|0,3:2|0:0,0:0:0:0:
306,98,91510,1,0,0:0:0:0:
290,113,91619,1,10,0:0:0:0:
231,237,91836,1,2,0:0:0:0:
102,184,92054,2,0,P|73:128|101:63,1,115,2|0,3:2|0:0,0:0:0:0:
27,34,92380,2,0,P|57:13|101:11,1,57.5,0|10,0:0|0:0,0:0:0:0:
157,121,92706,1,2,0:0:0:0:
308,225,92923,6,0,B|385:201|339:197|418:170,1,115,0|0,3:0|0:0,0:0:0:0:
469,208,93249,2,0,B|483:238|483:238|456:288,1,57.5,2|8,0:0|0:0,0:0:0:0:
309,150,93575,1,2,0:0:0:0:
376,8,93793,2,0,P|403:45|384:120,1,115,2|0,3:2|0:0,0:0:0:0:
379,105,94118,1,0,0:0:0:0:
387,95,94228,2,0,L|506:71,1,115,10|0,0:0|0:0,0:0:0:0:
315,61,94663,6,0,L|178:34,1,115,0|0,3:2|0:0,0:0:0:0:
187,53,94989,1,0,0:0:0:0:
190,64,95097,1,10,0:0:0:0:
240,193,95314,1,2,0:0:0:0:
382,187,95531,2,0,B|455:192|419:217|507:223,1,115,2|0,3:2|0:0,0:0:0:0:
491,235,95858,1,0,0:0:0:0:
488,245,95967,1,10,0:0:0:0:
389,343,96184,1,2,0:0:0:0:
193,282,96402,6,0,B|147:246|147:246|160:156,1,115,0|0,3:0|0:0,0:0:0:0:
185,123,96728,2,0,P|202:94|190:43,1,57.5,2|8,0:0|0:0,0:0:0:0:
241,203,97054,1,2,0:0:0:0:
349,280,97271,6,0,P|308:266|279:265,1,57.5,10|8,3:2|0:0,0:0:0:0:
156,346,97489,1,10,0:0:0:0:
182,339,97597,1,8,0:0:0:0:
208,332,97706,1,10,3:2:0:0:
102,136,97923,5,8,0:0:0:0:
102,154,98032,1,10,0:0:0:0:
104,172,98141,2,0,B|59:195|6:185|-24:123|-24:123|0:33|171:37|96:128|250:108,1,460,4|0,3:2|0:0,0:0:0:0:
330,209,101619,6,0,B|331:372|470:420|542:348|521:239|446:238|446:238|480:269|461:299,1,460,2|2,0:0|0:0,0:0:0:0:
31,26,105097,6,0,B|39:83|74:79|76:152,1,115,4|0,3:2|3:2,0:0:0:0:
135,177,105749,2,0,P|170:163|194:162,1,57.5,2|2,0:2|3:2,0:0:0:0:
238,221,106184,2,0,P|273:235|297:236,1,57.5,2|2,0:2|3:2,0:0:0:0:
346,170,106619,1,0,0:0:0:0:
403,298,106836,6,0,P|418:253|488:247,1,115,2|0,3:2|3:2,0:0:0:0:
466,338,107489,1,2,0:2:0:0:
390,308,107706,1,2,3:2:0:0:
314,349,107923,2,0,L|245:360,2,57.5,2|2|0,0:2|3:2|0:0,0:0:0:0:
400,234,108576,6,0,P|356:212|373:137,1,115,2|0,3:2|3:2,0:0:0:0:
313,87,109228,2,0,L|238:101,1,57.5,2|2,0:2|3:2,0:0:0:0:
207,162,109663,2,0,L|282:176,1,57.5,2|2,0:2|3:2,0:0:0:0:
322,221,110097,1,2,0:2:0:0:
304,342,110315,6,0,B|197:341|243:263|114:261,1,201.25,4|0,3:2|0:0,0:0:0:0:
122,271,111184,1,8,0:3:0:0:
149,355,111402,1,4,0:3:0:0:
149,355,111510,1,4,0:3:0:0:
149,355,111619,1,4,0:3:0:0:
149,355,112054,5,2,0:2:0:0:
149,355,112380,5,2,0:0:0:0:
234,194,112706,1,2,0:0:0:0:
173,271,112923,2,0,L|302:268,1,115,6|0,3:2|0:0,0:0:0:0:
351,304,113249,2,0,P|368:326|356:375,1,57.5,0|10,0:0|0:0,0:0:0:0:
353,217,113575,1,2,0:0:0:0:
188,132,113793,6,0,B|136:122|136:122|125:126|125:126|55:111,1,115,0|0,3:0|0:0,0:0:0:0:
31,62,114119,2,0,L|54:-2,1,57.5,2|8,0:0|0:0,0:0:0:0:
0,137,114445,1,2,0:0:0:0:
115,50,114662,1,2,3:2:0:0:
168,249,114988,1,0,0:0:0:0:
182,171,115097,2,0,P|117:187|96:262,1,115,10|0,0:0|0:0,0:0:0:0:
223,357,115532,6,0,B|297:339|261:321|356:310,1,115,2|0,3:2|0:0,0:0:0:0:
361,323,115858,1,0,0:0:0:0:
356,315,115967,1,10,0:0:0:0:
285,137,116184,1,2,0:0:0:0:
205,249,116401,2,0,B|147:229|168:206|112:183,1,115,2|0,3:2|0:0,0:0:0:0:
105,168,116728,1,0,0:0:0:0:
102,157,116836,1,10,0:0:0:0:
93,259,117053,1,2,0:0:0:0:
263,189,117271,6,0,P|283:237|273:301,1,115,2|0,3:2|0:0,0:0:0:0:
298,363,117597,2,0,L|367:348,1,57.5,2|8,0:0|0:0,0:0:0:0:
490,375,117923,1,2,0:0:0:0:
458,240,118140,5,2,3:2:0:0:
373,267,118358,1,2,0:0:0:0:
247,207,118576,1,10,0:0:0:0:
208,42,118793,1,2,0:0:0:0:
340,174,119010,6,0,P|373:105|355:48,1,115,0|0,3:2|0:0,0:0:0:0:
413,12,119336,2,0,P|379:-3|353:-5,1,57.5,0|10,0:0|0:0,0:0:0:0:
276,107,119663,1,2,0:0:0:0:
156,37,119880,2,0,P|211:3|266:21,1,115,2|0,3:2|0:0,0:0:0:0:
260,25,120206,1,0,0:0:0:0:
259,33,120315,1,10,0:0:0:0:
217,164,120532,1,2,0:0:0:0:
104,308,120749,6,0,B|55:291|55:291|40:275|40:275|0:262,1,115,0|0,3:0|0:0,0:0:0:0:
0,277,121076,1,2,0:0:0:0:
0,286,121184,1,8,0:0:0:0:
121,221,121401,1,2,0:0:0:0:
215,322,121619,2,0,P|246:275|224:205,1,115,2|0,3:2|0:0,0:0:0:0:
219,225,121944,1,0,0:0:0:0:
231,233,122054,2,0,L|358:216,1,115,10|0,0:0|0:0,0:0:0:0:
505,127,122489,6,0,B|440:114|478:88|378:80,1,115,0|0,3:2|0:0,0:0:0:0:
332,93,122815,2,0,B|316:116|316:116|341:164,1,57.5,0|10,0:0|0:0,0:0:0:0:
504,43,123140,1,2,0:0:0:0:
405,162,123358,2,0,P|425:239|434:290,1,115,2|0,3:2|0:0,0:0:0:0:
473,328,123684,2,0,P|500:333|545:297,1,57.5,0|10,0:0|0:0,0:0:0:0:
395,343,124010,1,2,0:0:0:0:
247,232,124228,6,0,P|175:220|104:212,1,115,0|0,3:0|0:0,0:0:0:0:
129,226,124554,1,2,0:0:0:0:
129,234,124663,1,8,0:0:0:0:
58,352,124880,1,2,0:0:0:0:
18,219,125097,1,2,3:2:0:0:
133,306,125315,1,2,0:0:0:0:
158,322,125423,1,8,0:0:0:0:
165,329,125532,2,0,L|220:314,1,57.5,2|8,3:2|0:0,0:0:0:0:
243,319,125749,1,2,0:0:0:0:
289,140,125967,6,0,B|233:127|233:127|228:121|228:121|159:104,1,115,2|0,0:2|0:0,0:0:0:0:
170,113,126293,1,2,0:0:0:0:
167,120,126402,1,2,0:0:0:0:
261,220,126619,1,2,0:0:0:0:
373,140,126836,2,0,P|411:127|483:162,1,115,2|0,3:2|0:0,0:0:0:0:
492,222,127163,2,0,P|483:249|463:270,1,57.5,0|10,0:0|0:0,0:0:0:0:
338,211,127489,1,2,0:0:0:0:
171,119,127705,6,0,B|103:101|144:79|55:59,1,115,0|0,3:0|0:0,0:0:0:0:
6,80,128032,2,0,B|-11:104|-11:104|3:134,1,57.5,2|8,0:0|0:0,0:0:0:0:
62,254,128358,1,2,0:0:0:0:
246,240,128576,2,0,P|198:204|133:214,1,115,2|0,3:2|0:0,0:0:0:0:
138,224,128902,1,0,0:0:0:0:
140,238,129010,2,0,L|166:350,1,115,10|0,0:0|0:0,0:0:0:0:
328,262,129445,6,0,L|302:374,1,115,2|0,3:2|0:0,0:0:0:0:
311,375,129770,1,0,0:0:0:0:
322,371,129880,1,10,0:2:0:0:
420,273,130097,1,2,0:0:0:0:
322,117,130314,2,0,B|277:100|277:100|264:85|264:85|219:71,1,115,2|0,3:2|0:0,0:0:0:0:
211,86,130640,1,0,0:0:0:0:
214,101,130748,1,10,0:0:0:0:
337,38,130966,1,2,0:0:0:0:
464,187,131184,6,0,L|480:66,1,115,0|0,3:0|0:0,0:0:0:0:
466,0,131510,2,0,P|438:9|419:29,1,57.5,2|8,0:0|0:0,0:0:0:0:
387,164,131836,1,2,0:0:0:0:
462,278,132053,5,2,3:2:0:0:
360,239,132271,1,2,0:0:0:0:
363,364,132489,1,10,0:0:0:0:
457,196,132706,1,2,0:0:0:0:
265,309,132923,6,0,P|190:295|134:284,1,115,0|0,3:2|0:0,0:0:0:0:
92,237,133249,2,0,P|84:206|97:165,1,57.5,0|10,0:0|0:0,0:0:0:0:
225,197,133575,1,2,0:0:0:0:
67,313,133793,2,0,P|23:273|23:206,1,115,2|0,3:2|0:0,0:0:0:0:
62,167,134119,2,0,P|77:131|60:89,1,57.5,0|10,0:0|0:0,0:0:0:0:
0,0,134445,1,2,0:0:0:0:
170,67,134663,6,0,B|220:58|220:58|232:45|232:45|309:34,1,115,0|0,3:0|0:0,0:0:0:0:
297,50,134989,1,2,0:0:0:0:
296,66,135097,1,8,0:0:0:0:
382,173,135314,1,2,0:0:0:0:
486,37,135532,2,0,P|405:59|355:72,1,115,2|0,3:2|0:0,0:0:0:0:
380,78,135857,1,0,0:0:0:0:
393,92,135967,2,0,P|416:22|371:-5,1,115,10|0,0:0|0:0,0:0:0:0:
288,152,136402,6,0,P|301:215|317:301,1,115,0|0,3:2|0:0,0:0:0:0:
327,273,136727,1,0,0:0:0:0:
335,276,136836,1,10,0:0:0:0:
458,149,137053,1,2,0:0:0:0:
285,73,137271,2,0,B|212:68|252:46|160:37,1,115,2|0,3:2|0:0,0:0:0:0:
114,68,137597,2,0,B|96:90|96:90|106:117,1,57.5,0|10,0:0|0:0,0:0:0:0:
243,286,137923,1,2,0:0:0:0:
436,171,138141,6,0,P|473:134|442:72,1,115,0|0,3:0|0:0,0:0:0:0:
403,26,138467,2,0,P|374:29|341:33,1,57.5,2|8,0:0|0:0,0:0:0:0:
177,0,138793,1,2,0:0:0:0:
64,172,139010,2,0,L|54:240,1,57.5,10|8,3:2|0:0,0:0:0:0:
28,304,139228,1,10,0:0:0:0:
47,307,139336,1,8,0:0:0:0:
66,309,139445,1,10,3:2:0:0:
202,380,139663,1,8,0:0:0:0:
176,382,139771,1,10,0:0:0:0:
153,365,139880,6,0,P|166:309|245:305,1,115,4|0,3:2|0:0,0:0:0:0:
230,298,140206,1,2,3:2:0:0:
228,304,140315,1,8,0:0:0:0:
344,377,140532,1,2,3:2:0:0:
463,307,140749,2,0,P|436:273|358:270,1,115,2|0,0:0|0:0,0:0:0:0:
365,280,141076,1,2,0:0:0:0:
381,271,141184,2,0,B|394:217|394:217|402:210|402:210|415:150,1,115,8|2,0:0|0:0,0:0:0:0:
506,2,141620,5,2,3:2:0:0:
480,24,141728,2,0,L|361:8,1,115,8|2,0:0|3:2,0:0:0:0:
314,63,142054,2,0,L|187:84,1,115,8|2,0:0|3:2,0:0:0:0:
152,180,142489,5,2,0:0:0:0:
246,28,142707,1,2,0:0:0:0:
305,189,142924,1,10,0:0:0:0:
135,87,143141,1,2,0:0:0:0:
335,107,143359,6,0,L|396:98,1,57.5,2|0,3:2|0:0,0:0:0:0:
411,105,143576,1,8,0:0:0:0:
431,111,143684,2,0,P|458:142|467:215,1,115,2|0,3:2|0:0,0:0:0:0:
454,230,144010,1,2,3:2:0:0:
382,345,144228,2,0,B|312:331|342:312|261:302,1,115,2|0,0:0|0:0,0:0:0:0:
237,241,144554,1,2,0:0:0:0:
237,241,144663,2,0,P|209:250|177:257,1,57.5,8|0,0:0|0:0,0:0:0:0:
155,323,144880,1,2,0:0:0:0:
93,155,145097,6,0,P|64:216|95:278,1,115,2|8,3:2|0:0,0:0:0:0:
89,258,145423,2,0,P|50:202|-18:198,1,115,2|0,3:2|0:0,0:0:0:0:
0,206,145749,1,2,3:2:0:0:
181,256,145967,2,0,B|253:230|210:212|297:189,1,115,2|0,0:0|0:0,0:0:0:0:
300,208,146293,2,0,B|239:192|269:173|193:154,1,115,2|0,0:0|0:0,0:0:0:0:
194,138,146619,1,2,0:0:0:0:
276,52,146836,6,0,B|321:14|321:14|391:46,1,115,4|0,3:2|0:0,0:0:0:0:
441,78,147163,1,2,3:2:0:0:
441,78,147271,2,0,P|432:112|428:143,1,57.5,8|0,0:0|0:0,0:0:0:0:
480,190,147489,1,2,3:2:0:0:
403,255,147706,2,0,P|463:293|521:278,1,115,2|0,0:0|0:0,0:0:0:0:
511,277,148032,2,0,P|454:274|410:309,1,115,2|0,0:0|0:0,0:0:0:0:
413,338,148358,1,2,0:0:0:0:
226,287,148576,5,2,3:2:0:0:
212,273,148684,2,0,L|220:337,1,57.5,8|0,0:0|0:0,0:0:0:0:
300,219,148902,1,2,3:2:0:0:
314,204,149010,2,0,L|298:322,1,115,8|2,0:0|3:2,0:0:0:0:
138,217,149446,5,2,0:0:0:0:
129,361,149663,1,2,0:0:0:0:
99,132,149880,1,10,0:0:0:0:
212,273,150098,1,2,0:0:0:0:
45,358,150315,6,0,P|24:309|54:242,1,115,2|8,3:2|0:0,0:0:0:0:
23,187,150641,2,0,P|15:151|4:120,1,57.5,2|0,3:2|0:0,0:0:0:0:
61,73,150967,1,2,3:2:0:0:
223,176,151184,2,0,P|253:120|230:56,1,115,2|0,0:0|0:0,0:0:0:0:
220,65,151510,1,2,0:0:0:0:
206,66,151619,1,8,0:0:0:0:
149,192,151837,1,2,0:0:0:0:
297,300,152054,5,2,3:2:0:0:
378,187,152272,1,8,0:0:0:0:
381,199,152380,1,2,3:2:0:0:
451,338,152707,2,0,P|482:323|516:314,1,57.5,2|0,3:2|0:0,0:0:0:0:
506,331,152923,2,0,P|471:282|477:211,1,115,2|0,0:0|0:0,0:0:0:0:
483,216,153249,1,2,0:0:0:0:
501,210,153358,1,8,0:0:0:0:
386,287,153576,1,2,0:0:0:0:
220,207,153793,6,0,B|156:190|188:168|105:146,1,115,4|0,3:2|0:0,0:0:0:0:
113,172,154119,1,2,3:2:0:0:
114,182,154228,1,8,0:0:0:0:
168,308,154445,1,2,3:2:0:0:
297,258,154663,2,0,P|316:188|275:130,1,115,2|0,0:0|0:0,0:0:0:0:
284,155,154989,1,2,0:0:0:0:
301,170,155097,2,0,P|366:162|429:155,1,115,8|2,0:0|0:0,0:0:0:0:
506,2,155532,5,2,3:2:0:0:
480,24,155641,2,0,P|431:4|361:8,1,115,8|2,0:0|3:2,0:0:0:0:
324,59,155967,2,0,P|266:82|197:80,1,115,8|2,0:0|3:2,0:0:0:0:
86,7,156402,5,2,0:0:0:0:
178,153,156620,1,2,0:0:0:0:
21,77,156837,1,10,0:0:0:0:
201,175,157054,1,2,0:0:0:0:
0,162,157271,6,0,P|12:199|23:248,1,57.5,2|0,3:2|0:0,0:0:0:0:
36,229,157489,1,8,0:0:0:0:
53,249,157597,2,0,P|54:313|-1:339,1,115,2|0,3:2|0:0,0:0:0:0:
4,328,157923,1,2,3:2:0:0:
150,325,158141,2,0,B|201:331|201:331|205:339|205:339|278:349,1,115,2|0,0:0|0:0,0:0:0:0:
285,337,158467,1,2,0:0:0:0:
308,328,158576,2,0,L|312:266,1,57.5,8|0,0:0|0:0,0:0:0:0:
340,264,158793,1,2,0:0:0:0:
482,156,159010,6,0,P|411:161|350:164,1,115,2|8,3:2|0:0,0:0:0:0:
347,160,159336,2,0,P|319:108|360:56,1,115,2|0,3:2|0:0,0:0:0:0:
362,64,159663,1,2,3:2:0:0:
238,125,159880,2,0,B|190:105|190:105|182:86|182:86|142:64,1,115,2|0,0:0|0:0,0:0:0:0:
121,65,160206,2,0,L|1:101,1,115,2|0,0:0|0:0,0:0:0:0:
14,117,160532,1,2,0:0:0:0:
136,253,160749,6,0,P|112:194|42:216,1,115,4|0,3:2|0:0,0:0:0:0:
50,206,161076,1,2,3:2:0:0:
27,229,161184,2,0,L|41:295,1,57.5,8|0,0:0|0:0,0:0:0:0:
27,317,161402,1,2,3:2:0:0:
162,360,161619,2,0,P|206:324|298:352,1,115,2|0,0:0|0:0,0:0:0:0:
262,336,161945,2,0,P|198:302|191:246,1,115,2|0,0:0|0:0,0:0:0:0:
204,248,162271,1,2,0:0:0:0:
405,127,162489,5,2,3:2:0:0:
420,140,162597,2,0,L|410:203,1,57.5,8|0,0:0|0:0,0:0:0:0:
367,255,162814,1,2,3:2:0:0:
349,274,162923,2,0,L|359:337,1,57.5,8|0,0:0|0:0,0:0:0:0:
366,357,163141,1,2,3:2:0:0:
272,259,163359,5,2,0:0:0:0:
378,87,163576,1,2,0:0:0:0:
147,191,163793,1,10,0:0:0:0:
298,144,164011,1,2,0:0:0:0:
163,52,164228,6,0,P|80:42|9:33,1,115,2|8,3:2|0:0,0:0:0:0:
29,63,164554,1,2,3:2:0:0:
17,84,164663,2,0,L|31:150,1,57.5
21,168,164880,1,2,3:2:0:0:
24,304,165097,2,0,P|52:248|124:255,1,115,2|0,0:0|0:0,0:0:0:0:
115,254,165423,1,2,0:0:0:0:
118,265,165532,1,8,0:0:0:0:
179,351,165749,1,2,0:0:0:0:
176,329,165858,1,0,0:0:0:0:
192,297,165967,6,0,L|315:308,1,115,2|8,3:2|0:0,0:0:0:0:
364,358,166293,2,0,L|452:342,1,57.5,2|0,3:2|0:0,0:0:0:0:
448,367,166510,1,0,0:0:0:0:
486,381,166619,2,0,P|504:359|512:332,1,57.5,2|0,3:2|0:0,0:0:0:0:
465,264,166836,2,0,L|446:126,1,115,2|0,0:0|0:0,0:0:0:0:
448,125,167163,1,0,0:0:0:0:
445,104,167271,1,8,0:0:0:0:
214,0,167706,5,6,3:2:0:0:
185,29,167815,1,0,0:0:0:0:
180,64,167924,1,0,0:0:0:0:
203,90,168033,1,0,0:0:0:0:
232,111,168141,1,8,0:0:0:0:
261,140,168250,1,0,0:0:0:0:
266,175,168359,1,0,0:0:0:0:
243,201,168468,1,0,0:0:0:0:
206,218,168576,6,0,L|126:191,3,57.5,0|0|0|0,3:0|0:0|0:0|0:0,0:0:0:0:
21,158,169010,2,0,L|101:131,3,57.5,8|0|0|0,0:0|0:0|0:0|0:0,0:0:0:0:
193,323,169445,2,0,L|113:296,3,57.5,0|0|0|0,3:0|0:0|0:0|0:0,0:0:0:0:
11,262,169880,2,0,L|88:236,3,57.5,8|0|0|0,0:0|0:0|0:0|0:0,0:0:0:0:
247,196,170315,5,0,3:0:0:0:
296,205,170423,1,0,0:0:0:0:
326,246,170532,1,0,0:0:0:0:
326,293,170641,1,0,0:0:0:0:
340,332,170749,2,0,P|377:339|413:335,1,57.5,8|0,0:0|0:0,0:0:0:0:
447,274,170967,2,0,P|481:259|509:236,1,57.5
512,133,171184,5,2,3:2:0:0:
473,114,171292,1,0,0:0:0:0:
431,110,171401,1,0,0:0:0:0:
397,120,171510,1,0,0:0:0:0:
371,146,171619,2,0,L|393:243,3,57.5,8|0|0|0,0:0|0:0|0:0|0:0,0:0:0:0:
328,71,172054,5,2,3:2:0:0:
296,84,172162,1,0,0:0:0:0:
260,87,172271,1,0,0:0:0:0:
230,78,172380,1,0,0:0:0:0:
210,56,172489,2,0,L|229:-27,3,57.5,8|0|0|0,0:0|0:0|0:0|0:0,0:0:0:0:
143,145,172923,5,2,3:2:0:0:
117,133,173031,1,0,0:0:0:0:
88,131,173140,1,0,0:0:0:0:
63,138,173249,1,0,0:0:0:0:
46,156,173358,2,0,L|61:224,3,57.5,8|0|0|0,0:0|0:0|0:0|0:0,0:0:0:0:
169,220,173793,5,2,3:2:0:0:
192,210,173901,1,0,0:0:0:0:
218,208,174010,1,0,0:0:0:0:
240,214,174119,1,0,0:0:0:0:
255,230,174228,2,0,L|241:291,3,57.5,0|0|0|8,0:0|0:0|0:0|0:0,0:0:0:0:
325,360,174663,5,2,3:2:0:0:
325,360,174772,1,8,0:0:0:0:
325,360,174880,2,0,L|338:304,1,57.5,4|0,0:0|0:0,0:0:0:0:
424,271,175097,2,0,L|409:207,3,57.5,8|0|0|0,0:0|0:0|0:0|0:0,0:0:0:0:
333,131,175532,2,0,L|318:195,3,57.5,0|0|0|0,3:0|0:0|0:0|0:0,0:0:0:0:
433,104,175967,2,0,L|418:40,3,57.5,8|0|0|0,0:0|0:0|0:0|0:0,0:0:0:0:
275,18,176402,5,2,3:2:0:0:
252,8,176510,1,0,0:0:0:0:
226,6,176619,1,0,0:0:0:0:
204,12,176728,1,0,0:0:0:0:
189,28,176836,2,0,L|203:89,3,57.5,8|0|0|0,0:0|0:0|0:0|0:0,0:0:0:0:
134,155,177271,5,0,3:2:0:0:
111,165,177379,1,0,0:0:0:0:
85,167,177488,1,0,0:0:0:0:
63,161,177597,1,0,0:0:0:0:
48,145,177706,2,0,L|62:84,3,57.5,8|0|0|0,0:0|0:0|0:0|0:0,0:0:0:0:
192,214,178141,6,0,L|206:275,3,57.5,2|0|0|0,3:2|0:0|0:0|0:0,0:0:0:0:
106,269,178576,2,0,L|92:330,3,57.5,8|0|0|0,0:0|0:0|0:0|0:0,0:0:0:0:
226,360,179010,5,2,3:2:0:0:
226,360,179119,1,0,0:0:0:0:
226,360,179228,2,0,P|265:357|299:323,1,57.5
409,327,179445,1,8,0:0:0:0:
409,327,179554,1,0,0:0:0:0:
409,327,179663,2,0,P|421:289|403:245,1,57.5
497,124,179880,5,2,3:2:0:0:
468,146,179988,1,0,0:0:0:0:
434,157,180097,1,0,0:0:0:0:
393,147,180206,1,0,0:0:0:0:
358,131,180315,2,0,L|370:73,1,57.5,8|0,0:0|0:0,0:0:0:0:
221,9,180532,2,0,L|238:89,1,57.5
215,170,180749,5,10,3:2:0:0:
177,206,180858,1,8,0:0:0:0:
129,226,180967,1,8,0:0:0:0:
77,219,181076,1,8,0:0:0:0:
31,193,181184,2,0,L|39:119,1,57.5,8|8,3:2|0:0,0:0:0:0:
46,49,181402,1,8,0:0:0:0:
46,49,181511,1,8,0:0:0:0:
46,49,181619,5,6,3:2:0:0:
96,35,181728,1,0,0:0:0:0:
145,49,181836,1,0,0:0:0:0:
173,92,181945,1,0,0:0:0:0:
207,131,182054,1,8,0:0:0:0:
253,154,182163,1,0,0:0:0:0:
304,152,182271,1,0,0:0:0:0:
345,121,182380,1,0,0:0:0:0:
370,75,182489,6,0,L|356:12,3,57.5,0|0|0|0,3:0|0:0|0:0|0:0,0:0:0:0:
474,91,182923,2,0,L|461:147,3,57.5,8|0|0|0,0:0|0:0|0:0|0:0,0:0:0:0:
396,338,183358,6,0,L|333:352,3,57.5,0|0|0|0,3:0|0:0|0:0|0:0,0:0:0:0:
412,234,183793,2,0,L|468:246,3,57.5,8|0|0|0,0:0|0:0|0:0|0:0,0:0:0:0:
282,226,184228,5,2,3:2:0:0:
231,218,184336,1,0,0:0:0:0:
179,208,184445,1,0,0:0:0:0:
127,199,184554,1,0,0:0:0:0:
75,195,184663,2,0,P|57:230|68:275,1,57.5,8|0,0:0|0:0,0:0:0:0:
152,324,184880,2,0,P|173:357|217:370,1,57.5
355,357,185097,5,2,3:2:0:0:
371,318,185205,1,0,0:0:0:0:
375,275,185314,1,0,0:0:0:0:
365,238,185423,1,0,0:0:0:0:
338,213,185532,2,0,L|236:236,3,57.5,8|0|0|0,0:0|0:0|0:0|0:0,0:0:0:0:
438,178,185967,5,2,3:2:0:0:
423,144,186075,1,0,0:0:0:0:
420,109,186184,1,0,0:0:0:0:
428,79,186293,1,0,0:0:0:0:
450,57,186402,2,0,L|534:76,3,57.5,8|0|0|0,0:0|0:0|0:0|0:0,0:0:0:0:
318,70,186836,5,2,3:2:0:0:
290,81,186944,1,0,0:0:0:0:
260,83,187053,1,0,0:0:0:0:
233,76,187162,1,0,0:0:0:0:
215,57,187271,2,0,L|231:-14,3,57.5,8|0|0|0,0:0|0:0|0:0|0:0,0:0:0:0:
140,111,187706,5,2,3:2:0:0:
117,101,187814,1,0,0:0:0:0:
91,99,187923,1,0,0:0:0:0:
69,105,188032,1,0,0:0:0:0:
54,121,188141,2,0,L|68:182,1,57.5,8|0,0:0|0:0,0:0:0:0:
98,274,188358,5,2,0:0:0:0:
98,274,188467,1,0,0:0:0:0:
98,274,188576,2,0,P|129:258|173:260,1,57.5,0|0,3:2|0:0,0:0:0:0:
243,209,188793,2,0,P|271:213|296:227,1,57.5
404,314,189010,1,8,0:0:0:0:
444,281,189119,1,0,0:0:0:0:
465,233,189228,1,0,0:0:0:0:
452,183,189336,1,0,0:0:0:0:
413,149,189445,6,0,L|327:159,1,57.5,0|0,3:0|0:0,0:0:0:0:
446,23,189663,2,0,L|527:33,1,57.5
287,52,189880,1,8,0:0:0:0:
237,37,189989,1,0,0:0:0:0:
187,21,190097,1,0,0:0:0:0:
136,7,190206,1,0,0:0:0:0:
84,0,190315,6,0,L|97:100,1,57.5,0|0,3:2|0:0,0:0:0:0:
231,182,190532,2,0,L|220:263,1,57.5
122,375,190750,1,8,0:0:0:0:
109,324,190859,1,0,0:0:0:0:
98,273,190967,1,0,0:0:0:0:
84,222,191076,1,0,0:0:0:0:
69,172,191184,6,0,L|168:153,1,57.5,0|0,3:2|0:0,0:0:0:0:
266,316,191402,2,0,L|209:305,1,57.5
336,177,191619,1,8,0:0:0:0:
380,205,191728,1,0,0:0:0:0:
393,255,191836,1,0,0:0:0:0:
369,303,191945,1,0,0:0:0:0:
322,327,192054,5,0,3:2:0:0:
322,327,192163,1,0,0:0:0:0:
322,327,192271,2,0,L|249:312,1,57.5
222,218,192489,1,8,0:0:0:0:
222,218,192598,1,0,0:0:0:0:
222,218,192706,2,0,L|185:279,1,57.5
93,221,192923,5,0,3:2:0:0:
93,221,193032,1,0,0:0:0:0:
93,221,193140,2,0,L|114:289,1,57.5
210,147,193358,1,8,0:0:0:0:
210,147,193467,1,0,0:0:0:0:
210,147,193575,2,0,L|188:215,1,57.5
53,134,193793,5,0,3:2:0:0:
63,78,193901,1,0,0:0:0:0:
104,39,194010,1,0,0:0:0:0:
160,27,194119,1,0,0:0:0:0:
215,39,194227,1,8,0:0:0:0:
263,71,194336,1,0,0:0:0:0:
301,114,194445,1,0,0:0:0:0:
337,158,194553,5,0,0:0:0:0:
366,178,194662,1,0,3:0:0:0:
399,186,194771,1,0,0:0:0:0:
431,173,194879,1,0,0:0:0:0:
452,145,194988,1,0,0:0:0:0:
446,110,195097,5,8,0:0:0:0:
419,88,195205,1,0,0:0:0:0:
393,100,195314,1,0,0:0:0:0:
399,123,195423,1,0,0:0:0:0:
415,121,195532,5,2,0:0:0:0:
256,192,195641,12,2,205967,0:0:0:0:
168,83,207706,6,0,B|160:72|136:70|136:70|162:26|245:76|211:134|211:134|154:231,1,276,4|0,3:2|0:0,0:0:0:0:
83,287,208576,2,0,L|83:321,2,34.4999989471436,8|0|4,0:3|0:0|0:3,0:0:0:0:
62,281,208902,1,4,0:3:0:0:
43,281,209010,1,4,0:3:0:0:
209,363,209445,6,0,B|267:335|230:328|307:292,1,103.499996841431,4|0,3:2|0:0,0:0:0:0:
311,314,209880,1,10,0:0:0:0:
375,365,210097,1,0,0:0:0:0:
445,321,210315,2,0,P|464:280|449:231,1,68.9999978942872,0|2,3:0|0:0,0:0:0:0:
401,201,210749,2,0,P|382:160|397:111,1,68.9999978942872,8|0,0:0|0:0,0:0:0:0:
459,56,211184,5,2,3:2:0:0:
391,7,211402,1,0,0:0:0:0:
325,57,211619,2,0,B|286:49|286:49|252:77,1,68.9999978942872,8|2,0:0|0:0,0:0:0:0:
197,117,212054,2,0,B|174:98|174:98|135:106,1,68.9999978942872,0|0,3:0|0:0,0:0:0:0:
78,166,212489,2,0,L|96:254,1,68.9999978942872,10|0,0:0|0:0,0:0:0:0:
44,333,212923,5,0,3:0:0:0:
122,306,213141,1,2,0:0:0:0:
197,339,213358,2,0,P|233:357|287:352,1,68.9999978942872,8|0,0:0|0:0,0:0:0:0:
311,292,213793,2,0,P|347:274|401:279,1,68.9999978942872,2|0,3:2|0:0,0:0:0:0:
432,331,214228,2,0,P|463:343|497:339,1,68.9999978942872,8|2,0:0|0:0,0:0:0:0:
471,232,214663,5,0,3:0:0:0:
400,188,214880,1,0,0:0:0:0:
336,134,215097,2,0,P|323:102|337:61,1,68.9999978942872,8|0,0:0|0:0,0:0:0:0:
413,32,215532,2,0,P|420:65|407:96,1,68.9999978942872,0|2,3:0|0:0,0:0:0:0:
336,134,215967,1,8,0:0:0:0:
257,107,216184,1,0,0:0:0:0:
235,107,216293,1,8,0:0:0:0:
215,113,216402,6,0,L|160:120,1,34.4999989471436,2|8,3:2|0:0,0:0:0:0:
130,70,216619,2,0,L|36:57,1,68.9999978942872,0|8,0:0|0:0,0:0:0:0:
8,155,217054,1,2,0:0:0:0:
86,230,217271,2,0,P|98:266|73:307,1,68.9999978942872,0|0,3:0|0:0,0:0:0:0:
148,350,217706,2,0,P|180:339|211:351,1,68.9999978942872,10|0,0:0|0:0,0:0:0:0:
305,292,218141,6,0,B|259:278|259:278|255:270|255:270|196:254,1,103.499996841431,4|0,3:2|0:0,0:0:0:0:
199,274,218576,1,8,0:0:0:0:
160,200,218793,1,0,0:0:0:0:
215,138,219010,2,0,L|291:127,1,68.9999978942872,2|0,3:2|0:0,0:0:0:0:
285,45,219445,2,0,L|353:54,1,68.9999978942872,8|2,0:0|0:0,0:0:0:0:
415,130,219880,5,0,3:0:0:0:
475,73,220097,1,0,0:0:0:0:
512,239,220315,5,10,3:2:0:0:
489,159,220532,1,0,0:0:0:0:
396,298,220749,5,0,3:2:0:0:
419,218,220966,1,2,0:0:0:0:
493,303,221184,1,8,0:0:0:0:
406,374,221402,1,0,0:0:0:0:
355,340,221510,1,2,0:0:0:0:
300,367,221619,6,0,B|183:344|239:151|69:177,1,310.499990524292,2|0,0:0|0:0,0:0:0:0:
68,192,222489,1,4,0:3:0:0:
71,212,222597,1,4,0:3:0:0:
76,230,222706,1,4,0:3:0:0:
82,251,222815,1,8,3:3:0:0:
87,267,222923,1,0,3:0:0:0:
96,283,223358,6,0,P|143:260|213:278,1,115,4|0,3:2|0:0,0:0:0:0:
256,221,223684,2,0,P|275:251|275:298,1,57.5,0|10,0:0|0:0,0:0:0:0:
156,336,224010,1,2,0:0:0:0:
15,256,224228,2,0,P|4:178|-3:122,1,115,2|0,3:2|0:0,0:0:0:0:
39,85,224554,2,0,P|64:73|108:80,1,57.5,0|10,0:0|0:0,0:0:0:0:
206,153,224880,1,2,0:0:0:0:
39,85,225097,5,0,3:0:0:0:
250,6,225423,1,2,0:0:0:0:
290,88,225532,2,0,L|157:63,1,115,8|2,0:0|0:0,0:0:0:0:
93,177,225967,2,0,P|148:161|226:152,1,115,2|0,3:2|0:0,0:0:0:0:
261,192,226293,2,0,P|271:227|250:275,1,57.5,0|10,0:0|0:0,0:0:0:0:
181,355,226619,1,0,0:0:0:0:
355,298,226836,6,0,B|410:282|410:282|414:273|414:273|475:255,1,115,0|0,3:2|0:0,0:0:0:0:
506,207,227163,2,0,L|492:143,1,57.5,0|10,0:0|0:0,0:0:0:0:
467,332,227488,1,2,0:0:0:0:
357,221,227706,2,0,B|344:163|393:165|368:69,1,115,2|0,3:2|0:0,0:0:0:0:
330,56,228032,2,0,B|302:42|302:42|266:62,1,57.5,0|10,0:0|0:0,0:0:0:0:
204,171,228358,1,2,0:0:0:0:
96,21,228575,5,0,3:0:0:0:
43,221,228902,1,2,0:0:0:0:
115,162,229010,2,0,L|-19:128,1,115,8|2,0:0|0:0,0:0:0:0:
119,246,229445,5,2,3:2:0:0:
204,175,229662,1,2,0:0:0:0:
337,160,229880,1,10,0:0:0:0:
466,263,230097,1,2,0:0:0:0:
315,369,230315,6,0,P|306:292|328:243,1,115,0|0,3:2|0:0,0:0:0:0:
382,232,230641,2,0,P|411:206|414:161,1,57.5,0|10,0:0|0:0,0:0:0:0:
339,73,230967,1,2,0:0:0:0:
220,142,231184,2,0,B|161:131|186:113|109:97,1,115,2|0,3:2|0:0,0:0:0:0:
64,50,231510,2,0,B|59:21|59:21|97:-12,1,57.5,0|10,0:0|0:0,0:0:0:0:
122,177,231836,1,2,0:0:0:0:
60,349,232053,5,0,3:0:0:0:
253,276,232379,1,2,0:0:0:0:
174,240,232489,2,0,L|192:366,1,115,8|2,0:0|0:0,0:0:0:0:
240,197,232923,2,0,L|256:83,1,115,2|0,3:2|0:0,0:0:0:0:
313,39,233249,2,0,P|343:35|385:57,1,57.5,0|10,0:0|0:0,0:0:0:0:
331,176,233575,1,0,0:0:0:0:
174,240,233792,6,0,B|101:235|141:213|49:204,1,115,0|0,3:2|0:0,0:0:0:0:
26,263,234119,2,0,B|14:288|14:288|40:321,1,57.5,0|10,0:0|0:0,0:0:0:0:
166,162,234445,1,2,0:0:0:0:
76,56,234663,2,0,P|138:48|214:35,1,115,2|0,3:2|0:0,0:0:0:0:
258,45,234989,2,0,P|279:73|273:128,1,57.5,0|10,0:0|0:0,0:0:0:0:
248,228,235315,1,2,0:0:0:0:
92,134,235532,5,0,3:0:0:0:
128,345,235858,1,2,0:0:0:0:
52,280,235967,2,0,L|181:267,1,115,8|2,0:0|0:0,0:0:0:0:
295,347,236402,1,10,3:2:0:0:
309,349,236510,1,8,0:2:0:0:
335,348,236619,2,0,L|319:283,1,57.5,10|8,0:2|0:2,0:0:0:0:
261,246,236836,2,0,P|251:212|264:172,1,57.5,10|8,3:2|0:2,0:0:0:0:
317,142,237054,1,10,0:2:0:0:
332,114,237163,1,8,0:2:0:0:
322,88,237271,6,0,B|246:81|265:48|163:36,1,137.999995788574,4|0,3:2|0:0,0:0:0:0:
168,61,237597,1,0,0:0:0:0:
166,77,237706,1,10,0:0:0:0:
74,231,237923,1,2,0:0:0:0:
27,44,238141,2,0,P|66:106|36:166,1,137.999995788574,2|0,3:2|0:0,0:0:0:0:
21,166,238467,1,0,0:0:0:0:
25,150,238576,2,0,P|106:147|166:206,1,137.999995788574,10|2,0:0|0:0,0:0:0:0:
328,170,239010,6,0,P|331:250|272:311,1,137.999995788574,0|0,3:0|0:0,0:0:0:0:
285,300,239336,1,2,0:0:0:0:
278,302,239445,1,8,0:0:0:0:
149,178,239663,1,2,0:0:0:0:
67,340,239880,2,0,B|119:328|119:328|126:318|126:318|198:304,1,137.999995788574,2|0,3:2|0:0,0:0:0:0:
204,315,240206,1,0,0:0:0:0:
205,331,240315,1,10,0:0:0:0:
380,271,240532,1,0,0:0:0:0:
393,250,240641,1,0,0:0:0:0:
396,228,240749,6,0,B|326:215|353:186|244:171,1,137.999995788574,0|0,3:2|0:0,0:0:0:0:
261,188,241076,1,0,0:0:0:0:
267,211,241184,2,0,P|320:152|292:82,1,137.999995788574,10|2,0:0|0:0,0:0:0:0:
152,11,241619,2,0,P|62:25|1:37,1,137.999995788574,2|0,3:2|0:0,0:0:0:0:
15,53,241945,1,0,0:0:0:0:
17,64,242054,2,0,P|54:117|125:75,1,137.999995788574,10|2,0:0|0:0,0:0:0:0:
308,100,242489,6,0,P|243:106|230:169,1,137.999995788574,0|0,3:0|0:0,0:0:0:0:
244,183,242815,1,2,0:0:0:0:
263,188,242923,1,8,0:0:0:0:
437,336,243141,2,0,P|443:299|479:263,1,68.9999978942872,2|0,0:0|0:0,0:0:0:0:
486,279,243358,2,0,B|401:294|434:314|348:329,1,137.999995788574,2|2,3:2|0:0,0:0:0:0:
351,342,243684,1,0,0:0:0:0:
322,356,243793,2,0,P|285:304|323:241,1,137.999995788574,10|2,0:0|0:0,0:0:0:0:
465,122,244228,5,0,3:2:0:0:
264,177,244445,1,0,0:0:0:0:
240,185,244554,1,0,0:0:0:0:
225,187,244663,2,0,B|157:171|182:141|93:125,1,137.999995788574,10|2,0:0|0:0,0:0:0:0:
75,303,245097,2,0,P|114:220|65:202,1,137.999995788574,2|0,3:2|0:0,0:0:0:0:
76,215,245423,1,0,0:0:0:0:
89,238,245532,2,0,B|146:258|146:258|158:271|158:271|224:286,1,137.999995788574,10|2,0:0|0:0,0:0:0:0:
343,371,245967,5,0,3:0:0:0:
407,235,246184,1,0,0:0:0:0:
437,234,246293,1,2,0:0:0:0:
465,260,246402,2,0,P|491:199|440:128,1,137.999995788574,8|2,0:0|0:0,0:0:0:0:
282,119,246836,2,0,P|348:127|396:81,1,137.999995788574,2|0,3:2|0:0,0:0:0:0:
378,64,247163,1,0,0:0:0:0:
352,75,247271,1,10,0:0:0:0:
252,213,247489,2,0,P|244:250|270:292,1,68.9999978942872
275,305,247706,6,0,P|208:266|144:295,1,137.999995788574,0|0,3:2|0:0,0:0:0:0:
158,301,248032,1,0,0:0:0:0:
161,315,248141,1,10,0:0:0:0:
48,383,248358,1,2,0:0:0:0:
31,367,248467,1,0,0:0:0:0:
39,348,248576,2,0,L|21:192,1,137.999995788574,2|2,3:2|0:0,0:0:0:0:
71,155,248902,1,0,0:0:0:0:
92,142,249010,2,0,L|104:-27,1,137.999995788574,10|2,0:0|0:0,0:0:0:0:
161,181,249445,5,4,3:2:0:0:
250,28,249663,1,8,0:2:0:0:
281,15,249771,1,10,0:2:0:0:
310,38,249880,2,0,P|350:27|388:25,1,68.9999978942872,0|0,3:2|0:0,0:0:0:0:
448,54,250097,1,10,0:2:0:0:
439,75,250206,1,8,0:2:0:0:
431,91,250315,2,0,L|443:163,1,68.9999978942872,2|0,3:2|0:0,0:0:0:0:
511,204,250532,1,2,0:2:0:0:
503,218,250641,1,8,0:2:0:0:
496,233,250749,2,0,L|505:337,1,68.9999978942872,2|0,3:2|0:0,0:0:0:0:
453,364,250967,1,2,0:2:0:0:
428,355,251076,1,8,0:2:0:0:
408,362,251184,6,0,P|342:328|270:350,1,137.999995788574,4|0,3:2|0:0,0:0:0:0:
275,354,251510,1,0,0:0:0:0:
276,367,251619,1,10,0:0:0:0:
187,217,251836,1,2,0:0:0:0:
60,344,252054,2,0,P|112:291|79:225,1,137.999995788574,2|2,3:2|0:0,0:0:0:0:
81,244,252380,1,0,0:0:0:0:
83,259,252489,2,0,P|120:320|206:328,1,137.999995788574,10|2,0:0|0:0,0:0:0:0:
323,194,252923,6,0,L|174:219,1,137.999995788574,0|0,3:0|0:0,0:0:0:0:
174,199,253249,1,2,0:0:0:0:
176,173,253358,1,8,0:0:0:0:
253,19,253576,1,2,0:0:0:0:
411,134,253793,2,0,P|345:89|286:93,1,137.999995788574,2|0,3:2|0:0,0:0:0:0:
281,110,254119,1,0,0:0:0:0:
280,127,254228,1,10,0:0:0:0:
303,282,254445,1,0,0:0:0:0:
318,308,254554,1,0,0:0:0:0:
332,341,254663,6,0,B|384:332|384:332|400:318|400:318|487:302,1,137.999995788574,2|0,3:2|0:0,0:0:0:0:
483,322,254989,1,0,0:0:0:0:
461,332,255097,2,0,P|401:270|432:190,1,137.999995788574,10|2,0:0|0:0,0:0:0:0:
255,121,255532,2,0,P|317:61|397:92,1,137.999995788574,2|0,3:2|0:0,0:0:0:0:
356,87,255858,1,0,0:0:0:0:
349,110,255967,2,0,B|269:93|304:65|216:50,1,137.999995788574,10|2,0:0|0:0,0:0:0:0:
15,150,256402,6,0,B|57:96|57:96|123:130,1,137.999995788574,2|0,3:2|0:0,0:0:0:0:
128,140,256728,1,2,0:0:0:0:
127,156,256836,1,8,0:0:0:0:
178,261,257054,2,0,P|145:286|102:288,1,68.9999978942872,2|0,0:0|0:0,0:0:0:0:
93,288,257271,2,0,P|178:291|254:333,1,137.999995788574,2|2,3:2|0:0,0:0:0:0:
235,336,257597,1,0,0:0:0:0:
204,345,257706,2,0,P|222:274|301:275,1,137.999995788574,10|2,0:0|0:0,0:0:0:0:
403,384,258141,5,0,3:2:0:0:
467,271,258358,1,0,0:0:0:0:
475,247,258467,1,0,0:0:0:0:
483,219,258576,2,0,P|409:202|327:182,1,137.999995788574,10|2,0:0|0:0,0:0:0:0:
219,100,259010,2,0,P|293:83|375:63,1,137.999995788574,2|2,3:2|0:0,0:0:0:0:
363,85,259336,1,0,0:0:0:0:
339,102,259445,2,0,P|275:71|302:2,1,137.999995788574,10|2,0:0|0:0,0:0:0:0:
456,124,259880,5,0,3:0:0:0:
348,191,260097,1,0,0:0:0:0:
333,215,260206,1,2,0:0:0:0:
327,248,260315,2,0,P|355:316|419:317,1,137.999995788574,8|2,0:0|0:0,0:0:0:0:
150,380,260749,2,0,P|178:312|242:311,1,137.999995788574,2|0,3:2|0:0,0:0:0:0:
249,314,261076,1,0,0:0:0:0:
254,332,261184,1,10,0:0:0:0:
123,184,261402,2,0,P|159:199|221:202,1,68.9999978942872
192,224,261619,6,0,P|175:144|105:120,1,137.999995788574,0|0,3:2|0:0,0:0:0:0:
122,111,261945,1,0,0:0:0:0:
104,106,262054,1,10,0:0:0:0:
261,72,262271,1,2,0:0:0:0:
301,62,262380,1,0,0:0:0:0:
329,53,262489,2,0,P|291:64|328:142,1,137.999995788574,2|2,3:2|0:0,0:0:0:0:
339,149,262815,1,0,0:0:0:0:
371,135,262923,2,0,P|321:209|371:297,1,137.999995788574,10|2,0:0|0:0,0:0:0:0:
484,375,263358,5,0,3:0:0:0:
484,185,263576,2,0,L|395:205,1,68.9999978942872,0|2,0:0|0:0,0:0:0:0:
400,219,263793,1,8,0:0:0:0:
299,325,264010,2,0,L|210:304,1,68.9999978942872,2|0,0:0|0:0,0:0:0:0:
215,291,264227,1,2,3:2:0:0:
57,129,264445,1,2,3:2:0:0:
67,161,264554,1,0,3:0:0:0:
102,179,264663,2,0,B|179:160|158:131|244:119,1,137.999995788574,10|2,3:2|3:2,0:0:0:0:
256,192,265097,12,0,274880,0:0:0:0:
