osu file format v14

[General]
AudioFilename: audio.mp3
AudioLeadIn: 0
PreviewTime: 39046
Countdown: 0
SampleSet: Normal
StackLeniency: 1
Mode: 0
LetterboxInBreaks: 0
WidescreenStoryboard: 1

[Editor]
Bookmarks: 180352,182091,184700,191331,196004,198396,205570,209917,212526,219265,224265,226222
DistanceSpacing: 0.5
BeatDivisor: 4
GridSize: 16
TimelineZoom: 2.000001

[Metadata]
Title:A FOOL MOON NIGHT
TitleUnicode:A FOOL MOON NIGHT
Artist:The Koxx
ArtistUnicode:칵스
Creator:Astar
Version:emillistream
Source:
Tags:piggey overjoy a_kochav [_emillia_] [ emillia ] friendofox naoka firedigger silverboxer
BeatmapID:1127341
BeatmapSetID:524026

[Difficulty]
HPDrainRate:5
CircleSize:4
OverallDifficulty:10
ApproachRate:9.4
SliderMultiplier:3
SliderTickRate:1

[Events]
//Background and Video events
0,0,"1474291154383.jpg",0,0
//Break Periods
2,109908,119797
//Storyboard Layer 0 (Background)
//Storyboard Layer 1 (Fail)
//Storyboard Layer 2 (Pass)
//Storyboard Layer 3 (Foreground)
//Storyboard Sound Samples

[TimingPoints]
309,434.782608695652,4,1,0,30,1,0
10743,-200,4,1,0,30,0,0
11613,-181.818181818182,4,1,0,30,0,0
12482,-166.666666666667,4,1,0,30,0,0
13352,-76.9230769230769,4,1,0,30,0,0
14222,-142.857142857143,4,1,0,30,0,0
15091,-133.333333333333,4,1,0,30,0,0
15961,-125,4,1,0,30,0,0
16830,-88.4955752212389,4,1,0,30,0,0
17700,-111.111111111111,4,1,0,30,0,0
18569,-105.263157894737,4,1,0,30,0,0
19439,-100,4,1,0,30,0,0
20308,-95.2380952380952,4,1,0,30,0,0
23787,-83.3333333333333,4,1,0,30,0,0
24656,-100,4,1,0,30,0,0
38612,434.782608695652,4,1,0,60,1,0
38612,-133.333333333333,4,1,0,60,0,0
45561,434.782608695652,4,1,0,60,1,0
50778,-400,4,1,0,60,0,0
52952,-100,4,1,0,80,0,0
53387,434.782608695652,4,1,0,80,1,0
54256,434.782608695652,4,1,0,80,1,0
78603,-133.333333333333,4,1,0,80,0,0
80342,-100,4,1,0,100,0,1
108169,-100,4,1,0,100,0,0
120337,434.782608695652,4,1,0,100,1,0
120337,-133.333333333333,4,1,0,100,0,0
121206,-83.3333333333333,4,1,0,100,0,0
122076,-133.333333333333,4,1,0,100,0,0
135119,-83.3333333333333,4,1,0,100,0,0
135969,434.782608695652,4,1,0,100,1,0
149921,434.782608695652,4,1,0,100,1,0
149921,-133.333333333333,4,1,0,100,0,0
156850,434.782608695652,4,1,0,75,1,0
156850,-100,4,1,0,75,0,0
162067,-400,4,1,0,60,0,0
163831,434.782608695652,4,1,0,75,1,0
176004,-133.333333333333,4,1,0,75,0,0
177744,-100,4,1,0,100,0,1
233358,434.782608695652,4,1,0,100,1,0
233358,-100,4,1,0,100,0,0

[HitObjects]
173,49,3569,6,0,P|156:58|136:65,3,37.5
192,31,3787,6,0,P|191:113|177:208,1,150
248,272,4113,2,0,P|190:222|113:244,1,150
156,370,4439,2,0,P|174:331|173:289,1,75
52,176,4656,2,0,P|75:266|78:351,1,150
178,82,4982,2,0,P|164:173|133:253,1,150
22,93,5308,2,0,P|68:84|120:100,1,75
271,73,5526,6,0,P|286:6|225:38,1,150
305,174,5852,2,0,P|368:177|346:118,1,150
192,96,6178,2,0,P|208:145|208:200,1,75
261,283,6395,2,0,B|175:307|193:251|86:286,1,150
0,360,6722,2,0,B|84:380|63:334|147:355,1,150
339,327,7048,2,0,L|384:319,3,37.5
312,357,7265,6,0,P|308:287|268:191,1,150
368,212,7591,2,0,P|372:142|412:46,1,150
220,155,7917,2,0,P|269:133|309:136,1,75
512,98,8135,2,0,P|461:159|388:124,1,150
243,19,8461,2,0,P|312:6|354:64,1,150
284,212,8787,2,0,P|290:175|302:140,1,75
378,226,9004,6,0,P|388:301|391:376,1,150
307,314,9330,2,0,P|413:299|467:299,1,150
500,216,9656,2,0,P|439:180|419:155,1,75
318,83,9874,2,0,P|262:138|300:221,1,150
200,334,10200,2,0,P|212:263|159:216,1,150
69,364,10526,2,0,L|12:342,3,37.5
97,354,10743,6,0,B|161:325|213:361|213:361|259:393|327:364,1,225
473,274,11613,2,0,B|412:261|397:186|397:186|371:264|276:255,1,247.500007553101
63,367,12482,6,0,B|31:299|86:247|86:247|176:263|162:371,1,269.999991760254
181,66,13352,6,0,P|255:74|152:123,2,292.499986610413
353,58,14222,6,0,B|393:100|477:85|495:36|495:36|477:58|431:70,1,209.999993591309
264,87,15091,2,0,B|231:116|189:116|189:116|177:174|177:174|134:192|64:159|63:112|63:112|84:131|119:125,1,337.500012874604
266,205,15961,6,0,B|293:283|256:361|256:361|296:329|334:326|334:326|361:298|352:257|352:257|319:251|278:283,1,360
148,178,16830,6,0,B|179:235|131:269|128:304|128:304|105:275|50:285|31:222,1,254.250000775909
0,130,17265,2,0,B|64:133|64:133|87:142|87:142|110:136|110:136|211:143,1,169.500000517273
260,0,17700,6,0,P|295:68|410:35,1,202.499993820191
495,44,18135,2,0,P|464:122|468:189,1,134.999995880127
112,235,18569,6,0,P|180:200|147:85,1,213.749994292259
156,0,19004,2,0,P|234:31|301:27,1,142.49999619484
347,383,19439,6,0,P|311:314|190:358,1,225
112,338,19874,2,0,P|143:260|139:193,1,150
495,148,20308,6,0,P|419:186|468:306,1,236.249992790222
451,383,20743,2,0,P|373:352|299:357,1,157.499995193482
256,192,21069,12,0,22917,0:0:0:0:
207,101,23787,6,0,B|73:88|73:88|147:143,1,179.999994506836
283,143,24113,2,0,L|294:31,1,89.9999972534181
123,326,24656,6,0,P|178:364|265:324,1,150
196,284,24982,1,0,0:0:0:0:
67,256,25091,2,0,P|45:286|35:322,1,75
153,207,25308,2,0,P|143:170|121:140,1,75
16,99,25526,2,0,L|200:82,1,150
282,73,25852,1,0,0:0:0:0:
298,98,25961,2,0,P|322:44|314:6,1,75
376,243,26178,2,0,P|366:184|339:157,1,75
250,248,26395,6,0,B|271:283|266:325|236:361|236:361|258:343|283:340,1,150
395,347,26722,1,0,0:0:0:0:
370,326,26830,1,0,0:0:0:0:
256,233,27048,2,0,L|173:245,1,75
53,301,27265,2,0,P|111:356|198:314,1,150
31,229,27591,1,0,0:0:0:0:
0,217,27700,2,0,P|8:314|0:379,1,150
125,68,28135,6,0,B|163:66|194:96|194:96|240:68|286:74,1,150
352,49,28461,1,0,0:0:0:0:
385,26,28569,2,0,P|359:92|357:125,1,75
279,246,28787,2,0,P|269:209|252:176,1,75
489,147,29004,2,0,P|430:208|354:177,1,150
413,295,29330,1,0,0:0:0:0:
439,322,29439,2,0,P|359:306|318:307,1,75
246,350,29656,2,0,P|200:366|167:387,1,75
161,255,29874,6,0,B|105:256|48:234|48:234|83:272|84:301,1,150
282,269,30200,1,0,0:0:0:0:
293,288,30308,1,0,0:0:0:0:
128,81,30526,2,0,P|141:125|149:172,1,75
195,360,30743,1,0,0:0:0:0:
246,101,30961,1,0,0:0:0:0:
80,236,31178,1,0,0:0:0:0:
341,173,31395,1,0,0:0:0:0:
133,296,31613,6,0,P|63:287|8:373,1,150
214,358,31939,1,0,0:0:0:0:
236,377,32048,2,0,P|229:319|233:281,1,75
348,194,32265,2,0,P|348:231|341:268,1,75
316,118,32482,2,0,B|394:97|384:155|461:128,1,150
240,148,32808,1,0,0:0:0:0:
252,176,32917,2,0,L|153:164,1,75
120,56,33135,2,0,L|45:65,1,75
72,249,33352,6,0,P|129:174|93:121,1,150
0,180,33678,1,0,0:0:0:0:
3,207,33787,1,0,0:0:0:0:
186,304,34004,2,0,P|192:261|209:213,1,75
98,341,34222,2,0,P|174:333|222:387,1,150
284,317,34548,1,0,0:0:0:0:
375,351,34656,2,0,B|412:342|449:356|449:356|456:312|506:286,1,150
436,112,35091,6,0,P|454:37|391:64,1,150
349,180,35417,1,0,0:0:0:0:
323,192,35526,2,0,P|339:137|337:98,1,75
232,112,35743,2,0,P|222:55|203:21,1,75
198,206,35961,2,0,L|223:389,1,150
317,301,36287,1,0,0:0:0:0:
299,279,36395,2,0,L|382:288,1,75
218,191,36613,2,0,L|135:200,1,75
6,148,36830,6,0,P|3:84|89:42,1,150
45,223,37156,1,0,0:0:0:0:
25,242,37265,1,0,0:0:0:0:
153,97,37482,2,0,P|146:49|143:7,1,75
194,184,37700,1,0,0:0:0:0:
208,197,37917,2,0,P|204:234|198:271,1,75
258,91,38135,2,0,P|265:43|268:1,1,75
83,159,38352,2,0,P|87:196|93:233,1,75
259,383,38612,6,0,B|230:310|276:237|276:237|236:287|176:272,1,225.000008583069
345,277,39264,1,0,0:0:0:0:
396,175,39481,2,0,P|341:138|280:153,1,112.500004291535
197,172,39916,1,0,0:0:0:0:
207,196,40133,1,0,0:0:0:0:
298,127,40351,6,0,P|273:53|242:93,1,168.750006437302
456,217,41003,1,0,0:0:0:0:
354,258,41220,2,0,B|413:267|416:340|416:340|462:274|552:308,1,225.000008583069
74,156,42090,6,0,B|74:210|143:234|143:234|189:168|145:121,1,225.000008583069
160,269,42742,1,0,0:0:0:0:
143,260,42959,2,0,P|161:322|155:385,1,112.500004291535
293,158,43394,2,0,P|285:222|255:277,1,112.500004291535
0,233,43829,6,0,P|96:238|173:258,2,168.750006437302
155,160,44698,2,0,P|226:123|136:92,1,225.000008583069
270,295,45561,6,0,B|336:287|376:344|376:344|381:270|457:251,1,225
499,302,45995,2,0,L|513:135,1,150
343,217,46430,2,0,L|329:50,1,150
501,138,46865,2,0,L|488:287,1,150
220,265,47300,6,0,P|206:355|89:348,1,225
179,358,47734,2,0,L|345:365,1,150
43,265,48169,2,0,L|209:258,1,150
382,353,48604,2,0,L|232:346,1,150
56,356,49039,6,0,B|43:188|43:188|102:258,1,225
164,270,49474,2,0,B|183:164|183:164|158:94,1,150
23,163,49908,2,0,B|4:57|4:57|29:-13,1,150
167,238,50343,2,0,B|181:277|181:277|162:383,1,150
72,290,50778,6,0,L|63:221,2,56.25
210,117,51647,1,0,0:0:0:0:
123,375,51865,5,0,0:0:0:0:
80,273,51974,1,0,0:0:0:0:
189,286,52082,1,0,0:0:0:0:
186,304,52517,6,0,L|243:308,2,56.25
14,323,53387,6,0,B|186:303|186:303|165:325|153:359,1,225
46,240,53821,1,0,0:0:0:0:
261,340,54039,2,0,P|291:360|357:357,1,75
339,145,54256,6,0,P|309:239|345:310,1,150
421,223,54582,1,0,0:0:0:0:
205,137,54690,2,0,P|225:183|212:267,1,75
421,90,54908,2,0,P|366:59|300:76,1,75
183,119,55125,2,0,B|203:135|203:135|76:121,1,150
79,121,55451,1,0,0:0:0:0:
241,22,55560,2,0,P|303:23|251:80,1,150
126,211,55995,6,0,B|139:243|139:243|124:367,1,150
51,264,56321,1,0,0:0:0:0:
221,315,56429,2,0,B|346:303|346:303|317:328,1,150
324,97,56864,2,0,P|402:87|335:156,1,225
261,155,57299,1,0,0:0:0:0:
492,90,57516,2,0,P|495:131|482:177,1,75
308,249,57734,6,0,P|283:321|351:372,1,150
386,214,58060,1,0,0:0:0:0:
220,217,58169,2,0,P|203:171|205:116,1,75
346,100,58386,2,0,P|314:137|266:163,1,75
117,59,58603,2,0,B|207:34|189:85|295:48,1,150
129,199,59038,2,0,B|88:183|77:152|77:152|32:167|-8:143,1,150
373,153,59473,6,0,B|348:234|394:221|367:309,1,150
452,196,59799,1,0,0:0:0:0:
293,261,59908,2,0,P|221:245|156:250,1,75
357,376,60125,2,0,P|416:363|434:341,1,75
161,351,60342,2,0,B|107:348|107:348|67:358|67:358|2:353,1,150
138,210,60669,1,0,0:0:0:0:
102,195,60777,2,0,P|125:265|121:303,1,75
274,297,60995,2,0,P|257:368|234:399,1,75
230,208,61212,6,0,P|246:117|250:20,1,150
161,19,61538,1,0,0:0:0:0:
191,8,61647,2,0,P|126:14|71:33,1,75
333,64,61864,2,0,P|369:70|407:72,1,75
150,168,62082,2,0,P|147:105|125:173,1,150
117,263,62408,1,0,0:0:0:0:
223,209,62516,2,0,B|309:199|284:244|391:215,1,150
44,319,62951,6,0,P|117:306|161:375,1,150
220,280,63277,1,0,0:0:0:0:
336,367,63386,2,0,P|328:334|304:288,1,75
160,217,63603,2,0,P|143:250|134:286,1,75
335,212,63821,2,0,B|366:150|333:96|333:96|362:97|394:123,1,150
422,237,64147,1,0,0:0:0:0:
431,259,64256,1,0,0:0:0:0:
255,130,64473,2,0,P|244:86|247:34,1,75
475,41,64690,6,0,P|412:97|328:74,1,150
392,13,65016,1,0,0:0:0:0:
482,163,65125,2,0,P|458:198|443:254,1,75
381,372,65342,2,0,P|366:337|362:300,1,75
370,106,65560,2,0,P|315:174|241:153,1,150
281,265,65886,1,0,0:0:0:0:
189,321,65995,5,0,0:0:0:0:
185,279,66103,1,0,0:0:0:0:
182,238,66212,1,0,0:0:0:0:
179,197,66321,1,0,0:0:0:0:
102,125,66429,6,0,B|278:90|278:90|247:108|207:170,1,225
315,156,66864,2,0,P|352:90|308:22,1,150
62,230,67299,2,0,B|16:294|55:368|112:370|112:370|82:349|79:306,1,225
155,303,67734,2,0,L|322:309,1,150
450,122,68169,5,0,0:0:0:0:
468,100,68277,2,0,B|486:172|486:172|453:267,1,150
329,382,68603,2,0,B|304:310|304:310|322:238,1,150
366,62,69038,1,0,0:0:0:0:
401,306,69256,1,0,0:0:0:0:
187,222,69473,2,0,L|354:228,1,150
148,304,69908,6,0,P|86:363|13:335,1,150
96,243,70234,2,0,P|114:164|102:69,1,150
185,20,70560,2,0,P|194:88|219:132,1,75
267,179,70777,2,0,P|364:170|387:105,1,150
427,224,71103,1,0,0:0:0:0:
443,210,71212,2,0,P|461:266|446:318,1,75
229,363,71429,2,0,P|230:325|246:292,1,75
352,179,71647,6,0,P|390:105|325:26,1,150
242,179,71973,2,0,P|259:242|263:295,1,75
276,85,72190,1,0,0:0:0:0:
270,69,72299,1,0,0:0:0:0:
197,299,72516,2,0,B|109:321|128:285|41:305,1,150
156,222,72842,1,0,0:0:0:0:
254,361,72951,1,0,0:0:0:0:
295,98,73169,2,0,P|303:61|318:27,1,75
472,96,73386,6,0,B|486:153|449:201|386:213|344:178|344:178|369:182|396:176,1,225
465,207,73821,2,0,P|483:278|445:344,1,150
132,316,74256,2,0,B|197:296|264:309|302:336|302:336|285:306|243:298,1,225
155,341,74690,2,0,B|90:339|90:339|65:346|65:346|-20:344,1,150
211,216,75125,5,0,0:0:0:0:
226,232,75234,2,0,B|258:168|238:103|238:103|211:143,1,150
93,164,75560,2,0,B|61:100|81:35|81:35|108:75,1,150
64,249,75995,1,0,0:0:0:0:
198,40,76212,1,0,0:0:0:0:
380,211,76429,2,0,B|315:213|315:213|290:206|290:206|205:208,1,150
42,274,76864,6,0,P|96:327|171:266,1,150
240,228,77190,2,0,P|199:341|208:405,1,150
175,159,77516,2,0,P|167:121|178:72,1,75
316,88,77734,2,0,P|302:150|264:84,1,150
377,38,78060,1,0,0:0:0:0:
396,41,78169,1,0,0:0:0:0:
248,228,78386,1,0,0:0:0:0:
441,196,78603,5,0,0:0:0:0:
303,363,78821,1,0,0:0:0:0:
304,344,78929,1,0,0:0:0:0:
306,325,79038,1,0,0:0:0:0:
308,307,79147,1,0,0:0:0:0:
310,288,79256,1,0,0:0:0:0:
500,139,79473,2,0,P|523:213|439:279,1,168.750006437302
392,306,79908,2,0,P|389:278|383:250,1,56.2500021457673
324,36,80342,5,0,0:0:0:0:
297,62,80450,1,0,0:0:0:0:
263,77,80559,1,0,0:0:0:0:
226,80,80668,1,0,0:0:0:0:
190,70,80777,1,0,0:0:0:0:
156,56,80885,1,0,0:0:0:0:
119,60,80994,1,0,0:0:0:0:
88,81,81103,1,0,0:0:0:0:
71,114,81211,5,0,0:0:0:0:
71,151,81320,1,0,0:0:0:0:
88,184,81429,1,0,0:0:0:0:
119,205,81537,1,0,0:0:0:0:
156,209,81646,1,0,0:0:0:0:
190,195,81755,1,0,0:0:0:0:
214,167,81864,1,0,0:0:0:0:
243,144,81972,1,0,0:0:0:0:
279,134,82082,5,0,0:0:0:0:
260,166,82190,1,0,0:0:0:0:
255,203,82299,1,0,0:0:0:0:
266,238,82408,1,0,0:0:0:0:
287,269,82516,1,0,0:0:0:0:
295,306,82625,1,0,0:0:0:0:
287,342,82734,1,0,0:0:0:0:
261,368,82842,1,0,0:0:0:0:
224,376,82951,5,0,0:0:0:0:
257,357,83059,1,0,0:0:0:0:
291,342,83168,1,0,0:0:0:0:
327,332,83277,1,0,0:0:0:0:
365,328,83385,1,0,0:0:0:0:
402,328,83494,1,0,0:0:0:0:
439,333,83603,1,0,0:0:0:0:
475,343,83711,1,0,0:0:0:0:
510,357,83821,5,0,0:0:0:0:
476,373,83929,1,0,0:0:0:0:
440,369,84038,1,0,0:0:0:0:
411,345,84147,1,0,0:0:0:0:
401,310,84255,1,0,0:0:0:0:
411,274,84364,1,0,0:0:0:0:
439,250,84473,1,0,0:0:0:0:
475,246,84581,1,0,0:0:0:0:
509,262,84690,5,0,0:0:0:0:
477,242,84798,1,0,0:0:0:0:
451,215,84907,1,0,0:0:0:0:
434,182,85016,1,0,0:0:0:0:
426,146,85124,1,0,0:0:0:0:
429,108,85233,1,0,0:0:0:0:
441,73,85342,1,0,0:0:0:0:
462,42,85450,1,0,0:0:0:0:
491,19,85559,5,0,0:0:0:0:
457,34,85668,1,0,0:0:0:0:
421,44,85777,1,0,0:0:0:0:
384,47,85886,1,0,0:0:0:0:
347,39,85994,1,0,0:0:0:0:
312,28,86103,1,0,0:0:0:0:
274,25,86212,1,0,0:0:0:0:
237,31,86320,1,0,0:0:0:0:
201,41,86429,5,0,0:0:0:0:
239,40,86537,1,0,0:0:0:0:
276,39,86646,1,0,0:0:0:0:
314,37,86755,1,0,0:0:0:0:
351,36,86863,1,0,0:0:0:0:
389,35,86972,1,0,0:0:0:0:
426,34,87081,1,0,0:0:0:0:
464,33,87189,1,0,0:0:0:0:
501,31,87299,5,0,0:0:0:0:
472,55,87407,1,0,0:0:0:0:
456,89,87516,1,0,0:0:0:0:
456,126,87625,1,0,0:0:0:0:
472,159,87734,1,0,0:0:0:0:
496,188,87842,1,0,0:0:0:0:
506,224,87951,1,0,0:0:0:0:
502,261,88060,1,0,0:0:0:0:
483,293,88168,5,0,0:0:0:0:
453,315,88277,1,0,0:0:0:0:
417,323,88386,1,0,0:0:0:0:
380,316,88494,1,0,0:0:0:0:
349,295,88603,1,0,0:0:0:0:
329,264,88712,1,0,0:0:0:0:
323,227,88820,1,0,0:0:0:0:
333,191,88929,1,0,0:0:0:0:
356,161,89038,5,0,0:0:0:0:
326,185,89146,1,0,0:0:0:0:
293,202,89255,1,0,0:0:0:0:
257,212,89364,1,0,0:0:0:0:
220,215,89472,1,0,0:0:0:0:
183,211,89581,1,0,0:0:0:0:
147,199,89690,1,0,0:0:0:0:
114,181,89798,1,0,0:0:0:0:
92,151,89908,5,0,0:0:0:0:
91,114,90016,1,0,0:0:0:0:
111,83,90125,1,0,0:0:0:0:
144,67,90234,1,0,0:0:0:0:
181,73,90342,1,0,0:0:0:0:
209,97,90451,1,0,0:0:0:0:
220,132,90560,1,0,0:0:0:0:
209,168,90668,1,0,0:0:0:0:
182,192,90777,5,0,0:0:0:0:
158,221,90885,1,0,0:0:0:0:
144,256,90994,1,0,0:0:0:0:
142,293,91103,1,0,0:0:0:0:
152,329,91212,1,0,0:0:0:0:
180,352,91320,1,0,0:0:0:0:
217,359,91429,1,0,0:0:0:0:
252,348,91538,1,0,0:0:0:0:
278,321,91647,5,0,0:0:0:0:
304,347,91755,1,0,0:0:0:0:
338,362,91864,1,0,0:0:0:0:
375,363,91973,1,0,0:0:0:0:
411,352,92081,1,0,0:0:0:0:
439,328,92190,1,0,0:0:0:0:
458,295,92299,1,0,0:0:0:0:
463,258,92407,1,0,0:0:0:0:
455,222,92516,5,0,0:0:0:0:
431,251,92624,1,0,0:0:0:0:
398,268,92733,1,0,0:0:0:0:
361,272,92842,1,0,0:0:0:0:
326,260,92950,1,0,0:0:0:0:
298,236,93059,1,0,0:0:0:0:
281,202,93168,1,0,0:0:0:0:
279,165,93276,1,0,0:0:0:0:
292,130,93386,5,0,0:0:0:0:
259,148,93494,1,0,0:0:0:0:
224,161,93603,1,0,0:0:0:0:
187,168,93712,1,0,0:0:0:0:
150,169,93820,1,0,0:0:0:0:
113,164,93929,5,0,0:0:0:0:
130,197,94037,1,0,0:0:0:0:
138,233,94146,1,0,0:0:0:0:
133,270,94255,5,0,0:0:0:0:
164,250,94363,1,0,0:0:0:0:
185,219,94472,1,0,0:0:0:0:
191,182,94581,1,0,0:0:0:0:
181,146,94689,1,0,0:0:0:0:
157,117,94798,1,0,0:0:0:0:
124,100,94907,1,0,0:0:0:0:
87,98,95015,1,0,0:0:0:0:
52,111,95124,5,0,0:0:0:0:
26,138,95233,1,0,0:0:0:0:
13,172,95341,1,0,0:0:0:0:
14,210,95450,1,0,0:0:0:0:
31,243,95560,1,0,0:0:0:0:
60,266,95668,1,0,0:0:0:0:
96,276,95777,1,0,0:0:0:0:
133,271,95886,1,0,0:0:0:0:
164,251,95995,5,0,0:0:0:0:
191,225,96103,1,0,0:0:0:0:
225,210,96212,1,0,0:0:0:0:
262,207,96321,1,0,0:0:0:0:
298,217,96429,1,0,0:0:0:0:
329,239,96538,1,0,0:0:0:0:
364,251,96647,1,0,0:0:0:0:
400,246,96755,1,0,0:0:0:0:
430,224,96864,5,0,0:0:0:0:
392,221,96972,1,0,0:0:0:0:
355,219,97081,1,0,0:0:0:0:
317,217,97190,1,0,0:0:0:0:
280,215,97298,1,0,0:0:0:0:
242,212,97407,1,0,0:0:0:0:
205,210,97516,1,0,0:0:0:0:
167,208,97624,1,0,0:0:0:0:
130,206,97734,5,0,0:0:0:0:
107,235,97842,1,0,0:0:0:0:
103,272,97951,1,0,0:0:0:0:
118,305,98060,1,0,0:0:0:0:
148,326,98168,1,0,0:0:0:0:
185,329,98277,1,0,0:0:0:0:
218,311,98386,1,0,0:0:0:0:
237,280,98494,1,0,0:0:0:0:
237,243,98603,5,0,0:0:0:0:
201,251,98711,1,0,0:0:0:0:
175,277,98820,1,0,0:0:0:0:
166,313,98929,1,0,0:0:0:0:
177,348,99037,1,0,0:0:0:0:
205,372,99146,1,0,0:0:0:0:
242,377,99255,1,0,0:0:0:0:
276,363,99363,1,0,0:0:0:0:
297,333,99473,5,0,0:0:0:0:
261,344,99581,1,0,0:0:0:0:
224,351,99690,1,0,0:0:0:0:
187,351,99799,1,0,0:0:0:0:
150,341,99907,1,0,0:0:0:0:
114,330,100016,1,0,0:0:0:0:
77,327,100125,1,0,0:0:0:0:
40,332,100233,1,0,0:0:0:0:
3,340,100342,5,0,0:0:0:0:
24,309,100450,1,0,0:0:0:0:
34,273,100560,5,0,0:0:0:0:
56,303,100668,1,0,0:0:0:0:
89,320,100777,1,0,0:0:0:0:
126,321,100886,1,0,0:0:0:0:
160,306,100995,5,0,0:0:0:0:
125,295,101103,1,0,0:0:0:0:
97,270,101212,5,0,0:0:0:0:
112,304,101320,1,0,0:0:0:0:
136,332,101429,1,0,0:0:0:0:
168,352,101538,1,0,0:0:0:0:
204,361,101646,1,0,0:0:0:0:
242,359,101755,1,0,0:0:0:0:
277,346,101864,1,0,0:0:0:0:
306,323,101972,1,0,0:0:0:0:
327,292,102081,5,0,0:0:0:0:
337,256,102190,1,0,0:0:0:0:
336,218,102298,1,0,0:0:0:0:
325,183,102407,1,0,0:0:0:0:
303,153,102516,1,0,0:0:0:0:
272,131,102625,1,0,0:0:0:0:
237,119,102733,1,0,0:0:0:0:
200,118,102842,1,0,0:0:0:0:
164,129,102951,5,0,0:0:0:0:
134,152,103060,1,0,0:0:0:0:
114,184,103169,1,0,0:0:0:0:
104,219,103277,1,0,0:0:0:0:
109,256,103386,1,0,0:0:0:0:
130,286,103495,1,0,0:0:0:0:
162,304,103603,1,0,0:0:0:0:
198,311,103712,1,0,0:0:0:0:
235,304,103821,5,0,0:0:0:0:
266,283,103929,1,0,0:0:0:0:
295,259,104038,1,0,0:0:0:0:
332,254,104147,1,0,0:0:0:0:
368,260,104255,1,0,0:0:0:0:
401,277,104364,1,0,0:0:0:0:
433,295,104473,1,0,0:0:0:0:
470,297,104582,1,0,0:0:0:0:
502,278,104690,5,0,0:0:0:0:
509,241,104799,1,0,0:0:0:0:
496,205,104908,1,0,0:0:0:0:
462,188,105016,1,0,0:0:0:0:
425,197,105125,1,0,0:0:0:0:
407,230,105234,1,0,0:0:0:0:
411,267,105342,1,0,0:0:0:0:
426,301,105451,1,0,0:0:0:0:
426,338,105560,5,0,0:0:0:0:
401,366,105669,1,0,0:0:0:0:
365,377,105777,1,0,0:0:0:0:
328,369,105886,1,0,0:0:0:0:
302,341,105995,1,0,0:0:0:0:
278,311,106103,1,0,0:0:0:0:
242,297,106212,1,0,0:0:0:0:
204,294,106321,1,0,0:0:0:0:
168,306,106429,5,0,0:0:0:0:
139,331,106538,1,0,0:0:0:0:
109,354,106647,1,0,0:0:0:0:
71,357,106755,1,0,0:0:0:0:
36,343,106864,1,0,0:0:0:0:
7,318,106973,1,0,0:0:0:0:
0,280,107082,1,0,0:0:0:0:
8,243,107190,1,0,0:0:0:0:
27,210,107299,5,0,0:0:0:0:
59,191,107408,1,0,0:0:0:0:
96,189,107516,1,0,0:0:0:0:
132,198,107625,1,0,0:0:0:0:
161,221,107734,1,0,0:0:0:0:
183,250,107842,1,0,0:0:0:0:
216,267,107951,1,0,0:0:0:0:
253,270,108060,1,0,0:0:0:0:
289,260,108169,5,0,0:0:0:0:
110,28,120337,6,0,P|129:95|54:40,1,225.000008583069
429,274,121206,6,0,B|371:278|354:324|354:324|339:278|291:269,1,179.999994506836
236,317,121532,2,0,P|264:358|277:315,1,89.9999972534181
307,147,121858,1,0,0:0:0:0:
90,329,122076,5,0,0:0:0:0:
103,346,122184,2,0,P|77:229|59:212,1,112.500004291535
30,187,122510,2,0,P|83:142|141:161,1,112.500004291535
188,181,122837,2,0,P|211:98|244:54,1,112.500004291535
291,47,123163,2,0,L|142:55,1,112.500004291535
107,29,123489,2,0,P|82:87|105:135,1,112.500004291535
172,271,123815,6,0,P|189:219|165:171,1,112.500004291535
108,306,124141,2,0,P|191:310|241:331,1,112.500004291535
278,362,124467,2,0,L|267:226,1,112.500004291535
309,181,124793,2,0,B|214:168|214:168|238:198,1,112.500004291535
154,215,125119,2,0,B|59:228|59:228|83:198,1,112.500004291535
128,129,125445,6,0,P|110:101|107:147,1,112.500004291535
201,141,125771,2,0,P|190:77|113:30,1,112.500004291535
89,24,126097,2,0,L|235:11,1,112.500004291535
267,49,126423,2,0,P|321:82|387:47,1,112.500004291535
326,10,126750,2,0,P|345:88|347:151,1,112.500004291535
402,170,127076,2,0,P|369:223|391:281,1,112.500004291535
443,304,127402,6,0,L|291:296,1,112.500004291535
288,357,127728,2,0,L|136:365,1,112.500004291535
102,378,128054,2,0,P|78:323|121:266,1,112.500004291535
158,232,128380,2,0,P|83:241|22:244,1,112.500004291535
1,184,128706,1,0,0:0:0:0:
11,171,128815,2,0,P|16:135|5:97,1,56.2500021457673
116,42,129032,5,0,0:0:0:0:
99,52,129141,2,0,L|251:43,1,112.500004291535
291,20,129467,2,0,P|305:63|304:105,1,56.2500021457673
258,174,129684,2,0,P|235:238|267:302,1,112.500004291535
307,321,130010,2,0,P|265:314|154:312,1,112.500004291535
123,334,130337,2,0,P|60:374|9:361,1,112.500004291535
7,300,130663,6,0,L|14:167,1,112.500004291535
78,40,130989,2,0,L|83:152,1,112.500004291535
25,111,131315,2,0,P|76:81|147:123,1,112.500004291535
259,180,131641,2,0,P|205:192|159:163,1,112.500004291535
301,117,131967,2,0,P|275:210|270:268,1,112.500004291535
330,352,132293,2,0,B|342:365|342:365|359:309|332:275,1,112.500004291535
194,254,132619,6,0,L|343:263,1,112.500004291535
409,274,132945,2,0,B|410:244|432:220|432:220|406:206|378:220,1,112.500004291535
486,272,133271,2,0,P|506:224|460:152,1,112.500004291535
406,136,133597,2,0,P|386:88|432:16,1,112.500004291535
461,84,133923,1,0,0:0:0:0:
475,70,134032,2,0,P|478:88|481:106,3,28.1250010728836
496,82,134250,5,0,0:0:0:0:
164,195,135119,2,0,P|252:180|289:137,1,89.9999972534181
386,298,135337,2,0,P|348:272|305:265,1,89.9999972534181
146,326,135554,1,0,0:0:0:0:
389,283,135969,6,0,B|359:207|412:152|412:152|370:204|271:160,1,225
467,98,136403,2,0,P|487:146|465:215,1,75
353,105,136621,2,0,P|367:56|366:20,1,75
151,100,136838,2,0,P|192:151|291:128,1,150
203,25,137164,1,0,0:0:0:0:
213,6,137273,2,0,P|226:56|228:103,1,75
76,132,137490,2,0,P|64:182|43:224,1,75
209,203,137708,6,0,B|233:227|245:290|219:320|219:320|211:291|189:274,1,150
320,243,138034,1,0,0:0:0:0:
311,263,138142,1,0,0:0:0:0:
135,338,138360,2,0,P|125:300|135:254,1,75
385,297,138577,2,0,P|329:343|241:303,1,150
446,241,138903,1,0,0:0:0:0:
461,254,139012,2,0,B|447:191|469:132|469:132|388:121,1,150
283,17,139447,6,0,L|299:214,1,150
207,102,139773,1,0,0:0:0:0:
374,148,139882,2,0,P|356:221|316:248,1,75
254,308,140099,2,0,P|261:271|253:235,1,75
51,305,140316,2,0,B|93:290|128:308|128:308|150:275|201:271,1,150
337,299,140642,1,0,0:0:0:0:
357,294,140751,2,0,P|337:357|341:393,1,75
431,207,140969,2,0,P|426:169|410:135,1,75
188,164,141186,6,0,P|222:210|332:176,1,150
242,102,141512,1,0,0:0:0:0:
226,91,141621,1,0,0:0:0:0:
86,273,141838,2,0,P|140:260|185:268,1,75
267,336,142055,1,0,0:0:0:0:
192,185,142273,1,0,0:0:0:0:
138,358,142490,1,0,0:0:0:0:
339,251,142708,1,0,0:0:0:0:
247,64,142925,6,0,B|218:85|207:128|207:128|160:93|103:108,1,150
170,23,143251,1,0,0:0:0:0:
240,146,143360,2,0,B|259:175|248:216|248:216|206:204|195:159,1,150
58,330,143795,2,0,P|100:293|65:348,1,150
136,225,144121,1,0,0:0:0:0:
251,242,144229,2,0,P|252:303|201:270,1,150
359,357,144664,6,0,B|420:340|482:368|482:368|444:365,1,150
334,369,144990,1,0,0:0:0:0:
448,279,145099,2,0,P|468:246|465:202,1,75
341,136,145316,2,0,P|361:166|363:203,1,75
236,352,145534,2,0,P|264:289|181:238,1,150
110,263,145860,1,0,0:0:0:0:
0,332,145969,2,0,B|78:314|68:361|154:335,1,150
228,119,146403,6,0,B|217:242|217:242|193:193,1,150
310,108,146729,1,0,0:0:0:0:
316,87,146838,2,0,P|336:126|328:179,1,75
173,61,147055,2,0,P|212:41|265:49,1,75
147,143,147273,2,0,B|97:141|97:141|54:153|54:153|-15:144,1,150
103,226,147599,1,0,0:0:0:0:
122,220,147708,2,0,P|103:281|98:320,1,75
252,167,147925,2,0,P|271:228|276:267,1,75
366,371,148142,6,0,P|318:317|237:344,1,150
423,298,148469,1,0,0:0:0:0:
433,320,148577,2,0,P|442:268|457:235,1,75
312,153,148795,2,0,P|301:207|335:261,1,75
502,172,149012,2,0,L|382:181,1,75
290,74,149229,2,0,P|341:79|383:126,1,75
481,199,149447,2,0,L|385:242,1,75
327,0,149664,2,0,P|372:34|381:88,1,75
315,368,149921,6,0,B|331:216|331:216|328:261|362:298,1,225.000008583069
214,200,150573,1,0,0:0:0:0:
402,348,150790,2,0,P|432:282|403:224,1,112.500004291535
230,316,151225,1,0,0:0:0:0:
249,306,151442,1,0,0:0:0:0:
2,350,151660,6,0,B|97:336|84:378|170:361,2,168.750006437302
94,242,152529,2,0,P|161:206|101:269,1,225.000008583069
271,15,153399,6,0,B|307:88|263:162|263:162|313:199|368:147,1,225.000008583069
192,122,154051,1,0,0:0:0:0:
375,108,154268,2,0,P|408:170|385:229,1,112.500004291535
253,349,154703,2,0,P|246:294|277:248,1,112.500004291535
483,272,155138,6,0,B|443:274|416:322|416:322|361:276|310:299,2,168.750006437302
297,366,156007,2,0,L|317:99,1,225.000008583069
0,271,156877,6,0,B|40:271|71:292|71:292|111:268|153:272|153:272|197:297|276:267,1,225
290,257,157284,2,0,P|316:224|246:234,1,150
78,309,157719,2,0,P|92:348|119:282,1,150
138,99,158154,2,0,P|96:92|140:147,1,150
387,128,158589,6,0,B|363:276|363:276|360:230|322:204,1,225
417,44,159023,2,0,B|535:31|535:31|499:66,1,150
252,108,159458,2,0,B|370:121|370:121|334:86,1,150
80,60,159893,2,0,B|198:47|198:47|162:82,1,150
39,207,160328,6,0,P|89:276|91:190,1,225
41,346,160763,2,0,B|78:353|104:382|104:382|118:344|164:314,1,150
338,265,161197,2,0,B|301:272|275:301|275:301|261:263|215:233,1,150
401,340,161632,2,0,B|438:347|464:376|464:376|478:338|524:308,1,150
395,167,162067,6,0,L|460:156,2,56.25
163,93,162936,1,0,0:0:0:0:
293,240,163154,1,0,0:0:0:0:
375,338,163263,1,0,0:0:0:0:
249,362,163371,2,0,P|241:330|243:304,1,56.25
296,247,163831,6,0,B|341:204|339:94|291:59|291:59|297:110,1,225
317,231,164265,2,0,P|411:206|492:251,1,150
209,307,164700,2,0,B|23:333|23:333|78:304,1,225
216,324,165135,2,0,P|241:231|187:172,1,150
49,136,165570,5,0,0:0:0:0:
33,126,165678,2,0,L|201:104,1,150
361,224,166004,2,0,L|193:202,1,150
263,62,166439,1,0,0:0:0:0:
117,243,166657,1,0,0:0:0:0:
336,364,166874,2,0,P|361:271|307:212,1,150
66,305,167309,6,0,P|130:321|198:243,1,150
26,228,167635,2,0,P|43:339|35:407,1,150
111,221,167961,2,0,P|124:167|147:130,1,75
267,33,168178,2,0,P|192:86|124:33,1,150
14,64,168504,1,0,0:0:0:0:
14,44,168613,2,0,P|46:97|59:137,1,75
140,172,168831,2,0,P|124:206|118:243,1,75
215,368,169048,6,0,P|243:282|193:225,1,150
238,358,169374,2,0,P|324:352|404:364,1,150
411,248,169700,2,0,P|349:269|304:272,1,75
482,301,169917,2,0,P|463:196|487:119,1,150
376,87,170244,1,0,0:0:0:0:
400,67,170352,2,0,P|381:123|357:153,1,75
306,265,170570,2,0,P|301:227|286:193,1,75
291,62,170787,6,0,B|215:86|136:61|136:61|187:76|210:136,1,225
130,217,171222,2,0,L|111:44,1,150
290,227,171657,2,0,B|339:249|346:340|287:367|287:367|310:336|301:294,1,225
270,214,172091,2,0,P|335:164|414:207,1,150
175,313,172526,5,0,0:0:0:0:
190,318,172635,2,0,P|100:340|40:374,1,150
16,296,172961,2,0,P|-10:238|45:166,1,150
273,349,173396,1,0,0:0:0:0:
68,239,173613,1,0,0:0:0:0:
364,130,173831,2,0,P|336:226|328:299,1,150
168,167,174265,6,0,B|168:103|125:72|125:72|153:72|178:95,1,150
243,85,174591,2,0,P|285:70|224:55,1,150
254,167,174917,2,0,P|234:223|234:274,1,75
330,355,175135,2,0,P|356:266|299:216,1,150
194,321,175461,1,0,0:0:0:0:
177,336,175570,2,0,P|250:352|283:376,1,75
450,261,175787,2,0,P|382:293|355:323,1,75
219,229,176004,5,0,0:0:0:0:
92,380,176222,2,0,P|80:354|65:325,1,56.2500021457673
159,153,176548,1,0,0:0:0:0:
140,185,176657,1,0,0:0:0:0:
128,221,176765,1,0,0:0:0:0:
124,258,176874,2,0,P|92:177|147:124,1,168.750006437302
239,137,177309,1,0,0:0:0:0:
324,36,177744,5,0,0:0:0:0:
297,62,177852,1,0,0:0:0:0:
263,77,177961,1,0,0:0:0:0:
226,80,178070,1,0,0:0:0:0:
190,70,178179,1,0,0:0:0:0:
156,56,178287,1,0,0:0:0:0:
119,60,178396,1,0,0:0:0:0:
88,81,178505,1,0,0:0:0:0:
71,114,178613,5,0,0:0:0:0:
71,151,178722,1,0,0:0:0:0:
88,184,178831,1,0,0:0:0:0:
119,205,178939,1,0,0:0:0:0:
156,209,179048,1,0,0:0:0:0:
190,195,179157,1,0,0:0:0:0:
214,167,179266,1,0,0:0:0:0:
243,144,179374,1,0,0:0:0:0:
279,134,179484,5,0,0:0:0:0:
260,166,179592,1,0,0:0:0:0:
255,203,179701,1,0,0:0:0:0:
266,238,179810,1,0,0:0:0:0:
287,269,179918,1,0,0:0:0:0:
295,306,180027,1,0,0:0:0:0:
287,342,180136,1,0,0:0:0:0:
261,368,180244,1,0,0:0:0:0:
224,376,180353,5,0,0:0:0:0:
257,357,180461,1,0,0:0:0:0:
291,342,180570,1,0,0:0:0:0:
327,332,180679,1,0,0:0:0:0:
365,328,180787,1,0,0:0:0:0:
402,328,180896,1,0,0:0:0:0:
439,333,181005,1,0,0:0:0:0:
475,343,181113,1,0,0:0:0:0:
510,357,181223,5,0,0:0:0:0:
476,373,181331,1,0,0:0:0:0:
440,369,181440,1,0,0:0:0:0:
411,345,181549,1,0,0:0:0:0:
401,310,181657,1,0,0:0:0:0:
411,274,181766,1,0,0:0:0:0:
439,250,181875,1,0,0:0:0:0:
475,246,181983,1,0,0:0:0:0:
509,262,182092,5,0,0:0:0:0:
477,242,182200,1,0,0:0:0:0:
451,215,182309,1,0,0:0:0:0:
434,182,182418,1,0,0:0:0:0:
426,146,182526,1,0,0:0:0:0:
429,108,182635,1,0,0:0:0:0:
441,73,182744,1,0,0:0:0:0:
462,42,182852,1,0,0:0:0:0:
491,19,182961,5,0,0:0:0:0:
457,34,183070,1,0,0:0:0:0:
421,44,183179,1,0,0:0:0:0:
384,47,183288,1,0,0:0:0:0:
347,39,183396,1,0,0:0:0:0:
312,28,183505,1,0,0:0:0:0:
274,25,183614,1,0,0:0:0:0:
237,31,183722,1,0,0:0:0:0:
201,41,183831,5,0,0:0:0:0:
239,40,183939,1,0,0:0:0:0:
276,39,184048,1,0,0:0:0:0:
314,37,184157,1,0,0:0:0:0:
351,36,184265,1,0,0:0:0:0:
389,35,184374,1,0,0:0:0:0:
426,34,184483,1,0,0:0:0:0:
464,33,184591,1,0,0:0:0:0:
501,31,184701,5,0,0:0:0:0:
472,55,184809,1,0,0:0:0:0:
456,89,184918,1,0,0:0:0:0:
456,126,185027,1,0,0:0:0:0:
472,159,185136,1,0,0:0:0:0:
496,188,185244,1,0,0:0:0:0:
506,224,185353,1,0,0:0:0:0:
502,261,185462,1,0,0:0:0:0:
483,293,185570,5,0,0:0:0:0:
453,315,185679,1,0,0:0:0:0:
417,323,185788,1,0,0:0:0:0:
380,316,185896,1,0,0:0:0:0:
349,295,186005,1,0,0:0:0:0:
329,264,186114,1,0,0:0:0:0:
323,227,186222,1,0,0:0:0:0:
333,191,186331,1,0,0:0:0:0:
356,161,186440,5,0,0:0:0:0:
326,185,186548,1,0,0:0:0:0:
293,202,186657,1,0,0:0:0:0:
257,212,186766,1,0,0:0:0:0:
220,215,186874,1,0,0:0:0:0:
183,211,186983,1,0,0:0:0:0:
147,199,187092,1,0,0:0:0:0:
114,181,187200,1,0,0:0:0:0:
92,151,187310,5,0,0:0:0:0:
91,114,187418,1,0,0:0:0:0:
111,83,187527,1,0,0:0:0:0:
144,67,187636,1,0,0:0:0:0:
181,73,187744,1,0,0:0:0:0:
209,97,187853,1,0,0:0:0:0:
220,132,187962,1,0,0:0:0:0:
209,168,188070,1,0,0:0:0:0:
182,192,188179,5,0,0:0:0:0:
158,221,188287,1,0,0:0:0:0:
144,256,188396,1,0,0:0:0:0:
142,293,188505,1,0,0:0:0:0:
152,329,188614,1,0,0:0:0:0:
180,352,188722,1,0,0:0:0:0:
217,359,188831,1,0,0:0:0:0:
252,348,188940,1,0,0:0:0:0:
278,321,189049,5,0,0:0:0:0:
304,347,189157,1,0,0:0:0:0:
338,362,189266,1,0,0:0:0:0:
375,363,189375,1,0,0:0:0:0:
411,352,189483,1,0,0:0:0:0:
439,328,189592,1,0,0:0:0:0:
458,295,189701,1,0,0:0:0:0:
463,258,189809,1,0,0:0:0:0:
455,222,189918,5,0,0:0:0:0:
431,251,190026,1,0,0:0:0:0:
398,268,190135,1,0,0:0:0:0:
361,272,190244,1,0,0:0:0:0:
326,260,190352,1,0,0:0:0:0:
298,236,190461,1,0,0:0:0:0:
281,202,190570,1,0,0:0:0:0:
279,165,190678,1,0,0:0:0:0:
292,130,190788,5,0,0:0:0:0:
259,148,190896,1,0,0:0:0:0:
224,161,191005,1,0,0:0:0:0:
187,168,191114,1,0,0:0:0:0:
150,169,191222,1,0,0:0:0:0:
113,164,191331,5,0,0:0:0:0:
130,197,191439,1,0,0:0:0:0:
138,233,191548,1,0,0:0:0:0:
133,270,191657,5,0,0:0:0:0:
164,250,191765,1,0,0:0:0:0:
185,219,191874,1,0,0:0:0:0:
191,182,191983,1,0,0:0:0:0:
181,146,192091,1,0,0:0:0:0:
157,117,192200,1,0,0:0:0:0:
124,100,192309,1,0,0:0:0:0:
87,98,192417,1,0,0:0:0:0:
52,111,192526,5,0,0:0:0:0:
26,138,192635,1,0,0:0:0:0:
13,172,192743,1,0,0:0:0:0:
14,210,192852,1,0,0:0:0:0:
31,243,192962,1,0,0:0:0:0:
60,266,193070,1,0,0:0:0:0:
96,276,193179,1,0,0:0:0:0:
133,271,193288,1,0,0:0:0:0:
164,251,193397,5,0,0:0:0:0:
191,225,193505,1,0,0:0:0:0:
225,210,193614,1,0,0:0:0:0:
262,207,193723,1,0,0:0:0:0:
298,217,193831,1,0,0:0:0:0:
329,239,193940,1,0,0:0:0:0:
364,251,194049,1,0,0:0:0:0:
400,246,194157,1,0,0:0:0:0:
430,224,194266,5,0,0:0:0:0:
392,221,194374,1,0,0:0:0:0:
355,219,194483,1,0,0:0:0:0:
317,217,194592,1,0,0:0:0:0:
280,215,194700,1,0,0:0:0:0:
242,212,194809,1,0,0:0:0:0:
205,210,194918,1,0,0:0:0:0:
167,208,195026,1,0,0:0:0:0:
130,206,195136,5,0,0:0:0:0:
107,235,195244,1,0,0:0:0:0:
103,272,195353,1,0,0:0:0:0:
118,305,195462,1,0,0:0:0:0:
148,326,195570,1,0,0:0:0:0:
185,329,195679,1,0,0:0:0:0:
218,311,195788,1,0,0:0:0:0:
237,280,195896,1,0,0:0:0:0:
237,243,196005,5,0,0:0:0:0:
201,251,196113,1,0,0:0:0:0:
175,277,196222,1,0,0:0:0:0:
166,313,196331,1,0,0:0:0:0:
177,348,196439,1,0,0:0:0:0:
205,372,196548,1,0,0:0:0:0:
242,377,196657,1,0,0:0:0:0:
276,363,196765,1,0,0:0:0:0:
297,333,196875,5,0,0:0:0:0:
261,344,196983,1,0,0:0:0:0:
224,351,197092,1,0,0:0:0:0:
187,351,197201,1,0,0:0:0:0:
150,341,197309,1,0,0:0:0:0:
114,330,197418,1,0,0:0:0:0:
77,327,197527,1,0,0:0:0:0:
40,332,197635,1,0,0:0:0:0:
3,340,197744,5,0,0:0:0:0:
24,309,197852,1,0,0:0:0:0:
34,273,197962,5,0,0:0:0:0:
56,303,198070,1,0,0:0:0:0:
89,320,198179,1,0,0:0:0:0:
126,321,198288,1,0,0:0:0:0:
160,306,198397,5,0,0:0:0:0:
125,295,198505,1,0,0:0:0:0:
97,270,198614,5,0,0:0:0:0:
112,304,198722,1,0,0:0:0:0:
136,332,198831,1,0,0:0:0:0:
168,352,198940,1,0,0:0:0:0:
204,361,199048,1,0,0:0:0:0:
242,359,199157,1,0,0:0:0:0:
277,346,199266,1,0,0:0:0:0:
306,323,199374,1,0,0:0:0:0:
327,292,199483,5,0,0:0:0:0:
337,256,199592,1,0,0:0:0:0:
336,218,199700,1,0,0:0:0:0:
325,183,199809,1,0,0:0:0:0:
303,153,199918,1,0,0:0:0:0:
272,131,200027,1,0,0:0:0:0:
237,119,200135,1,0,0:0:0:0:
200,118,200244,1,0,0:0:0:0:
164,129,200353,5,0,0:0:0:0:
134,152,200462,1,0,0:0:0:0:
114,184,200571,1,0,0:0:0:0:
104,219,200679,1,0,0:0:0:0:
109,256,200788,1,0,0:0:0:0:
130,286,200897,1,0,0:0:0:0:
162,304,201005,1,0,0:0:0:0:
198,311,201114,1,0,0:0:0:0:
235,304,201223,5,0,0:0:0:0:
266,283,201331,1,0,0:0:0:0:
295,259,201440,1,0,0:0:0:0:
332,254,201549,1,0,0:0:0:0:
368,260,201657,1,0,0:0:0:0:
401,277,201766,1,0,0:0:0:0:
433,295,201875,1,0,0:0:0:0:
470,297,201984,1,0,0:0:0:0:
502,278,202092,5,0,0:0:0:0:
509,241,202201,1,0,0:0:0:0:
496,205,202310,1,0,0:0:0:0:
462,188,202418,1,0,0:0:0:0:
425,197,202527,1,0,0:0:0:0:
407,230,202636,1,0,0:0:0:0:
411,267,202744,1,0,0:0:0:0:
426,301,202853,1,0,0:0:0:0:
426,338,202962,5,0,0:0:0:0:
401,366,203071,1,0,0:0:0:0:
365,377,203179,1,0,0:0:0:0:
327,376,203287,1,0,0:0:0:0:
298,351,203396,1,0,0:0:0:0:
292,314,203504,1,0,0:0:0:0:
301,277,203613,1,0,0:0:0:0:
324,247,203722,1,0,0:0:0:0:
347,217,203831,5,0,0:0:0:0:
360,182,203939,1,0,0:0:0:0:
358,144,204048,1,0,0:0:0:0:
344,108,204157,1,0,0:0:0:0:
315,84,204265,1,0,0:0:0:0:
279,73,204374,1,0,0:0:0:0:
244,86,204483,1,0,0:0:0:0:
219,113,204591,1,0,0:0:0:0:
217,150,204700,5,0,0:0:0:0:
233,183,204809,1,0,0:0:0:0:
264,202,204917,1,0,0:0:0:0:
301,203,205026,1,0,0:0:0:0:
329,178,205135,1,0,0:0:0:0:
344,143,205244,1,0,0:0:0:0:
331,107,205352,1,0,0:0:0:0:
316,72,205461,1,0,0:0:0:0:
324,36,205570,5,0,0:0:0:0:
297,62,205678,1,0,0:0:0:0:
263,77,205787,1,0,0:0:0:0:
226,80,205896,1,0,0:0:0:0:
190,70,206005,1,0,0:0:0:0:
156,56,206113,1,0,0:0:0:0:
119,60,206222,1,0,0:0:0:0:
88,81,206331,1,0,0:0:0:0:
71,114,206439,5,0,0:0:0:0:
71,151,206548,1,0,0:0:0:0:
88,184,206657,1,0,0:0:0:0:
119,205,206765,1,0,0:0:0:0:
156,209,206874,1,0,0:0:0:0:
190,195,206983,1,0,0:0:0:0:
214,167,207092,1,0,0:0:0:0:
243,144,207200,1,0,0:0:0:0:
279,134,207310,5,0,0:0:0:0:
260,166,207418,1,0,0:0:0:0:
255,203,207527,1,0,0:0:0:0:
266,238,207636,1,0,0:0:0:0:
287,269,207744,1,0,0:0:0:0:
295,306,207853,1,0,0:0:0:0:
287,342,207962,1,0,0:0:0:0:
261,368,208070,1,0,0:0:0:0:
224,376,208179,5,0,0:0:0:0:
257,357,208287,1,0,0:0:0:0:
291,342,208396,1,0,0:0:0:0:
327,332,208505,1,0,0:0:0:0:
365,328,208613,1,0,0:0:0:0:
402,328,208722,1,0,0:0:0:0:
439,333,208831,1,0,0:0:0:0:
475,343,208939,1,0,0:0:0:0:
510,357,209049,5,0,0:0:0:0:
476,373,209157,1,0,0:0:0:0:
440,369,209266,1,0,0:0:0:0:
411,345,209375,1,0,0:0:0:0:
401,310,209483,1,0,0:0:0:0:
411,274,209592,1,0,0:0:0:0:
439,250,209701,1,0,0:0:0:0:
475,246,209809,1,0,0:0:0:0:
509,262,209918,5,0,0:0:0:0:
477,242,210026,1,0,0:0:0:0:
451,215,210135,1,0,0:0:0:0:
434,182,210244,1,0,0:0:0:0:
426,146,210352,1,0,0:0:0:0:
429,108,210461,1,0,0:0:0:0:
441,73,210570,1,0,0:0:0:0:
462,42,210678,1,0,0:0:0:0:
491,19,210787,5,0,0:0:0:0:
457,34,210896,1,0,0:0:0:0:
421,44,211005,1,0,0:0:0:0:
384,47,211114,1,0,0:0:0:0:
347,39,211222,1,0,0:0:0:0:
312,28,211331,1,0,0:0:0:0:
274,25,211440,1,0,0:0:0:0:
237,31,211548,1,0,0:0:0:0:
201,41,211657,5,0,0:0:0:0:
239,40,211765,1,0,0:0:0:0:
276,39,211874,1,0,0:0:0:0:
314,37,211983,1,0,0:0:0:0:
351,36,212091,1,0,0:0:0:0:
389,35,212200,1,0,0:0:0:0:
426,34,212309,1,0,0:0:0:0:
464,33,212417,1,0,0:0:0:0:
501,31,212527,5,0,0:0:0:0:
472,55,212635,1,0,0:0:0:0:
456,89,212744,1,0,0:0:0:0:
456,126,212853,1,0,0:0:0:0:
472,159,212962,1,0,0:0:0:0:
496,188,213070,1,0,0:0:0:0:
506,224,213179,1,0,0:0:0:0:
502,261,213288,1,0,0:0:0:0:
483,293,213396,5,0,0:0:0:0:
453,315,213505,1,0,0:0:0:0:
417,323,213614,1,0,0:0:0:0:
380,316,213722,1,0,0:0:0:0:
349,295,213831,1,0,0:0:0:0:
329,264,213940,1,0,0:0:0:0:
323,227,214048,1,0,0:0:0:0:
333,191,214157,1,0,0:0:0:0:
356,161,214266,5,0,0:0:0:0:
326,185,214374,1,0,0:0:0:0:
293,202,214483,1,0,0:0:0:0:
257,212,214592,1,0,0:0:0:0:
220,215,214700,1,0,0:0:0:0:
183,211,214809,1,0,0:0:0:0:
147,199,214918,1,0,0:0:0:0:
114,181,215026,1,0,0:0:0:0:
92,151,215136,5,0,0:0:0:0:
91,114,215244,1,0,0:0:0:0:
111,83,215353,1,0,0:0:0:0:
144,67,215462,1,0,0:0:0:0:
181,73,215570,1,0,0:0:0:0:
209,97,215679,1,0,0:0:0:0:
220,132,215788,1,0,0:0:0:0:
209,168,215896,1,0,0:0:0:0:
182,192,216005,5,0,0:0:0:0:
158,221,216113,1,0,0:0:0:0:
144,256,216222,1,0,0:0:0:0:
142,293,216331,1,0,0:0:0:0:
152,329,216440,1,0,0:0:0:0:
180,352,216548,1,0,0:0:0:0:
217,359,216657,1,0,0:0:0:0:
252,348,216766,1,0,0:0:0:0:
278,321,216875,5,0,0:0:0:0:
304,347,216983,1,0,0:0:0:0:
338,362,217092,1,0,0:0:0:0:
375,363,217201,1,0,0:0:0:0:
411,352,217309,1,0,0:0:0:0:
439,328,217418,1,0,0:0:0:0:
458,295,217527,1,0,0:0:0:0:
463,258,217635,1,0,0:0:0:0:
455,222,217744,5,0,0:0:0:0:
431,251,217852,1,0,0:0:0:0:
398,268,217961,1,0,0:0:0:0:
361,272,218070,1,0,0:0:0:0:
326,260,218178,1,0,0:0:0:0:
298,236,218287,1,0,0:0:0:0:
281,202,218396,1,0,0:0:0:0:
279,165,218504,1,0,0:0:0:0:
292,130,218614,5,0,0:0:0:0:
259,148,218722,1,0,0:0:0:0:
224,161,218831,1,0,0:0:0:0:
187,168,218940,1,0,0:0:0:0:
150,169,219048,1,0,0:0:0:0:
113,164,219157,5,0,0:0:0:0:
130,197,219265,1,0,0:0:0:0:
138,233,219374,1,0,0:0:0:0:
133,270,219483,5,0,0:0:0:0:
164,250,219591,1,0,0:0:0:0:
185,219,219700,1,0,0:0:0:0:
191,182,219809,1,0,0:0:0:0:
181,146,219917,1,0,0:0:0:0:
157,117,220026,1,0,0:0:0:0:
124,100,220135,1,0,0:0:0:0:
87,98,220243,1,0,0:0:0:0:
52,111,220352,5,0,0:0:0:0:
26,138,220461,1,0,0:0:0:0:
13,172,220569,1,0,0:0:0:0:
14,210,220678,1,0,0:0:0:0:
31,243,220788,1,0,0:0:0:0:
60,266,220896,1,0,0:0:0:0:
96,276,221005,1,0,0:0:0:0:
133,271,221114,1,0,0:0:0:0:
164,251,221223,5,0,0:0:0:0:
191,225,221331,1,0,0:0:0:0:
225,210,221440,1,0,0:0:0:0:
262,207,221549,1,0,0:0:0:0:
298,217,221657,1,0,0:0:0:0:
329,239,221766,1,0,0:0:0:0:
364,251,221875,1,0,0:0:0:0:
400,246,221983,1,0,0:0:0:0:
430,224,222092,5,0,0:0:0:0:
392,221,222200,1,0,0:0:0:0:
355,219,222309,1,0,0:0:0:0:
317,217,222418,1,0,0:0:0:0:
280,215,222526,1,0,0:0:0:0:
242,212,222635,1,0,0:0:0:0:
205,210,222744,1,0,0:0:0:0:
167,208,222852,1,0,0:0:0:0:
130,206,222962,5,0,0:0:0:0:
107,235,223070,1,0,0:0:0:0:
103,272,223179,1,0,0:0:0:0:
118,305,223288,1,0,0:0:0:0:
148,326,223396,1,0,0:0:0:0:
185,329,223505,1,0,0:0:0:0:
218,311,223614,1,0,0:0:0:0:
237,280,223722,1,0,0:0:0:0:
237,243,223831,5,0,0:0:0:0:
201,251,223939,1,0,0:0:0:0:
175,277,224048,1,0,0:0:0:0:
166,313,224157,1,0,0:0:0:0:
177,348,224265,1,0,0:0:0:0:
205,372,224374,1,0,0:0:0:0:
242,377,224483,1,0,0:0:0:0:
276,363,224591,1,0,0:0:0:0:
297,333,224701,5,0,0:0:0:0:
261,344,224809,1,0,0:0:0:0:
224,351,224918,1,0,0:0:0:0:
187,351,225027,1,0,0:0:0:0:
150,341,225135,1,0,0:0:0:0:
114,330,225244,1,0,0:0:0:0:
77,327,225353,1,0,0:0:0:0:
40,332,225461,1,0,0:0:0:0:
3,340,225570,5,0,0:0:0:0:
24,309,225678,1,0,0:0:0:0:
34,273,225788,5,0,0:0:0:0:
56,303,225896,1,0,0:0:0:0:
89,320,226005,1,0,0:0:0:0:
126,321,226114,1,0,0:0:0:0:
160,306,226223,5,0,0:0:0:0:
125,295,226331,1,0,0:0:0:0:
97,270,226440,5,0,0:0:0:0:
112,304,226548,1,0,0:0:0:0:
136,332,226657,1,0,0:0:0:0:
168,352,226766,1,0,0:0:0:0:
204,361,226874,1,0,0:0:0:0:
242,359,226983,1,0,0:0:0:0:
277,346,227092,1,0,0:0:0:0:
306,323,227200,1,0,0:0:0:0:
327,292,227309,5,0,0:0:0:0:
337,256,227418,1,0,0:0:0:0:
336,218,227526,1,0,0:0:0:0:
325,183,227635,1,0,0:0:0:0:
303,153,227744,1,0,0:0:0:0:
272,131,227853,1,0,0:0:0:0:
237,119,227961,1,0,0:0:0:0:
200,118,228070,1,0,0:0:0:0:
164,129,228179,5,0,0:0:0:0:
134,152,228288,1,0,0:0:0:0:
114,184,228397,1,0,0:0:0:0:
104,219,228505,1,0,0:0:0:0:
109,256,228614,1,0,0:0:0:0:
130,286,228723,1,0,0:0:0:0:
162,304,228831,1,0,0:0:0:0:
198,311,228940,1,0,0:0:0:0:
235,304,229049,5,0,0:0:0:0:
266,283,229157,1,0,0:0:0:0:
295,259,229266,1,0,0:0:0:0:
332,254,229375,1,0,0:0:0:0:
368,260,229483,1,0,0:0:0:0:
401,277,229592,1,0,0:0:0:0:
433,295,229701,1,0,0:0:0:0:
470,297,229810,1,0,0:0:0:0:
502,278,229918,5,0,0:0:0:0:
509,241,230027,1,0,0:0:0:0:
496,205,230136,1,0,0:0:0:0:
462,188,230244,1,0,0:0:0:0:
425,197,230353,1,0,0:0:0:0:
407,230,230462,1,0,0:0:0:0:
411,267,230570,1,0,0:0:0:0:
426,301,230679,1,0,0:0:0:0:
426,338,230788,5,0,0:0:0:0:
401,366,230897,1,0,0:0:0:0:
365,377,231005,1,0,0:0:0:0:
328,369,231114,1,0,0:0:0:0:
302,341,231223,1,0,0:0:0:0:
278,311,231331,1,0,0:0:0:0:
242,297,231440,1,0,0:0:0:0:
204,294,231549,1,0,0:0:0:0:
168,306,231657,5,0,0:0:0:0:
139,331,231766,1,0,0:0:0:0:
109,354,231875,1,0,0:0:0:0:
71,357,231983,1,0,0:0:0:0:
36,343,232092,1,0,0:0:0:0:
7,318,232201,1,0,0:0:0:0:
0,280,232310,1,0,0:0:0:0:
8,243,232418,1,0,0:0:0:0:
27,210,232527,5,0,0:0:0:0:
59,191,232636,1,0,0:0:0:0:
96,189,232744,1,0,0:0:0:0:
132,198,232853,5,0,0:0:0:0:
161,221,232962,1,0,0:0:0:0:
183,250,233070,1,0,0:0:0:0:
216,267,233179,1,0,0:0:0:0:
253,270,233288,1,0,0:0:0:0:
288,250,233358,6,0,P|377:263|422:182,1,150
378,109,233684,1,0,0:0:0:0:
361,122,233792,2,0,P|345:171|342:215,1,75
431,240,234010,2,0,P|447:289|471:326,2,75
480,108,234662,5,0,0:0:0:0:
