osu file format v14

[General]
AudioFilename: audio.mp3
AudioLeadIn: 0
PreviewTime: 39046
Countdown: 0
SampleSet: Normal
StackLeniency: 1
Mode: 0
LetterboxInBreaks: 0
WidescreenStoryboard: 1

[Editor]
Bookmarks: 180352,182091,184700,191331,196004,198396,205570,209917,212526,219265,224265,226222
DistanceSpacing: 1.9
BeatDivisor: 4
GridSize: 16
TimelineZoom: 2.000001

[Metadata]
Title:A FOOL MOON NIGHT
TitleUnicode:A FOOL MOON NIGHT
Artist:The Koxx
ArtistUnicode:칵스
Creator:Astar
Version:emillia
Source:
Tags:piggey overjoy a_kochav [_emillia_] [ emillia ] friendofox naoka firedigger silverboxer silverboxer
BeatmapID:1126228
BeatmapSetID:524026

[Difficulty]
HPDrainRate:5
CircleSize:4
OverallDifficulty:10
ApproachRate:9.4
SliderMultiplier:3
SliderTickRate:1

[Events]
//Background and Video events
0,0,"1474291154383.jpg",0,0
//Break Periods
2,109908,119797
//Storyboard Layer 0 (Background)
//Storyboard Layer 1 (Fail)
//Storyboard Layer 2 (Pass)
//Storyboard Layer 3 (Foreground)
//Storyboard Sound Samples

[TimingPoints]
309,434.782608695652,4,1,0,30,1,0
10743,-200,4,1,0,30,0,0
11613,-181.818181818182,4,1,0,30,0,0
12482,-166.666666666667,4,1,0,30,0,0
13352,-76.9230769230769,4,1,0,30,0,0
14222,-142.857142857143,4,1,0,30,0,0
15091,-133.333333333333,4,1,0,30,0,0
15961,-125,4,1,0,30,0,0
16830,-88.4955752212389,4,1,0,30,0,0
17700,-111.111111111111,4,1,0,30,0,0
18569,-105.263157894737,4,1,0,30,0,0
19439,-100,4,1,0,30,0,0
20308,-95.2380952380952,4,1,0,30,0,0
23787,-83.3333333333333,4,1,0,30,0,0
24656,-100,4,1,0,30,0,0
38612,434.782608695652,4,1,0,60,1,0
38612,-133.333333333333,4,1,0,60,0,0
45561,434.782608695652,4,1,0,60,1,0
50778,-400,4,1,0,60,0,0
52952,-100,4,1,0,80,0,0
53387,434.782608695652,4,1,0,80,1,0
54256,434.782608695652,4,1,0,80,1,0
78603,-133.333333333333,4,1,0,80,0,0
80342,-100,4,1,0,100,0,1
108169,-100,4,1,0,100,0,0
120337,434.782608695652,4,1,0,100,1,0
120337,-133.333333333333,4,1,0,100,0,0
121206,-83.3333333333333,4,1,0,100,0,0
122076,-133.333333333333,4,1,0,100,0,0
135119,-83.3333333333333,4,1,0,100,0,0
135969,434.782608695652,4,1,0,100,1,0
149921,434.782608695652,4,1,0,100,1,0
149921,-133.333333333333,4,1,0,100,0,0
156850,434.782608695652,4,1,0,75,1,0
156850,-100,4,1,0,75,0,0
162067,-400,4,1,0,60,0,0
163831,434.782608695652,4,1,0,75,1,0
176004,-133.333333333333,4,1,0,75,0,0
177744,-100,4,1,0,100,0,1
233358,434.782608695652,4,1,0,100,1,0
233358,-100,4,1,0,100,0,0

[HitObjects]
173,49,3569,6,0,P|156:58|136:65,3,37.5
192,31,3787,6,0,P|191:113|177:208,1,150
248,272,4113,2,0,P|190:222|113:244,1,150
156,370,4439,2,0,P|174:331|173:289,1,75
52,176,4656,2,0,P|75:266|78:351,1,150
178,82,4982,2,0,P|164:173|133:253,1,150
22,93,5308,2,0,P|68:84|120:100,1,75
271,73,5526,6,0,P|286:6|225:38,1,150
305,174,5852,2,0,P|368:177|346:118,1,150
192,96,6178,2,0,P|208:145|208:200,1,75
261,283,6395,2,0,B|175:307|193:251|86:286,1,150
0,360,6722,2,0,B|84:380|63:334|147:355,1,150
339,327,7048,2,0,L|384:319,3,37.5
312,357,7265,6,0,P|308:287|268:191,1,150
368,212,7591,2,0,P|372:142|412:46,1,150
220,155,7917,2,0,P|269:133|309:136,1,75
512,98,8135,2,0,P|461:159|388:124,1,150
243,19,8461,2,0,P|312:6|354:64,1,150
284,212,8787,2,0,P|290:175|302:140,1,75
378,226,9004,6,0,P|388:301|391:376,1,150
307,314,9330,2,0,P|413:299|467:299,1,150
500,216,9656,2,0,P|439:180|419:155,1,75
318,83,9874,2,0,P|262:138|300:221,1,150
200,334,10200,2,0,P|212:263|159:216,1,150
69,364,10526,2,0,L|12:342,3,37.5
97,354,10743,6,0,B|161:325|213:361|213:361|259:393|327:364,1,225
473,274,11613,2,0,B|412:261|397:186|397:186|371:264|276:255,1,247.500007553101
63,367,12482,6,0,B|31:299|86:247|86:247|176:263|162:371,1,269.999991760254
181,66,13352,6,0,P|255:74|152:123,2,292.499986610413
353,58,14222,6,0,B|393:100|477:85|495:36|495:36|477:58|431:70,1,209.999993591309
264,87,15091,2,0,B|231:116|189:116|189:116|177:174|177:174|134:192|64:159|63:112|63:112|84:131|119:125,1,337.500012874604
266,205,15961,6,0,B|293:283|256:361|256:361|296:329|334:326|334:326|361:298|352:257|352:257|319:251|278:283,1,360
148,178,16830,6,0,B|179:235|131:269|128:304|128:304|105:275|50:285|31:222,1,254.250000775909
0,130,17265,2,0,B|64:133|64:133|87:142|87:142|110:136|110:136|211:143,1,169.500000517273
260,0,17700,6,0,P|295:68|410:35,1,202.499993820191
495,44,18135,2,0,P|464:122|468:189,1,134.999995880127
112,235,18569,6,0,P|180:200|147:85,1,213.749994292259
156,0,19004,2,0,P|234:31|301:27,1,142.49999619484
347,383,19439,6,0,P|311:314|190:358,1,225
112,338,19874,2,0,P|143:260|139:193,1,150
495,148,20308,6,0,P|419:186|468:306,1,236.249992790222
451,383,20743,2,0,P|373:352|299:357,1,157.499995193482
256,192,21069,12,0,22917,0:0:0:0:
207,101,23787,6,0,B|73:88|73:88|147:143,1,179.999994506836
283,143,24113,2,0,L|294:31,1,89.9999972534181
123,326,24656,6,0,P|178:364|265:324,1,150
196,284,24982,1,0,0:0:0:0:
67,256,25091,2,0,P|45:286|35:322,1,75
153,207,25308,2,0,P|143:170|121:140,1,75
16,99,25526,2,0,L|200:82,1,150
282,73,25852,1,0,0:0:0:0:
298,98,25961,2,0,P|322:44|314:6,1,75
376,243,26178,2,0,P|366:184|339:157,1,75
250,248,26395,6,0,B|271:283|266:325|236:361|236:361|258:343|283:340,1,150
395,347,26722,1,0,0:0:0:0:
370,326,26830,1,0,0:0:0:0:
256,233,27048,2,0,L|173:245,1,75
53,301,27265,2,0,P|111:356|198:314,1,150
31,229,27591,1,0,0:0:0:0:
0,217,27700,2,0,P|8:314|0:379,1,150
125,68,28135,6,0,B|163:66|194:96|194:96|240:68|286:74,1,150
352,49,28461,1,0,0:0:0:0:
385,26,28569,2,0,P|359:92|357:125,1,75
279,246,28787,2,0,P|269:209|252:176,1,75
489,147,29004,2,0,P|430:208|354:177,1,150
413,295,29330,1,0,0:0:0:0:
439,322,29439,2,0,P|359:306|318:307,1,75
246,350,29656,2,0,P|200:366|167:387,1,75
161,255,29874,6,0,B|105:256|48:234|48:234|83:272|84:301,1,150
282,269,30200,1,0,0:0:0:0:
293,288,30308,1,0,0:0:0:0:
128,81,30526,2,0,P|141:125|149:172,1,75
195,360,30743,1,0,0:0:0:0:
246,101,30961,1,0,0:0:0:0:
80,236,31178,1,0,0:0:0:0:
341,173,31395,1,0,0:0:0:0:
133,296,31613,6,0,P|63:287|8:373,1,150
214,358,31939,1,0,0:0:0:0:
236,377,32048,2,0,P|229:319|233:281,1,75
348,194,32265,2,0,P|348:231|341:268,1,75
316,118,32482,2,0,B|394:97|384:155|461:128,1,150
240,148,32808,1,0,0:0:0:0:
252,176,32917,2,0,L|153:164,1,75
120,56,33135,2,0,L|45:65,1,75
72,249,33352,6,0,P|129:174|93:121,1,150
0,180,33678,1,0,0:0:0:0:
3,207,33787,1,0,0:0:0:0:
186,304,34004,2,0,P|192:261|209:213,1,75
98,341,34222,2,0,P|174:333|222:387,1,150
284,317,34548,1,0,0:0:0:0:
375,351,34656,2,0,B|412:342|449:356|449:356|456:312|506:286,1,150
436,112,35091,6,0,P|454:37|391:64,1,150
349,180,35417,1,0,0:0:0:0:
323,192,35526,2,0,P|339:137|337:98,1,75
232,112,35743,2,0,P|222:55|203:21,1,75
198,206,35961,2,0,L|223:389,1,150
317,301,36287,1,0,0:0:0:0:
299,279,36395,2,0,L|382:288,1,75
218,191,36613,2,0,L|135:200,1,75
6,148,36830,6,0,P|3:84|89:42,1,150
45,223,37156,1,0,0:0:0:0:
25,242,37265,1,0,0:0:0:0:
153,97,37482,2,0,P|146:49|143:7,1,75
194,184,37700,1,0,0:0:0:0:
208,197,37917,2,0,P|204:234|198:271,1,75
258,91,38135,2,0,P|265:43|268:1,1,75
83,159,38352,2,0,P|87:196|93:233,1,75
259,383,38612,6,0,B|230:310|276:237|276:237|236:287|176:272,1,225.000008583069
345,277,39264,1,0,0:0:0:0:
396,175,39481,2,0,P|341:138|280:153,1,112.500004291535
197,172,39916,1,0,0:0:0:0:
207,196,40133,1,0,0:0:0:0:
298,127,40351,6,0,P|273:53|242:93,1,168.750006437302
456,217,41003,1,0,0:0:0:0:
354,258,41220,2,0,B|413:267|416:340|416:340|462:274|552:308,1,225.000008583069
74,156,42090,6,0,B|74:210|143:234|143:234|189:168|145:121,1,225.000008583069
160,269,42742,1,0,0:0:0:0:
143,260,42959,2,0,P|161:322|155:385,1,112.500004291535
293,158,43394,2,0,P|285:222|255:277,1,112.500004291535
0,233,43829,6,0,P|96:238|173:258,2,168.750006437302
155,160,44698,2,0,P|226:123|136:92,1,225.000008583069
270,295,45561,6,0,B|336:287|376:344|376:344|381:270|457:251,1,225
499,302,45995,2,0,L|513:135,1,150
343,217,46430,2,0,L|329:50,1,150
501,138,46865,2,0,L|488:287,1,150
220,265,47300,6,0,P|206:355|89:348,1,225
179,358,47734,2,0,L|345:365,1,150
43,265,48169,2,0,L|209:258,1,150
382,353,48604,2,0,L|232:346,1,150
56,356,49039,6,0,B|43:188|43:188|102:258,1,225
164,270,49474,2,0,B|183:164|183:164|158:94,1,150
23,163,49908,2,0,B|4:57|4:57|29:-13,1,150
167,238,50343,2,0,B|181:277|181:277|162:383,1,150
72,290,50778,6,0,L|63:221,2,56.25
210,117,51647,1,0,0:0:0:0:
123,375,51865,5,0,0:0:0:0:
80,273,51974,1,0,0:0:0:0:
189,286,52082,1,0,0:0:0:0:
186,304,52517,6,0,L|243:308,2,56.25
14,323,53387,6,0,B|186:303|186:303|165:325|153:359,1,225
46,240,53821,1,0,0:0:0:0:
261,340,54039,2,0,P|291:360|357:357,1,75
339,145,54256,6,0,P|309:239|345:310,1,150
421,223,54582,1,0,0:0:0:0:
205,137,54690,2,0,P|225:183|212:267,1,75
421,90,54908,2,0,P|366:59|300:76,1,75
183,119,55125,2,0,B|203:135|203:135|76:121,1,150
79,121,55451,1,0,0:0:0:0:
241,22,55560,2,0,P|303:23|251:80,1,150
126,211,55995,6,0,B|139:243|139:243|124:367,1,150
51,264,56321,1,0,0:0:0:0:
221,315,56429,2,0,B|346:303|346:303|317:328,1,150
324,97,56864,2,0,P|402:87|335:156,1,225
261,155,57299,1,0,0:0:0:0:
492,90,57516,2,0,P|495:131|482:177,1,75
308,249,57734,6,0,P|283:321|351:372,1,150
386,214,58060,1,0,0:0:0:0:
220,217,58169,2,0,P|203:171|205:116,1,75
346,100,58386,2,0,P|314:137|266:163,1,75
117,59,58603,2,0,B|207:34|189:85|295:48,1,150
129,199,59038,2,0,B|88:183|77:152|77:152|32:167|-8:143,1,150
373,153,59473,6,0,B|348:234|394:221|367:309,1,150
452,196,59799,1,0,0:0:0:0:
293,261,59908,2,0,P|221:245|156:250,1,75
357,376,60125,2,0,P|416:363|434:341,1,75
161,351,60342,2,0,B|107:348|107:348|67:358|67:358|2:353,1,150
138,210,60669,1,0,0:0:0:0:
102,195,60777,2,0,P|125:265|121:303,1,75
274,297,60995,2,0,P|257:368|234:399,1,75
230,208,61212,6,0,P|246:117|250:20,1,150
161,19,61538,1,0,0:0:0:0:
191,8,61647,2,0,P|126:14|71:33,1,75
333,64,61864,2,0,P|369:70|407:72,1,75
150,168,62082,2,0,P|147:105|125:173,1,150
117,263,62408,1,0,0:0:0:0:
223,209,62516,2,0,B|309:199|284:244|391:215,1,150
44,319,62951,6,0,P|117:306|161:375,1,150
220,280,63277,1,0,0:0:0:0:
336,367,63386,2,0,P|328:334|304:288,1,75
160,217,63603,2,0,P|143:250|134:286,1,75
335,212,63821,2,0,B|366:150|333:96|333:96|362:97|394:123,1,150
422,237,64147,1,0,0:0:0:0:
431,259,64256,1,0,0:0:0:0:
255,130,64473,2,0,P|244:86|247:34,1,75
475,41,64690,6,0,P|412:97|328:74,1,150
392,13,65016,1,0,0:0:0:0:
482,163,65125,2,0,P|458:198|443:254,1,75
381,372,65342,2,0,P|366:337|362:300,1,75
370,106,65560,2,0,P|315:174|241:153,1,150
281,265,65886,1,0,0:0:0:0:
189,321,65995,5,0,0:0:0:0:
185,279,66103,1,0,0:0:0:0:
182,238,66212,1,0,0:0:0:0:
179,197,66321,1,0,0:0:0:0:
102,125,66429,6,0,B|278:90|278:90|247:108|207:170,1,225
315,156,66864,2,0,P|352:90|308:22,1,150
62,230,67299,2,0,B|16:294|55:368|112:370|112:370|82:349|79:306,1,225
155,303,67734,2,0,L|322:309,1,150
450,122,68169,5,0,0:0:0:0:
468,100,68277,2,0,B|486:172|486:172|453:267,1,150
329,382,68603,2,0,B|304:310|304:310|322:238,1,150
366,62,69038,1,0,0:0:0:0:
401,306,69256,1,0,0:0:0:0:
187,222,69473,2,0,L|354:228,1,150
148,304,69908,6,0,P|86:363|13:335,1,150
96,243,70234,2,0,P|114:164|102:69,1,150
185,20,70560,2,0,P|194:88|219:132,1,75
267,179,70777,2,0,P|364:170|387:105,1,150
427,224,71103,1,0,0:0:0:0:
443,210,71212,2,0,P|461:266|446:318,1,75
229,363,71429,2,0,P|230:325|246:292,1,75
352,179,71647,6,0,P|390:105|325:26,1,150
242,179,71973,2,0,P|259:242|263:295,1,75
276,85,72190,1,0,0:0:0:0:
270,69,72299,1,0,0:0:0:0:
197,299,72516,2,0,B|109:321|128:285|41:305,1,150
156,222,72842,1,0,0:0:0:0:
254,361,72951,1,0,0:0:0:0:
295,98,73169,2,0,P|303:61|318:27,1,75
472,96,73386,6,0,B|486:153|449:201|386:213|344:178|344:178|369:182|396:176,1,225
465,207,73821,2,0,P|483:278|445:344,1,150
132,316,74256,2,0,B|197:296|264:309|302:336|302:336|285:306|243:298,1,225
155,341,74690,2,0,B|90:339|90:339|65:346|65:346|-20:344,1,150
211,216,75125,5,0,0:0:0:0:
226,232,75234,2,0,B|258:168|238:103|238:103|211:143,1,150
93,164,75560,2,0,B|61:100|81:35|81:35|108:75,1,150
64,249,75995,1,0,0:0:0:0:
198,40,76212,1,0,0:0:0:0:
380,211,76429,2,0,B|315:213|315:213|290:206|290:206|205:208,1,150
42,274,76864,6,0,P|96:327|171:266,1,150
240,228,77190,2,0,P|199:341|208:405,1,150
175,159,77516,2,0,P|167:121|178:72,1,75
316,88,77734,2,0,P|302:150|264:84,1,150
377,38,78060,1,0,0:0:0:0:
396,41,78169,1,0,0:0:0:0:
248,228,78386,1,0,0:0:0:0:
441,196,78603,5,0,0:0:0:0:
303,363,78821,1,0,0:0:0:0:
304,344,78929,1,0,0:0:0:0:
306,325,79038,1,0,0:0:0:0:
308,307,79147,1,0,0:0:0:0:
310,288,79256,1,0,0:0:0:0:
500,139,79473,2,0,P|523:213|439:279,1,168.750006437302
392,306,79908,2,0,P|389:278|383:250,1,56.2500021457673
183,55,80342,5,0,0:0:0:0:
76,294,80451,1,0,0:0:0:0:
249,114,80560,5,0,0:0:0:0:
66,282,80669,1,0,0:0:0:0:
245,239,80777,5,0,0:0:0:0:
78,106,80886,1,0,0:0:0:0:
167,320,80995,5,0,0:0:0:0:
187,44,81103,1,0,0:0:0:0:
8,202,81212,5,0,0:0:0:0:
256,121,81321,1,0,0:0:0:0:
21,210,81429,5,0,0:0:0:0:
272,147,81538,1,0,0:0:0:0:
50,123,81647,5,0,0:0:0:0:
209,341,81755,1,0,0:0:0:0:
141,74,81864,5,0,0:0:0:0:
54,325,81973,1,0,0:0:0:0:
285,166,82082,5,0,0:0:0:0:
38,117,82190,1,0,0:0:0:0:
361,122,82299,5,0,0:0:0:0:
144,186,82408,1,0,0:0:0:0:
323,47,82516,5,0,0:0:0:0:
253,308,82625,1,0,0:0:0:0:
313,37,82734,5,0,0:0:0:0:
389,248,82842,1,0,0:0:0:0:
157,84,82951,6,0,L|250:95,1,75
476,131,83169,6,0,L|383:142,1,75
79,161,83386,6,0,L|172:172,1,75
461,29,83603,6,0,L|368:40,1,75
150,50,83821,5,0,0:0:0:0:
310,260,83929,1,0,0:0:0:0:
312,55,84038,5,0,0:0:0:0:
152,286,84147,1,0,0:0:0:0:
208,114,84255,5,0,0:0:0:0:
426,94,84364,1,0,0:0:0:0:
234,25,84473,5,0,0:0:0:0:
256,311,84582,1,0,0:0:0:0:
13,158,84690,5,0,0:0:0:0:
261,196,84799,1,0,0:0:0:0:
20,166,84908,5,0,0:0:0:0:
344,153,85016,1,0,0:0:0:0:
102,239,85125,5,0,0:0:0:0:
192,26,85234,1,0,0:0:0:0:
108,247,85342,5,0,0:0:0:0:
270,76,85451,1,0,0:0:0:0:
197,299,85560,5,0,0:0:0:0:
142,111,85669,1,0,0:0:0:0:
84,332,85777,5,0,0:0:0:0:
316,227,85886,1,0,0:0:0:0:
79,170,85995,5,0,0:0:0:0:
289,305,86103,1,0,0:0:0:0:
20,296,86212,5,0,0:0:0:0:
150,103,86321,1,0,0:0:0:0:
130,370,86429,5,0,0:0:0:0:
81,128,86538,1,0,0:0:0:0:
273,147,86647,5,0,0:0:0:0:
9,215,86755,1,0,0:0:0:0:
243,233,86864,5,0,0:0:0:0:
116,373,86973,1,0,0:0:0:0:
168,169,87082,5,0,0:0:0:0:
231,381,87190,1,0,0:0:0:0:
250,247,87299,6,0,L|266:145,1,75
84,33,87516,6,0,L|95:107,1,75
304,87,87734,6,0,L|320:-15,1,75
116,247,87951,6,0,L|127:321,1,75
225,121,88169,5,0,0:0:0:0:
23,185,88277,1,0,0:0:0:0:
239,375,88386,5,0,0:0:0:0:
124,151,88495,1,0,0:0:0:0:
276,233,88603,5,0,0:0:0:0:
111,310,88712,1,0,0:0:0:0:
216,144,88821,5,0,0:0:0:0:
358,290,88929,1,0,0:0:0:0:
396,49,89038,6,0,L|298:59,1,75
125,44,89255,5,0,0:0:0:0:
326,190,89364,1,0,0:0:0:0:
83,165,89473,5,0,0:0:0:0:
243,49,89582,1,0,0:0:0:0:
165,232,89690,5,0,0:0:0:0:
137,30,89799,1,0,0:0:0:0:
77,263,89908,5,0,0:0:0:0:
258,142,90016,1,0,0:0:0:0:
32,74,90125,5,0,0:0:0:0:
259,46,90234,1,0,0:0:0:0:
151,122,90342,5,0,0:0:0:0:
379,167,90451,1,0,0:0:0:0:
99,190,90560,5,0,0:0:0:0:
347,57,90669,1,0,0:0:0:0:
130,31,90777,6,0,L|144:138,1,75
189,226,90995,5,0,0:0:0:0:
270,6,91103,1,0,0:0:0:0:
41,202,91212,5,0,0:0:0:0:
312,242,91321,1,0,0:0:0:0:
114,160,91429,5,0,0:0:0:0:
327,349,91538,1,0,0:0:0:0:
63,332,91647,6,0,L|156:316,1,75
243,334,91864,5,0,0:0:0:0:
152,89,91973,1,0,0:0:0:0:
407,306,92082,5,0,0:0:0:0:
315,92,92190,1,0,0:0:0:0:
323,368,92299,5,0,0:0:0:0:
428,117,92408,1,0,0:0:0:0:
204,255,92516,6,0,P|194:200|208:155,1,75
354,196,92734,5,0,0:0:0:0:
68,347,92842,1,0,0:0:0:0:
236,76,92951,5,0,0:0:0:0:
151,344,93060,1,0,0:0:0:0:
171,132,93169,5,0,0:0:0:0:
263,384,93277,1,0,0:0:0:0:
472,179,93386,6,0,L|377:168,1,75
242,57,93603,5,0,0:0:0:0:
391,258,93712,1,0,0:0:0:0:
90,157,93821,5,0,0:0:0:0:
412,157,93929,1,0,0:0:0:0:
165,53,94038,5,0,0:0:0:0:
124,289,94147,1,0,0:0:0:0:
77,19,94255,5,0,0:0:0:0:
236,227,94364,1,0,0:0:0:0:
22,104,94473,5,0,0:0:0:0:
301,64,94582,1,0,0:0:0:0:
64,197,94690,5,0,0:0:0:0:
382,154,94799,1,0,0:0:0:0:
139,81,94908,5,0,0:0:0:0:
482,111,95016,1,0,0:0:0:0:
275,243,95125,5,0,0:0:0:0:
380,36,95234,1,0,0:0:0:0:
459,200,95342,5,0,0:0:0:0:
207,142,95451,1,0,0:0:0:0:
363,297,95560,5,0,0:0:0:0:
266,71,95669,1,0,0:0:0:0:
184,287,95777,5,0,0:0:0:0:
199,8,95886,1,0,0:0:0:0:
356,213,95995,5,0,0:0:0:0:
116,84,96103,1,0,0:0:0:0:
335,19,96212,5,0,0:0:0:0:
173,273,96321,1,0,0:0:0:0:
30,96,96429,5,0,0:0:0:0:
291,159,96538,1,0,0:0:0:0:
65,239,96647,5,0,0:0:0:0:
206,19,96755,1,0,0:0:0:0:
295,317,96864,6,0,L|307:224,1,75
155,153,97082,6,0,L|143:60,1,75
204,341,97299,6,0,L|192:248,1,75
296,89,97516,6,0,L|308:-4,1,75
171,166,97734,5,0,0:0:0:0:
135,379,97842,1,0,0:0:0:0:
292,227,97951,5,0,0:0:0:0:
57,168,98060,1,0,0:0:0:0:
355,146,98169,5,0,0:0:0:0:
197,273,98277,1,0,0:0:0:0:
273,45,98386,5,0,0:0:0:0:
384,293,98495,1,0,0:0:0:0:
158,142,98603,5,0,0:0:0:0:
426,93,98712,1,0,0:0:0:0:
91,219,98821,5,0,0:0:0:0:
186,41,98929,1,0,0:0:0:0:
275,343,99038,5,0,0:0:0:0:
271,111,99147,1,0,0:0:0:0:
100,297,99255,5,0,0:0:0:0:
338,196,99364,1,0,0:0:0:0:
59,144,99473,5,0,0:0:0:0:
307,30,99582,1,0,0:0:0:0:
384,288,99690,5,0,0:0:0:0:
121,214,99799,1,0,0:0:0:0:
391,117,99908,5,0,0:0:0:0:
187,316,100016,1,0,0:0:0:0:
134,71,100125,5,0,0:0:0:0:
74,299,100234,1,0,0:0:0:0:
303,350,100342,5,0,0:0:0:0:
17,367,100451,1,0,0:0:0:0:
194,188,100560,5,0,0:0:0:0:
26,141,100669,1,0,0:0:0:0:
279,269,100777,5,0,0:0:0:0:
81,311,100886,1,0,0:0:0:0:
243,21,100995,6,0,L|235:123,1,75
85,76,101212,5,0,0:0:0:0:
344,167,101321,1,0,0:0:0:0:
12,157,101429,5,0,0:0:0:0:
321,32,101538,1,0,0:0:0:0:
194,353,101647,5,0,0:0:0:0:
186,69,101755,1,0,0:0:0:0:
450,206,101864,5,0,0:0:0:0:
121,150,101973,1,0,0:0:0:0:
409,46,102082,5,0,0:0:0:0:
312,319,102190,1,0,0:0:0:0:
234,17,102299,5,0,0:0:0:0:
385,259,102408,1,0,0:0:0:0:
63,222,102516,5,0,0:0:0:0:
353,143,102625,1,0,0:0:0:0:
56,83,102734,5,0,0:0:0:0:
291,234,102842,1,0,0:0:0:0:
136,44,102951,5,0,0:0:0:0:
165,306,103060,1,0,0:0:0:0:
248,12,103169,5,0,0:0:0:0:
67,292,103277,1,0,0:0:0:0:
391,227,103386,5,0,0:0:0:0:
57,77,103495,1,0,0:0:0:0:
250,358,103603,5,0,0:0:0:0:
316,60,103712,1,0,0:0:0:0:
0,193,103821,5,0,0:0:0:0:
328,294,103929,1,0,0:0:0:0:
181,16,104038,5,0,0:0:0:0:
134,362,104147,1,0,0:0:0:0:
410,104,104255,5,0,0:0:0:0:
50,30,104364,1,0,0:0:0:0:
243,371,104473,5,0,0:0:0:0:
265,20,104582,1,0,0:0:0:0:
31,289,104690,6,0,L|42:175,1,75
48,42,104908,5,0,0:0:0:0:
327,320,105016,1,0,0:0:0:0:
186,2,105125,5,0,0:0:0:0:
130,341,105234,1,0,0:0:0:0:
271,27,105342,5,0,0:0:0:0:
57,263,105451,1,0,0:0:0:0:
401,193,105560,5,0,0:0:0:0:
26,99,105669,1,0,0:0:0:0:
343,274,105777,5,0,0:0:0:0:
257,37,105886,1,0,0:0:0:0:
208,361,105995,5,0,0:0:0:0:
175,15,106103,1,0,0:0:0:0:
407,334,106212,5,0,0:0:0:0:
93,278,106321,1,0,0:0:0:0:
475,222,106429,5,0,0:0:0:0:
256,47,106538,1,0,0:0:0:0:
323,382,106647,5,0,0:0:0:0:
446,52,106755,1,0,0:0:0:0:
82,186,106864,5,0,0:0:0:0:
416,325,106973,1,0,0:0:0:0:
152,74,107082,5,0,0:0:0:0:
69,352,107190,1,0,0:0:0:0:
264,122,107299,5,0,0:0:0:0:
4,36,107408,1,0,0:0:0:0:
245,225,107516,5,0,0:0:0:0:
2,297,107625,1,0,0:0:0:0:
363,164,107734,5,0,0:0:0:0:
42,106,107842,1,0,0:0:0:0:
358,27,107951,5,0,0:0:0:0:
258,359,108060,1,0,0:0:0:0:
12,181,108169,5,0,0:0:0:0:
110,28,120337,6,0,P|129:95|54:40,1,225.000008583069
429,274,121206,6,0,B|371:278|354:324|354:324|339:278|291:269,1,179.999994506836
236,317,121532,2,0,P|264:358|277:315,1,89.9999972534181
307,147,121858,1,0,0:0:0:0:
90,329,122076,5,0,0:0:0:0:
103,346,122184,2,0,P|77:229|59:212,1,112.500004291535
30,187,122510,2,0,P|83:142|141:161,1,112.500004291535
188,181,122837,2,0,P|211:98|244:54,1,112.500004291535
291,47,123163,2,0,L|142:55,1,112.500004291535
107,29,123489,2,0,P|82:87|105:135,1,112.500004291535
172,271,123815,6,0,P|189:219|165:171,1,112.500004291535
108,306,124141,2,0,P|191:310|241:331,1,112.500004291535
278,362,124467,2,0,L|267:226,1,112.500004291535
309,181,124793,2,0,B|214:168|214:168|238:198,1,112.500004291535
154,215,125119,2,0,B|59:228|59:228|83:198,1,112.500004291535
128,129,125445,6,0,P|110:101|107:147,1,112.500004291535
201,141,125771,2,0,P|190:77|113:30,1,112.500004291535
89,24,126097,2,0,L|235:11,1,112.500004291535
267,49,126423,2,0,P|321:82|387:47,1,112.500004291535
326,10,126750,2,0,P|345:88|347:151,1,112.500004291535
402,170,127076,2,0,P|369:223|391:281,1,112.500004291535
443,304,127402,6,0,L|291:296,1,112.500004291535
288,357,127728,2,0,L|136:365,1,112.500004291535
102,378,128054,2,0,P|78:323|121:266,1,112.500004291535
158,232,128380,2,0,P|83:241|22:244,1,112.500004291535
1,184,128706,1,0,0:0:0:0:
11,171,128815,2,0,P|16:135|5:97,1,56.2500021457673
116,42,129032,5,0,0:0:0:0:
99,52,129141,2,0,L|251:43,1,112.500004291535
291,20,129467,2,0,P|305:63|304:105,1,56.2500021457673
258,174,129684,2,0,P|235:238|267:302,1,112.500004291535
307,321,130010,2,0,P|265:314|154:312,1,112.500004291535
123,334,130337,2,0,P|60:374|9:361,1,112.500004291535
7,300,130663,6,0,L|14:167,1,112.500004291535
78,40,130989,2,0,L|83:152,1,112.500004291535
25,111,131315,2,0,P|76:81|147:123,1,112.500004291535
259,180,131641,2,0,P|205:192|159:163,1,112.500004291535
301,117,131967,2,0,P|275:210|270:268,1,112.500004291535
330,352,132293,2,0,B|342:365|342:365|359:309|332:275,1,112.500004291535
194,254,132619,6,0,L|343:263,1,112.500004291535
409,274,132945,2,0,B|410:244|432:220|432:220|406:206|378:220,1,112.500004291535
486,272,133271,2,0,P|506:224|460:152,1,112.500004291535
406,136,133597,2,0,P|386:88|432:16,1,112.500004291535
461,84,133923,1,0,0:0:0:0:
475,70,134032,2,0,P|478:88|481:106,3,28.1250010728836
496,82,134250,5,0,0:0:0:0:
164,195,135119,2,0,P|252:180|289:137,1,89.9999972534181
386,298,135337,2,0,P|348:272|305:265,1,89.9999972534181
146,326,135554,1,0,0:0:0:0:
389,283,135969,6,0,B|359:207|412:152|412:152|370:204|271:160,1,225
467,98,136403,2,0,P|487:146|465:215,1,75
353,105,136621,2,0,P|367:56|366:20,1,75
151,100,136838,2,0,P|192:151|291:128,1,150
203,25,137164,1,0,0:0:0:0:
213,6,137273,2,0,P|226:56|228:103,1,75
76,132,137490,2,0,P|64:182|43:224,1,75
209,203,137708,6,0,B|233:227|245:290|219:320|219:320|211:291|189:274,1,150
320,243,138034,1,0,0:0:0:0:
311,263,138142,1,0,0:0:0:0:
135,338,138360,2,0,P|125:300|135:254,1,75
385,297,138577,2,0,P|329:343|241:303,1,150
446,241,138903,1,0,0:0:0:0:
461,254,139012,2,0,B|447:191|469:132|469:132|388:121,1,150
283,17,139447,6,0,L|299:214,1,150
207,102,139773,1,0,0:0:0:0:
374,148,139882,2,0,P|356:221|316:248,1,75
254,308,140099,2,0,P|261:271|253:235,1,75
51,305,140316,2,0,B|93:290|128:308|128:308|150:275|201:271,1,150
337,299,140642,1,0,0:0:0:0:
357,294,140751,2,0,P|337:357|341:393,1,75
431,207,140969,2,0,P|426:169|410:135,1,75
188,164,141186,6,0,P|222:210|332:176,1,150
242,102,141512,1,0,0:0:0:0:
226,91,141621,1,0,0:0:0:0:
86,273,141838,2,0,P|140:260|185:268,1,75
267,336,142055,1,0,0:0:0:0:
192,185,142273,1,0,0:0:0:0:
138,358,142490,1,0,0:0:0:0:
339,251,142708,1,0,0:0:0:0:
247,64,142925,6,0,B|218:85|207:128|207:128|160:93|103:108,1,150
170,23,143251,1,0,0:0:0:0:
240,146,143360,2,0,B|259:175|248:216|248:216|206:204|195:159,1,150
58,330,143795,2,0,P|100:293|65:348,1,150
136,225,144121,1,0,0:0:0:0:
251,242,144229,2,0,P|252:303|201:270,1,150
359,357,144664,6,0,B|420:340|482:368|482:368|444:365,1,150
334,369,144990,1,0,0:0:0:0:
448,279,145099,2,0,P|468:246|465:202,1,75
341,136,145316,2,0,P|361:166|363:203,1,75
236,352,145534,2,0,P|264:289|181:238,1,150
110,263,145860,1,0,0:0:0:0:
0,332,145969,2,0,B|78:314|68:361|154:335,1,150
228,119,146403,6,0,B|217:242|217:242|193:193,1,150
310,108,146729,1,0,0:0:0:0:
316,87,146838,2,0,P|336:126|328:179,1,75
173,61,147055,2,0,P|212:41|265:49,1,75
147,143,147273,2,0,B|97:141|97:141|54:153|54:153|-15:144,1,150
103,226,147599,1,0,0:0:0:0:
122,220,147708,2,0,P|103:281|98:320,1,75
252,167,147925,2,0,P|271:228|276:267,1,75
366,371,148142,6,0,P|318:317|237:344,1,150
423,298,148469,1,0,0:0:0:0:
433,320,148577,2,0,P|442:268|457:235,1,75
312,153,148795,2,0,P|301:207|335:261,1,75
502,172,149012,2,0,L|382:181,1,75
290,74,149229,2,0,P|341:79|383:126,1,75
481,199,149447,2,0,L|385:242,1,75
327,0,149664,2,0,P|372:34|381:88,1,75
315,368,149921,6,0,B|331:216|331:216|328:261|362:298,1,225.000008583069
214,200,150573,1,0,0:0:0:0:
402,348,150790,2,0,P|432:282|403:224,1,112.500004291535
230,316,151225,1,0,0:0:0:0:
249,306,151442,1,0,0:0:0:0:
2,350,151660,6,0,B|97:336|84:378|170:361,2,168.750006437302
94,242,152529,2,0,P|161:206|101:269,1,225.000008583069
271,15,153399,6,0,B|307:88|263:162|263:162|313:199|368:147,1,225.000008583069
192,122,154051,1,0,0:0:0:0:
375,108,154268,2,0,P|408:170|385:229,1,112.500004291535
253,349,154703,2,0,P|246:294|277:248,1,112.500004291535
483,272,155138,6,0,B|443:274|416:322|416:322|361:276|310:299,2,168.750006437302
297,366,156007,2,0,L|317:99,1,225.000008583069
0,271,156877,6,0,B|40:271|71:292|71:292|111:268|153:272|153:272|197:297|276:267,1,225
290,257,157284,2,0,P|316:224|246:234,1,150
78,309,157719,2,0,P|92:348|119:282,1,150
138,99,158154,2,0,P|96:92|140:147,1,150
387,128,158589,6,0,B|363:276|363:276|360:230|322:204,1,225
417,44,159023,2,0,B|535:31|535:31|499:66,1,150
252,108,159458,2,0,B|370:121|370:121|334:86,1,150
80,60,159893,2,0,B|198:47|198:47|162:82,1,150
39,207,160328,6,0,P|89:276|91:190,1,225
41,346,160763,2,0,B|78:353|104:382|104:382|118:344|164:314,1,150
338,265,161197,2,0,B|301:272|275:301|275:301|261:263|215:233,1,150
401,340,161632,2,0,B|438:347|464:376|464:376|478:338|524:308,1,150
395,167,162067,6,0,L|460:156,2,56.25
163,93,162936,1,0,0:0:0:0:
293,240,163154,1,0,0:0:0:0:
375,338,163263,1,0,0:0:0:0:
249,362,163371,2,0,P|241:330|243:304,1,56.25
296,247,163831,6,0,B|341:204|339:94|291:59|291:59|297:110,1,225
317,231,164265,2,0,P|411:206|492:251,1,150
209,307,164700,2,0,B|23:333|23:333|78:304,1,225
216,324,165135,2,0,P|241:231|187:172,1,150
49,136,165570,5,0,0:0:0:0:
33,126,165678,2,0,L|201:104,1,150
361,224,166004,2,0,L|193:202,1,150
263,62,166439,1,0,0:0:0:0:
117,243,166657,1,0,0:0:0:0:
336,364,166874,2,0,P|361:271|307:212,1,150
66,305,167309,6,0,P|130:321|198:243,1,150
26,228,167635,2,0,P|43:339|35:407,1,150
111,221,167961,2,0,P|124:167|147:130,1,75
267,33,168178,2,0,P|192:86|124:33,1,150
14,64,168504,1,0,0:0:0:0:
14,44,168613,2,0,P|46:97|59:137,1,75
140,172,168831,2,0,P|124:206|118:243,1,75
215,368,169048,6,0,P|243:282|193:225,1,150
238,358,169374,2,0,P|324:352|404:364,1,150
411,248,169700,2,0,P|349:269|304:272,1,75
482,301,169917,2,0,P|463:196|487:119,1,150
376,87,170244,1,0,0:0:0:0:
400,67,170352,2,0,P|381:123|357:153,1,75
306,265,170570,2,0,P|301:227|286:193,1,75
291,62,170787,6,0,B|215:86|136:61|136:61|187:76|210:136,1,225
130,217,171222,2,0,L|111:44,1,150
290,227,171657,2,0,B|339:249|346:340|287:367|287:367|310:336|301:294,1,225
270,214,172091,2,0,P|335:164|414:207,1,150
175,313,172526,5,0,0:0:0:0:
190,318,172635,2,0,P|100:340|40:374,1,150
16,296,172961,2,0,P|-10:238|45:166,1,150
273,349,173396,1,0,0:0:0:0:
68,239,173613,1,0,0:0:0:0:
364,130,173831,2,0,P|336:226|328:299,1,150
168,167,174265,6,0,B|168:103|125:72|125:72|153:72|178:95,1,150
243,85,174591,2,0,P|285:70|224:55,1,150
254,167,174917,2,0,P|234:223|234:274,1,75
330,355,175135,2,0,P|356:266|299:216,1,150
194,321,175461,1,0,0:0:0:0:
177,336,175570,2,0,P|250:352|283:376,1,75
450,261,175787,2,0,P|382:293|355:323,1,75
219,229,176004,5,0,0:0:0:0:
92,380,176222,2,0,P|80:354|65:325,1,56.2500021457673
159,153,176548,1,0,0:0:0:0:
140,185,176657,1,0,0:0:0:0:
128,221,176765,1,0,0:0:0:0:
124,258,176874,2,0,P|92:177|147:124,1,168.750006437302
239,137,177309,1,0,0:0:0:0:
254,147,177744,5,0,0:0:0:0:
155,316,177852,1,0,0:0:0:0:
193,46,177961,5,0,0:0:0:0:
295,283,178070,1,0,0:0:0:0:
59,255,178178,5,0,0:0:0:0:
331,199,178287,1,0,0:0:0:0:
163,331,178396,5,0,0:0:0:0:
103,91,178504,1,0,0:0:0:0:
247,368,178613,5,0,0:0:0:0:
279,117,178722,1,0,0:0:0:0:
73,261,178831,5,0,0:0:0:0:
340,290,178939,1,0,0:0:0:0:
187,87,179048,5,0,0:0:0:0:
169,344,179157,1,0,0:0:0:0:
309,31,179265,5,0,0:0:0:0:
423,234,179374,1,0,0:0:0:0:
151,161,179483,5,0,0:0:0:0:
416,58,179591,1,0,0:0:0:0:
246,282,179700,5,0,0:0:0:0:
231,33,179809,1,0,0:0:0:0:
327,320,179917,5,0,0:0:0:0:
86,269,180026,1,0,0:0:0:0:
342,184,180135,5,0,0:0:0:0:
137,342,180244,1,0,0:0:0:0:
244,202,180352,6,0,L|234:95,1,75
0,323,180570,6,0,L|10:216,1,75
251,363,180787,6,0,L|261:256,1,75
118,142,181004,6,0,L|108:35,1,75
255,141,181222,5,0,0:0:0:0:
15,67,181331,1,0,0:0:0:0:
290,237,181439,5,0,0:0:0:0:
147,364,181548,1,0,0:0:0:0:
162,55,181657,5,0,0:0:0:0:
47,311,181765,1,0,0:0:0:0:
265,147,181874,5,0,0:0:0:0:
9,190,181983,1,0,0:0:0:0:
229,303,182091,5,0,0:0:0:0:
80,115,182200,1,0,0:0:0:0:
133,357,182309,5,0,0:0:0:0:
300,227,182417,1,0,0:0:0:0:
170,52,182526,5,0,0:0:0:0:
55,291,182635,1,0,0:0:0:0:
356,306,182744,5,0,0:0:0:0:
156,198,182852,1,0,0:0:0:0:
266,376,182961,5,0,0:0:0:0:
330,127,183070,1,0,0:0:0:0:
176,338,183178,5,0,0:0:0:0:
423,371,183287,1,0,0:0:0:0:
245,214,183396,5,0,0:0:0:0:
91,363,183504,1,0,0:0:0:0:
96,127,183613,5,0,0:0:0:0:
280,302,183722,1,0,0:0:0:0:
27,219,183831,5,0,0:0:0:0:
242,102,183939,1,0,0:0:0:0:
160,326,184048,5,0,0:0:0:0:
157,74,184157,1,0,0:0:0:0:
324,183,184265,5,0,0:0:0:0:
120,235,184374,1,0,0:0:0:0:
336,82,184483,5,0,0:0:0:0:
376,294,184591,1,0,0:0:0:0:
197,271,184700,6,0,L|191:380,1,75
239,131,184917,6,0,L|234:56,1,75
102,293,185135,6,0,L|96:402,1,75
129,110,185352,6,0,L|124:35,1,75
93,211,185570,5,0,0:0:0:0:
246,60,185678,1,0,0:0:0:0:
244,316,185787,5,0,0:0:0:0:
360,75,185896,1,0,0:0:0:0:
375,295,186004,5,0,0:0:0:0:
184,156,186113,1,0,0:0:0:0:
427,139,186222,5,0,0:0:0:0:
281,238,186331,1,0,0:0:0:0:
163,47,186439,6,0,P|211:44|255:67,1,75
295,157,186657,5,0,0:0:0:0:
205,343,186765,1,0,0:0:0:0:
376,193,186874,5,0,0:0:0:0:
200,137,186983,1,0,0:0:0:0:
390,296,187091,5,0,0:0:0:0:
328,72,187200,1,0,0:0:0:0:
226,256,187309,5,0,0:0:0:0:
424,107,187417,1,0,0:0:0:0:
236,32,187526,5,0,0:0:0:0:
361,196,187635,1,0,0:0:0:0:
409,15,187744,5,0,0:0:0:0:
452,250,187852,1,0,0:0:0:0:
327,88,187961,5,0,0:0:0:0:
323,320,188070,1,0,0:0:0:0:
242,127,188178,6,0,L|262:234,1,75
406,366,188396,5,0,0:0:0:0:
199,301,188504,1,0,0:0:0:0:
351,168,188613,5,0,0:0:0:0:
258,370,188722,1,0,0:0:0:0:
174,181,188831,5,0,0:0:0:0:
282,285,188939,1,0,0:0:0:0:
0,310,189048,6,0,L|116:324,1,75
174,383,189265,5,0,0:0:0:0:
96,162,189374,1,0,0:0:0:0:
326,182,189483,5,0,0:0:0:0:
57,239,189591,1,0,0:0:0:0:
172,68,189700,5,0,0:0:0:0:
191,288,189809,1,0,0:0:0:0:
27,88,189917,6,0,L|6:177,1,75
76,333,190135,5,0,0:0:0:0:
135,140,190244,1,0,0:0:0:0:
215,365,190352,5,0,0:0:0:0:
81,215,190461,1,0,0:0:0:0:
317,234,190570,5,0,0:0:0:0:
146,289,190678,1,0,0:0:0:0:
353,380,190787,2,0,P|363:332|357:294,1,75
241,137,191004,5,0,0:0:0:0:
418,251,191113,1,0,0:0:0:0:
178,190,191222,5,0,0:0:0:0:
341,46,191331,1,0,0:0:0:0:
217,315,191439,5,0,0:0:0:0:
187,67,191548,1,0,0:0:0:0:
429,158,191657,5,0,0:0:0:0:
66,162,191765,1,0,0:0:0:0:
262,13,191874,5,0,0:0:0:0:
116,298,191983,1,0,0:0:0:0:
110,37,192091,5,0,0:0:0:0:
296,237,192200,1,0,0:0:0:0:
24,84,192309,5,0,0:0:0:0:
324,65,192417,1,0,0:0:0:0:
80,172,192526,5,0,0:0:0:0:
383,194,192635,1,0,0:0:0:0:
194,23,192744,5,0,0:0:0:0:
170,295,192852,1,0,0:0:0:0:
253,96,192961,5,0,0:0:0:0:
291,349,193070,1,0,0:0:0:0:
74,255,193178,5,0,0:0:0:0:
391,207,193287,1,0,0:0:0:0:
134,186,193396,5,0,0:0:0:0:
420,311,193504,1,0,0:0:0:0:
169,309,193613,5,0,0:0:0:0:
344,80,193722,1,0,0:0:0:0:
354,364,193831,5,0,0:0:0:0:
251,123,193939,1,0,0:0:0:0:
401,217,194048,5,0,0:0:0:0:
193,47,194157,1,0,0:0:0:0:
359,20,194265,6,0,L|340:116,1,75
106,198,194483,6,0,L|91:124,1,75
427,156,194700,6,0,L|408:252,1,75
190,121,194917,6,0,L|175:47,1,75
126,329,195135,5,0,0:0:0:0:
292,137,195244,1,0,0:0:0:0:
61,57,195352,5,0,0:0:0:0:
229,291,195461,1,0,0:0:0:0:
334,51,195570,5,0,0:0:0:0:
134,226,195678,1,0,0:0:0:0:
407,212,195787,5,0,0:0:0:0:
172,136,195896,1,0,0:0:0:0:
125,350,196004,5,0,0:0:0:0:
71,154,196113,1,0,0:0:0:0:
256,154,196222,5,0,0:0:0:0:
34,247,196331,1,0,0:0:0:0:
275,268,196439,5,0,0:0:0:0:
108,72,196548,1,0,0:0:0:0:
132,343,196657,5,0,0:0:0:0:
182,127,196765,1,0,0:0:0:0:
44,333,196874,5,0,0:0:0:0:
265,356,196983,1,0,0:0:0:0:
161,259,197091,5,0,0:0:0:0:
369,235,197200,1,0,0:0:0:0:
139,355,197309,5,0,0:0:0:0:
94,178,197417,1,0,0:0:0:0:
264,270,197526,5,0,0:0:0:0:
19,261,197635,1,0,0:0:0:0:
177,112,197744,5,0,0:0:0:0:
215,336,197852,1,0,0:0:0:0:
310,190,197961,5,0,0:0:0:0:
92,288,198070,1,0,0:0:0:0:
328,338,198178,5,0,0:0:0:0:
189,206,198287,1,0,0:0:0:0:
30,373,198396,2,0,L|133:367,1,75
230,348,198613,5,0,0:0:0:0:
36,62,198722,1,0,0:0:0:0:
273,179,198831,5,0,0:0:0:0:
7,281,198939,1,0,0:0:0:0:
315,92,199048,5,0,0:0:0:0:
127,355,199157,1,0,0:0:0:0:
167,46,199265,5,0,0:0:0:0:
359,328,199374,1,0,0:0:0:0:
53,127,199483,5,0,0:0:0:0:
372,30,199591,1,0,0:0:0:0:
215,358,199700,5,0,0:0:0:0:
241,20,199809,1,0,0:0:0:0:
371,251,199917,5,0,0:0:0:0:
54,218,200026,1,0,0:0:0:0:
416,135,200135,5,0,0:0:0:0:
120,319,200244,1,0,0:0:0:0:
144,45,200352,5,0,0:0:0:0:
329,354,200461,1,0,0:0:0:0:
50,126,200570,5,0,0:0:0:0:
393,40,200678,1,0,0:0:0:0:
44,258,200787,5,0,0:0:0:0:
227,23,200896,1,0,0:0:0:0:
246,335,201004,5,0,0:0:0:0:
413,170,201113,1,0,0:0:0:0:
112,43,201222,5,0,0:0:0:0:
362,300,201331,1,0,0:0:0:0:
79,352,201439,5,0,0:0:0:0:
362,89,201548,1,0,0:0:0:0:
34,119,201657,5,0,0:0:0:0:
334,211,201765,1,0,0:0:0:0:
116,83,201874,5,0,0:0:0:0:
458,54,201983,1,0,0:0:0:0:
168,219,202091,6,0,P|164:253|184:325,1,75
429,310,202309,5,0,0:0:0:0:
308,77,202417,1,0,0:0:0:0:
272,359,202526,5,0,0:0:0:0:
460,158,202635,1,0,0:0:0:0:
137,103,202744,5,0,0:0:0:0:
504,78,202852,1,0,0:0:0:0:
248,259,202961,5,0,0:0:0:0:
416,21,203070,1,0,0:0:0:0:
451,338,203178,5,0,0:0:0:0:
348,92,203287,1,0,0:0:0:0:
256,372,203396,5,0,0:0:0:0:
465,171,203504,1,0,0:0:0:0:
139,60,203613,5,0,0:0:0:0:
429,22,203722,1,0,0:0:0:0:
202,243,203831,5,0,0:0:0:0:
241,5,203939,1,0,0:0:0:0:
341,306,204048,5,0,0:0:0:0:
63,208,204157,1,0,0:0:0:0:
372,118,204265,5,0,0:0:0:0:
20,313,204374,1,0,0:0:0:0:
146,70,204483,5,0,0:0:0:0:
239,348,204591,1,0,0:0:0:0:
52,118,204700,5,0,0:0:0:0:
303,49,204809,1,0,0:0:0:0:
5,209,204917,5,0,0:0:0:0:
320,288,205026,1,0,0:0:0:0:
221,31,205135,5,0,0:0:0:0:
7,314,205244,1,0,0:0:0:0:
384,352,205352,5,0,0:0:0:0:
142,138,205461,1,0,0:0:0:0:
222,358,205570,5,0,0:0:0:0:
261,109,205678,1,0,0:0:0:0:
108,278,205787,5,0,0:0:0:0:
362,176,205896,1,0,0:0:0:0:
178,63,206004,5,0,0:0:0:0:
294,276,206113,1,0,0:0:0:0:
266,22,206222,5,0,0:0:0:0:
76,199,206331,1,0,0:0:0:0:
341,83,206439,5,0,0:0:0:0:
77,44,206548,1,0,0:0:0:0:
411,24,206657,5,0,0:0:0:0:
190,141,206765,1,0,0:0:0:0:
388,246,206874,5,0,0:0:0:0:
305,2,206983,1,0,0:0:0:0:
245,285,207091,5,0,0:0:0:0:
266,74,207200,1,0,0:0:0:0:
336,347,207309,5,0,0:0:0:0:
116,315,207417,1,0,0:0:0:0:
313,177,207526,5,0,0:0:0:0:
191,373,207635,1,0,0:0:0:0:
133,151,207744,5,0,0:0:0:0:
331,263,207852,1,0,0:0:0:0:
18,288,207961,5,0,0:0:0:0:
196,97,208070,1,0,0:0:0:0:
197,356,208178,6,0,L|207:256,1,75
343,267,208396,6,0,L|333:167,1,75
117,236,208613,6,0,L|127:136,1,75
399,116,208831,6,0,L|389:16,1,75
149,56,209048,5,0,0:0:0:0:
102,312,209157,1,0,0:0:0:0:
228,15,209265,5,0,0:0:0:0:
252,258,209374,1,0,0:0:0:0:
56,118,209483,5,0,0:0:0:0:
334,85,209591,1,0,0:0:0:0:
159,179,209700,5,0,0:0:0:0:
430,183,209809,1,0,0:0:0:0:
233,96,209917,5,0,0:0:0:0:
323,328,210026,1,0,0:0:0:0:
322,167,210135,5,0,0:0:0:0:
77,215,210244,1,0,0:0:0:0:
373,256,210352,5,0,0:0:0:0:
170,189,210461,1,0,0:0:0:0:
235,342,210570,5,0,0:0:0:0:
315,76,210678,1,0,0:0:0:0:
176,281,210787,5,0,0:0:0:0:
375,354,210896,1,0,0:0:0:0:
101,334,211004,5,0,0:0:0:0:
285,213,211113,1,0,0:0:0:0:
165,379,211222,5,0,0:0:0:0:
140,177,211331,1,0,0:0:0:0:
293,327,211439,5,0,0:0:0:0:
41,248,211548,1,0,0:0:0:0:
229,94,211657,5,0,0:0:0:0:
100,323,211765,1,0,0:0:0:0:
109,56,211874,5,0,0:0:0:0:
264,195,211983,1,0,0:0:0:0:
26,134,212091,5,0,0:0:0:0:
220,16,212200,1,0,0:0:0:0:
154,263,212309,5,0,0:0:0:0:
101,48,212417,1,0,0:0:0:0:
360,97,212526,6,0,L|255:88,1,75
97,179,212744,6,0,L|171:172,1,75
452,197,212961,6,0,L|347:188,1,75
156,277,213178,6,0,L|230:270,1,75
46,237,213396,5,0,0:0:0:0:
276,188,213504,1,0,0:0:0:0:
119,174,213613,5,0,0:0:0:0:
284,337,213722,1,0,0:0:0:0:
196,103,213831,5,0,0:0:0:0:
101,322,213939,1,0,0:0:0:0:
93,75,214048,5,0,0:0:0:0:
262,200,214157,1,0,0:0:0:0:
291,13,214265,6,0,L|277:135,1,75
82,241,214483,5,0,0:0:0:0:
6,63,214591,1,0,0:0:0:0:
175,269,214700,5,0,0:0:0:0:
213,99,214809,1,0,0:0:0:0:
65,331,214917,5,0,0:0:0:0:
281,263,215026,1,0,0:0:0:0:
112,164,215135,5,0,0:0:0:0:
193,370,215244,1,0,0:0:0:0:
297,122,215352,5,0,0:0:0:0:
71,246,215461,1,0,0:0:0:0:
365,208,215570,5,0,0:0:0:0:
169,69,215678,1,0,0:0:0:0:
281,275,215787,5,0,0:0:0:0:
276,32,215896,1,0,0:0:0:0:
165,286,216004,6,0,L|149:188,1,75
165,47,216222,5,0,0:0:0:0:
428,43,216330,1,0,0:0:0:0:
256,192,216439,5,0,0:0:0:0:
448,242,216548,1,0,0:0:0:0:
268,84,216657,5,0,0:0:0:0:
271,288,216765,1,0,0:0:0:0:
492,135,216874,6,0,L|398:123,1,75
267,167,217091,5,0,0:0:0:0:
213,358,217200,1,0,0:0:0:0:
356,211,217309,5,0,0:0:0:0:
158,192,217417,1,0,0:0:0:0:
321,373,217526,5,0,0:0:0:0:
227,103,217635,1,0,0:0:0:0:
67,261,217744,6,0,P|51:215|65:160,1,75
142,67,217961,5,0,0:0:0:0:
264,259,218070,1,0,0:0:0:0:
323,51,218178,5,0,0:0:0:0:
129,212,218287,1,0,0:0:0:0:
360,243,218396,5,0,0:0:0:0:
283,378,218504,1,0,0:0:0:0:
221,110,218613,6,0,L|202:216,1,75
135,358,218830,5,0,0:0:0:0:
12,207,218939,1,0,0:0:0:0:
272,242,219048,5,0,0:0:0:0:
104,99,219157,1,0,0:0:0:0:
11,337,219265,5,0,0:0:0:0:
175,21,219374,1,0,0:0:0:0:
223,300,219483,5,0,0:0:0:0:
11,118,219591,1,0,0:0:0:0:
311,82,219700,5,0,0:0:0:0:
70,208,219809,1,0,0:0:0:0:
321,234,219917,5,0,0:0:0:0:
89,68,220026,1,0,0:0:0:0:
126,321,220135,5,0,0:0:0:0:
185,37,220244,1,0,0:0:0:0:
6,297,220352,5,0,0:0:0:0:
278,328,220461,1,0,0:0:0:0:
26,128,220570,5,0,0:0:0:0:
290,93,220678,1,0,0:0:0:0:
117,315,220787,5,0,0:0:0:0:
96,48,220896,1,0,0:0:0:0:
289,217,221004,5,0,0:0:0:0:
16,223,221113,1,0,0:0:0:0:
231,30,221222,5,0,0:0:0:0:
297,298,221330,1,0,0:0:0:0:
413,109,221439,5,0,0:0:0:0:
346,370,221548,1,0,0:0:0:0:
221,147,221657,5,0,0:0:0:0:
482,177,221765,1,0,0:0:0:0:
152,232,221874,5,0,0:0:0:0:
343,65,221983,1,0,0:0:0:0:
401,224,222091,6,0,L|275:214,1,75
134,139,222309,6,0,L|260:129,1,75
250,349,222526,6,0,L|237:212,1,75
332,54,222744,6,0,L|324:128,1,75
124,53,222961,5,0,0:0:0:0:
2,310,223070,1,0,0:0:0:0:
248,134,223178,5,0,0:0:0:0:
2,39,223287,1,0,0:0:0:0:
326,76,223396,5,0,0:0:0:0:
87,202,223504,1,0,0:0:0:0:
418,148,223613,5,0,0:0:0:0:
176,92,223722,1,0,0:0:0:0:
505,52,223830,5,0,0:0:0:0:
353,234,223939,1,0,0:0:0:0:
423,12,224048,5,0,0:0:0:0:
473,288,224157,1,0,0:0:0:0:
328,52,224265,5,0,0:0:0:0:
278,313,224374,1,0,0:0:0:0:
222,81,224483,5,0,0:0:0:0:
360,345,224591,1,0,0:0:0:0:
167,153,224700,5,0,0:0:0:0:
116,337,224809,1,0,0:0:0:0:
120,67,224917,5,0,0:0:0:0:
249,246,225026,1,0,0:0:0:0:
16,181,225135,5,0,0:0:0:0:
283,105,225244,1,0,0:0:0:0:
74,266,225352,5,0,0:0:0:0:
202,39,225461,1,0,0:0:0:0:
328,269,225570,5,0,0:0:0:0:
374,32,225678,1,0,0:0:0:0:
175,202,225787,5,0,0:0:0:0:
441,116,225896,1,0,0:0:0:0:
282,8,226004,5,0,0:0:0:0:
241,276,226113,1,0,0:0:0:0:
347,122,226222,6,0,L|244:119,1,75
165,84,226439,5,0,0:0:0:0:
401,231,226548,1,0,0:0:0:0:
58,163,226657,5,0,0:0:0:0:
281,33,226765,1,0,0:0:0:0:
139,343,226874,5,0,0:0:0:0:
88,28,226983,1,0,0:0:0:0:
305,212,227091,5,0,0:0:0:0:
11,258,227200,1,0,0:0:0:0:
345,112,227309,5,0,0:0:0:0:
16,81,227417,1,0,0:0:0:0:
290,336,227526,5,0,0:0:0:0:
212,38,227635,1,0,0:0:0:0:
114,330,227744,5,0,0:0:0:0:
307,21,227852,1,0,0:0:0:0:
395,295,227961,5,0,0:0:0:0:
128,80,228070,1,0,0:0:0:0:
421,34,228178,5,0,0:0:0:0:
180,162,228287,1,0,0:0:0:0:
478,177,228396,5,0,0:0:0:0:
58,220,228504,1,0,0:0:0:0:
372,123,228613,5,0,0:0:0:0:
136,302,228722,1,0,0:0:0:0:
436,336,228830,5,0,0:0:0:0:
204,69,228939,1,0,0:0:0:0:
279,359,229048,5,0,0:0:0:0:
288,32,229157,1,0,0:0:0:0:
65,233,229265,5,0,0:0:0:0:
400,208,229374,1,0,0:0:0:0:
107,39,229483,5,0,0:0:0:0:
86,333,229591,1,0,0:0:0:0:
206,82,229700,5,0,0:0:0:0:
275,348,229809,1,0,0:0:0:0:
161,199,229917,6,0,P|223:173|267:169,1,75
416,217,230135,5,0,0:0:0:0:
141,23,230244,1,0,0:0:0:0:
23,281,230352,5,0,0:0:0:0:
311,99,230461,1,0,0:0:0:0:
37,72,230570,5,0,0:0:0:0:
323,303,230678,1,0,0:0:0:0:
250,31,230787,5,0,0:0:0:0:
159,353,230896,1,0,0:0:0:0:
475,284,231004,5,0,0:0:0:0:
127,175,231113,1,0,0:0:0:0:
394,373,231222,5,0,0:0:0:0:
243,117,231330,1,0,0:0:0:0:
36,338,231439,5,0,0:0:0:0:
141,57,231548,1,0,0:0:0:0:
410,182,231657,5,0,0:0:0:0:
19,110,231765,1,0,0:0:0:0:
356,29,231874,5,0,0:0:0:0:
215,314,231983,1,0,0:0:0:0:
236,25,232091,5,0,0:0:0:0:
366,359,232200,1,0,0:0:0:0:
121,144,232309,5,0,0:0:0:0:
461,62,232417,1,0,0:0:0:0:
77,42,232526,5,0,0:0:0:0:
407,238,232635,1,0,0:0:0:0:
60,338,232744,5,0,0:0:0:0:
323,32,232852,1,0,0:0:0:0:
221,345,232961,5,0,0:0:0:0:
211,11,233070,1,0,0:0:0:0:
337,311,233178,5,0,0:0:0:0:
21,207,233287,1,0,0:0:0:0:
294,232,233358,6,0,P|205:245|160:164,1,150
204,91,233684,1,0,0:0:0:0:
221,104,233792,2,0,P|237:153|240:197,1,75
151,222,234010,2,0,P|135:271|111:308,2,75
140,197,234662,5,0,0:0:0:0:
