osu file format v14

[General]
AudioFilename: audio.mp3
AudioLeadIn: 0
PreviewTime: 39046
Countdown: 0
SampleSet: None
StackLeniency: 1
Mode: 0
LetterboxInBreaks: 0
WidescreenStoryboard: 1

[Editor]
Bookmarks: 90777,97734,188178,196004,198396,205570,209917,212526,215986,219265,224265,226222
DistanceSpacing: 0.1
BeatDivisor: 4
GridSize: 16
TimelineZoom: 2.000001

[Metadata]
Title:A FOOL MOON NIGHT
TitleUnicode:A FOOL MOON NIGHT
Artist:The Koxx
ArtistUnicode:칵스
Creator:Astar
Version:Silverboxer's Supernova
Source:
Tags:piggey overjoy a_kochav [_emillia_] [ emillia ] friendofox naoka firedigger
BeatmapID:1192895
BeatmapSetID:524026

[Difficulty]
HPDrainRate:5
CircleSize:4
OverallDifficulty:9.2
ApproachRate:9.4
SliderMultiplier:3.59999990463257
SliderTickRate:1

[Events]
//Background and Video events
0,0,"1474291154383.jpg",0,0
//Break Periods
2,108369,119797
//Storyboard Layer 0 (Background)
//Storyboard Layer 1 (Fail)
//Storyboard Layer 2 (Pass)
//Storyboard Layer 3 (Foreground)
//Storyboard Sound Samples

[TimingPoints]
309,434.782608695652,4,1,0,30,1,0
10743,-200,4,1,0,30,0,0
11613,-181.818181818182,4,1,0,30,0,0
12482,-166.666666666667,4,1,0,30,0,0
13352,-76.9230769230769,4,1,0,30,0,0
14222,-142.857142857143,4,1,0,30,0,0
15091,-133.333333333333,4,1,0,30,0,0
15961,-125,4,1,0,30,0,0
16830,-88.4955752212389,4,1,0,30,0,0
17700,-111.111111111111,4,1,0,30,0,0
18569,-105.263157894737,4,1,0,30,0,0
19439,-100,4,1,0,30,0,0
20308,-95.2380952380952,4,1,0,30,0,0
23787,-83.3333333333333,4,1,0,30,0,0
24656,-100,4,1,0,30,0,0
38612,434.782608695652,4,1,0,60,1,0
38612,-200,4,1,0,60,0,0
45561,434.782608695652,4,1,0,60,1,0
45561,-100,4,1,0,70,0,0
50778,-400,4,1,0,60,0,0
52952,-100,4,1,0,60,0,0
53387,434.782608695652,4,1,0,80,1,0
54256,434.782608695652,4,1,0,80,1,0
78603,-133.333333333333,4,1,0,80,0,0
80342,-100,4,2,0,80,0,1
98603,-83.3333333333333,4,2,0,80,0,1
99473,-71.4285714285714,4,2,0,80,0,1
100342,-62.5,4,2,0,80,0,1
101212,-55.5555555555556,4,2,0,80,0,1
108169,-100,4,2,0,100,0,0
120337,434.782608695652,4,1,0,100,1,0
120337,-133.333333333333,4,1,0,100,0,0
121206,-83.3333333333333,4,1,0,60,0,0
122076,-166.666666666667,4,1,0,50,0,0
135119,-83.3333333333333,4,1,0,100,0,0
135969,434.782608695652,4,1,0,100,1,0
135969,-100,4,1,0,60,0,0
149921,434.782608695652,4,1,0,100,1,0
149921,-200,4,1,0,50,0,0
156850,434.782608695652,4,1,0,75,1,0
156850,-100,4,1,0,75,0,0
162067,-400,4,1,0,60,0,0
163831,434.782608695652,4,1,0,60,1,0
176004,-133.333333333333,4,1,0,75,0,0
176874,-200,4,1,0,75,0,0
177744,-100,4,2,0,80,0,1
196004,-83.3333333333333,4,2,0,80,0,1
196874,-71.4285714285714,4,2,0,80,0,1
197744,-62.5,4,2,0,80,0,1
198613,-55.5555555555556,4,2,0,80,0,1
205555,434.782608695652,4,2,0,80,1,1
216856,-83.3333333333333,4,2,0,80,0,1
217725,-71.4285714285714,4,2,0,80,0,1
218595,-100,4,2,0,80,0,1
223812,-83.3333333333333,4,2,0,80,0,1
224682,-71.4285714285714,4,2,0,80,0,1
225552,-62.5,4,2,0,80,0,1
226421,-50,4,2,0,80,0,1
233354,434.782608695652,4,1,0,60,1,0
233354,-100,4,1,0,60,0,0

[HitObjects]
253,96,10743,6,0,P|319:73|408:79,2,134.999996423721
174,242,11613,6,0,P|121:196|71:98,2,148.500000597954
340,237,12482,6,0,P|327:306|232:375,2,161.999990764618
314,46,13352,6,0,P|250:113|247:22,1,233.999983089448
269,64,13678,2,0,P|224:184|137:58,1,350.999974634172
410,20,14222,6,0,L|424:175,1,125.999992816925
305,341,14656,2,0,L|316:215,1,125.999992816925
500,261,15091,6,0,B|395:284|395:284|285:358|106:345,1,405.000004720688
39,260,15961,6,0,B|84:169|76:58|76:58|90:166|172:256,1,431.999988555908
341,196,16830,6,0,P|425:138|370:101,1,203.399995232468
375,152,17156,2,0,P|350:53|216:130,1,305.099992848701
176,228,17700,6,0,P|90:269|12:269,1,161.999990764618
336,228,18135,2,0,P|422:187|500:187,1,161.999990764618
92,217,18569,6,0,P|35:180|20:72,1,170.999990903855
416,231,19004,2,0,P|473:268|488:376,1,170.999990903855
315,97,19439,6,0,B|288:42|288:42|419:4|457:119,2,269.999992847443
197,287,20308,6,0,B|224:342|224:342|93:380|44:246,2,283.499983838082
256,192,21178,1,0,0:0:0:0:
256,192,21287,12,0,22917,0:0:0:0:
129,169,23787,6,0,L|126:281,1,107.999993843079
230,235,24004,2,0,L|240:312,3,71.9999958953859
246,80,24656,6,0,P|324:37|408:59,1,179.999995231628
436,86,24982,1,0,0:0:0:0:
447,120,25091,2,0,L|437:211,1,89.9999976158142
329,164,25308,2,0,L|338:253,1,89.9999976158142
251,305,25526,6,0,L|187:134,1,179.999995231628
145,288,25961,2,0,P|133:318|126:375,1,89.9999976158142
338,253,26178,2,0,P|334:208|318:166,1,89.9999976158142
215,36,26395,5,0,0:0:0:0:
46,155,26613,1,0,0:0:0:0:
46,155,26722,1,0,0:0:0:0:
46,155,26830,2,0,L|58:252,1,89.9999976158142
318,166,27048,2,0,L|306:263,1,89.9999976158142
235,363,27265,6,0,P|174:285|189:209,1,179.999995231628
222,212,27591,1,0,0:0:0:0:
289,159,27700,2,0,B|308:117|370:77|370:77|266:38|188:77,1,269.999992847443
194,89,28135,6,0,P|108:151|100:33,1,269.999992847443
118,23,28569,6,0,L|133:116,1,89.9999976158142
311,83,28787,2,0,L|326:176,1,89.9999976158142
352,328,29004,5,0,0:0:0:0:
145,242,29222,2,0,P|103:257|67:297,1,89.9999976158142
52,368,29439,1,0,0:0:0:0:
360,234,29656,2,0,P|402:249|438:289,1,89.9999976158142
312,348,29874,6,0,B|226:386|132:354|132:354|160:322|212:314,1,269.999992847443
230,299,30308,2,0,P|242:273|258:213,1,89.9999976158142
117,131,30526,2,0,P|127:174|144:216,1,89.9999976158142
268,103,30743,6,0,L|261:12,1,89.9999976158142
276,110,30961,2,0,L|269:19,1,89.9999976158142
284,117,31178,2,0,L|277:26,1,89.9999976158142
292,124,31395,2,0,L|285:33,1,89.9999976158142
305,130,31613,6,0,B|303:203|352:278|323:343,1,179.999995231628
438,148,32048,2,0,P|454:110|495:68,1,89.9999976158142
481,255,32265,1,0,0:0:0:0:
246,53,32482,2,0,P|151:31|58:63,1,179.999995231628
36,269,32917,2,0,L|126:253,1,89.9999976158142
221,172,33135,2,0,L|131:156,1,89.9999976158142
177,329,33352,6,0,B|250:331|318:355|318:355|370:344,1,179.999995231628
382,331,33678,1,0,0:0:0:0:
424,298,33787,2,0,L|438:208,1,89.9999976158142
321,229,34004,2,0,L|307:139,1,89.9999976158142
415,120,34222,6,0,B|448:80|505:49|505:49|431:40|353:14,1,269.999992847443
327,35,34656,2,0,B|239:5|195:42|195:42|192:101,1,179.999995231628
191,125,34982,1,0,0:0:0:0:
190,167,35091,6,0,P|170:268|108:258,1,179.999995231628
312,198,35526,2,0,P|345:181|404:165,1,89.9999976158142
470,311,35743,2,0,P|427:299|387:280,1,89.9999976158142
294,94,35961,6,0,P|388:50|441:98,1,179.999995231628
363,362,36395,1,0,0:0:0:0:
195,144,36613,1,0,0:0:0:0:
30,214,36830,6,0,P|80:309|140:286,1,179.999995231628
153,265,37156,2,0,P|203:360|263:337,1,179.999995231628
279,322,37482,2,0,L|288:226,1,89.9999976158142
313,53,37700,5,0,0:0:0:0:
313,53,37808,1,0,0:0:0:0:
313,53,37917,2,0,L|334:149,1,89.9999976158142
183,145,38135,5,0,0:0:0:0:
183,145,38243,1,0,0:0:0:0:
183,145,38352,2,0,L|203:58,1,89.9999976158142
451,97,38612,6,0,L|452:278,1,179.999995231628
350,364,39264,6,0,L|261:360,1,89.9999976158142
338,280,39698,2,0,L|249:276,1,89.9999976158142
113,347,40133,6,0,L|115:73,1,269.999992847443
277,35,41003,6,0,P|326:44|376:67,1,89.9999976158142
253,113,41438,2,0,P|302:122|352:145,1,89.9999976158142
457,295,42090,6,0,L|263:295,1,179.999995231628
111,304,42742,6,0,L|91:215,1,89.9999976158142
179,219,43177,1,0,0:0:0:0:
179,219,43394,2,0,L|159:130,1,89.9999976158142
401,304,44481,5,0,0:0:0:0:
401,304,44698,2,0,L|421:215,1,89.9999976158142
333,219,45133,2,0,L|353:130,1,89.9999976158142
254,28,45561,6,0,P|163:38|132:118,1,179.999995231628
258,356,45995,2,0,P|349:346|380:266,1,179.999995231628
148,208,46430,5,0,0:0:0:0:
364,176,46647,1,0,0:0:0:0:
120,177,46865,1,0,0:0:0:0:
392,207,47082,1,0,0:0:0:0:
168,275,47300,6,0,B|86:247|35:316|35:316|71:318,1,179.999995231628
344,109,47734,2,0,B|426:137|477:68|477:68|441:66,1,179.999995231628
238,64,48169,5,0,0:0:0:0:
274,320,48387,1,0,0:0:0:0:
238,64,48604,2,0,P|166:15|148:80,1,179.999995231628
343,251,49039,6,0,B|369:273|390:314|390:314|434:331|503:322,1,179.999995231628
169,133,49474,2,0,B|143:111|122:70|122:70|78:53|9:62,1,179.999995231628
125,249,49908,5,0,0:0:0:0:
256,66,50126,1,0,0:0:0:0:
387,249,50343,1,0,0:0:0:0:
387,249,50561,1,0,0:0:0:0:
387,249,50778,6,0,P|313:249|268:333,1,157.499995827675
266,344,51647,5,0,0:0:0:0:
119,337,51865,1,0,0:0:0:0:
119,337,51974,1,0,0:0:0:0:
119,337,52082,1,0,0:0:0:0:
92,171,52517,6,0,L|229:173,1,134.999996423721
317,180,53387,6,0,B|357:205|357:205|394:128|339:82,1,179.999995231628
272,44,53713,1,0,0:0:0:0:
248,62,53821,2,0,P|212:71|159:65,1,89.9999976158142
397,17,54039,2,0,P|433:8|486:14,1,89.9999976158142
508,117,54256,6,0,L|489:304,1,179.999995231628
299,168,54690,2,0,L|318:355,1,179.999995231628
409,89,55125,2,0,L|390:268,1,179.999995231628
200,38,55559,2,0,L|218:217,1,179.999995231628
134,366,55995,6,0,P|38:337|58:274,1,179.999995231628
77,257,56321,1,0,0:0:0:0:
97,226,56429,2,0,L|86:131,1,89.9999976158142
202,256,56647,2,0,L|191:161,1,89.9999976158142
309,302,56864,6,0,L|293:120,1,179.999995231628
435,159,57299,2,0,P|471:194|511:212,1,89.9999976158142
445,26,57516,2,0,P|409:61|369:79,1,89.9999976158142
259,18,57734,6,0,B|214:44|138:52|138:52|76:90,1,179.999995231628
252,179,58169,2,0,L|345:191,1,89.9999976158142
172,225,58386,2,0,L|79:237,1,89.9999976158142
254,301,58603,5,0,0:0:0:0:
374,66,58821,1,0,0:0:0:0:
394,290,59038,1,0,0:0:0:0:
206,75,59256,1,0,0:0:0:0:
16,306,59473,6,0,P|71:357|160:320,1,179.999995231628
182,240,59799,1,0,0:0:0:0:
182,240,59908,2,0,P|218:225|271:222,1,89.9999976158142
280,137,60125,2,0,P|316:152|369:155,1,89.9999976158142
356,239,60342,6,0,B|385:364|385:364|400:311,1,179.999995231628
477,77,60777,1,0,0:0:0:0:
468,261,60995,1,0,0:0:0:0:
360,49,61212,6,0,B|323:49|283:18|283:18|290:64|254:108,1,179.999995231628
247,80,61538,2,0,B|210:80|170:49|170:49|177:95|141:139,1,179.999995231628
121,141,61864,2,0,P|76:135|33:110,1,89.9999976158142
92,236,62082,6,0,P|108:264|126:320,1,89.9999976158142
98,239,62299,2,0,P|114:267|132:323,1,89.9999976158142
104,242,62516,2,0,P|120:270|138:326,1,89.9999976158142
110,245,62734,2,0,P|126:273|144:329,1,89.9999976158142
121,248,62951,6,0,B|199:262|294:266|294:266|406:290,2,269.999992847443
481,129,63821,2,0,B|403:143|308:147|308:147|196:171,2,269.999992847443
121,10,64690,2,0,B|199:24|294:28|294:28|406:52,2,269.999992847443
34,104,65560,6,0,L|55:207,1,89.9999976158143
91,282,65777,1,0,0:0:0:0:
100,282,65886,1,0,0:0:0:0:
109,282,65995,1,0,0:0:0:0:
117,282,66103,1,0,0:0:0:0:
126,282,66212,1,0,0:0:0:0:
135,282,66321,1,0,0:0:0:0:
143,282,66429,6,0,B|208:286|232:293|232:293|272:270|335:266,1,179.999995231629
390,314,66756,1,0,0:0:0:0:
419,297,66864,2,0,P|445:220|410:124,1,179.999995231629
124,26,67299,6,0,P|93:109|119:193,1,179.999995231629
191,248,67625,1,0,0:0:0:0:
191,248,67734,2,0,L|322:228,1,89.9999976158143
278,343,67951,2,0,L|375:310,1,89.9999976158143
471,260,68169,5,0,0:0:0:0:
471,260,68277,1,0,0:0:0:0:
243,122,68495,1,0,0:0:0:0:
243,122,68603,1,0,0:0:0:0:
499,29,68821,2,0,L|491:127,1,89.9999976158143
367,346,69038,5,0,0:0:0:0:
366,8,69256,1,0,0:0:0:0:
319,351,69473,1,0,0:0:0:0:
277,8,69690,1,0,0:0:0:0:
237,327,69908,6,0,P|191:342|134:342,1,89.9999976158143
57,309,70125,1,0,0:0:0:0:
57,309,70234,2,0,B|69:260|57:222|57:222|67:175|115:142,1,179.999995231629
172,115,70560,2,0,L|274:128,1,89.9999976158143
486,22,70777,6,0,P|406:35|292:37,1,179.999995231629
208,207,71103,2,0,P|297:208|386:222,1,179.999995231629
177,375,71429,2,0,L|98:330,1,89.9999976158143
19,208,71647,5,0,0:0:0:0:
288,330,71864,1,0,0:0:0:0:
288,330,71973,2,0,P|381:357|475:331,1,179.999995231629
499,262,72299,1,0,0:0:0:0:
304,213,72516,6,0,P|254:108|336:134,2,269.999992847443
403,71,73386,6,0,P|317:15|235:17,1,179.999995231629
181,48,73712,1,0,0:0:0:0:
147,65,73821,2,0,B|104:78|104:78|51:77,1,89.9999976158143
246,146,74038,2,0,B|289:133|289:133|342:134,1,89.9999976158143
130,172,74256,6,0,P|70:240|27:340,1,179.999995231629
168,185,74582,2,0,P|154:286|168:363,1,179.999995231629
213,197,74908,2,0,P|237:244|267:280,1,89.9999976158143
354,333,75125,5,0,0:0:0:0:
354,333,75234,1,0,0:0:0:0:
379,94,75451,1,0,0:0:0:0:
379,94,75560,1,0,0:0:0:0:
491,199,75777,2,0,L|480:298,1,89.9999976158143
505,86,75995,5,0,0:0:0:0:
185,125,76212,1,0,0:0:0:0:
490,198,76429,1,0,0:0:0:0:
101,160,76647,1,0,0:0:0:0:
401,253,76864,6,0,P|412:293|383:338,1,89.9999976158143
290,362,77082,1,0,0:0:0:0:
290,362,77190,2,0,L|108:342,1,179.999995231629
19,330,77516,1,0,0:0:0:0:
254,203,77734,6,0,B|357:150|446:206|446:206|427:230|374:245,2,269.999992847443
156,291,78603,5,0,0:0:0:0:
257,334,78821,1,0,0:0:0:0:
257,334,78929,1,0,0:0:0:0:
257,193,79256,1,0,0:0:0:0:
257,193,79908,5,0,0:0:0:0:
330,47,80342,6,0,L|334:137,1,89.9999976158142
178,137,80560,2,0,L|182:47,1,89.9999976158142
356,66,80777,2,0,L|336:153,1,89.9999976158142,8|0,0:0|0:0,0:0:0:0:
175,153,80995,2,0,L|156:66,1,89.9999976158142
443,148,81212,6,0,B|432:192|432:192|403:233,1,89.9999976158142
105,228,81429,2,0,B|80:192|80:192|69:148,1,89.9999976158142
362,303,81647,2,0,B|344:344|344:344|311:375,1,89.9999976158142,8|0,0:0|0:0,0:0:0:0:
299,43,81864,2,0,B|344:39|344:39|387:52,1,89.9999976158142
223,271,82082,6,0,L|134:303,1,89.9999976158142
371,174,82299,2,0,L|450:232,1,89.9999976158142
168,109,82516,2,0,L|64:98,1,89.9999976158142,8|0,0:0|0:0,0:0:0:0:
342,316,82734,2,0,B|382:331|382:331|460:342,1,89.9999976158142
133,295,82951,5,0,0:0:0:0:
133,295,83060,1,0,0:0:0:0:
133,295,83169,1,0,0:0:0:0:
133,295,83277,1,0,0:0:0:0:
133,295,83386,1,8,0:0:0:0:
133,295,83495,1,0,0:0:0:0:
133,295,83603,1,0,0:0:0:0:
133,295,83712,1,0,0:0:0:0:
133,295,83821,6,0,L|126:202,1,89.9999976158142
96,38,84038,2,0,L|102:127,1,89.9999976158142
140,300,84255,2,0,L|133:207,1,89.9999976158142,8|0,0:0|0:0,0:0:0:0:
103,43,84473,2,0,L|110:136,1,89.9999976158142
236,325,84690,6,0,B|234:286|234:286|225:235,1,89.9999976158142
192,8,84908,2,0,B|194:47|194:47|203:98,1,89.9999976158142
246,332,85125,2,0,B|244:293|244:293|235:242,1,89.9999976158142,8|0,0:0|0:0,0:0:0:0:
182,1,85342,2,0,B|184:40|184:40|193:91,1,89.9999976158142
344,368,85560,6,0,B|344:322|344:322|329:281,1,89.9999976158142
273,0,85777,2,0,B|273:46|273:46|288:87,1,89.9999976158142
353,370,85995,2,0,B|353:324|353:324|338:283,1,89.9999976158142,8|0,0:0|0:0,0:0:0:0:
282,2,86212,2,0,B|282:48|282:48|297:89,1,89.9999976158142
471,371,86429,6,0,L|437:282,1,89.9999976158142
174,28,86647,2,0,L|160:118,1,89.9999976158142
202,384,86864,2,0,L|241:288,1,89.9999976158142,8|0,0:0|0:0,0:0:0:0:
436,15,87082,2,0,P|454:51|474:110,1,89.9999976158142
286,188,87299,6,0,B|274:151|274:151|268:98,1,89.9999976158143
455,221,87516,2,0,L|423:322,1,89.9999976158143
141,235,87734,2,0,L|161:135,1,89.9999976158143,8|0,0:0|0:0,0:0:0:0:
280,337,87951,2,0,B|239:358|239:358|185:364,1,89.9999976158143
268,100,88169,6,0,B|311:104|311:104|352:125,1,89.9999976158143
141,235,88386,2,0,L|43:203,1,89.9999976158143
375,225,88603,2,0,L|438:297,1,89.9999976158143,8|0,0:0|0:0,0:0:0:0:
133,122,88821,2,0,B|119:80|130:29,1,89.9999976158143
253,253,89038,6,0,L|225:362,1,89.9999976158143
350,124,89255,2,0,L|330:17,1,89.9999976158143
367,276,89473,2,0,B|379:314|379:314|408:362,1,89.9999976158143,8|0,0:0|0:0,0:0:0:0:
195,137,89690,2,0,B|201:96|201:96|221:51,1,89.9999976158143
448,78,89908,6,0,L|482:168,1,89.9999976158143
258,313,90125,2,0,L|163:284,1,89.9999976158143
381,204,90342,2,0,L|461:260,1,89.9999976158143,8|0,0:0|0:0,0:0:0:0:
108,190,90560,2,0,B|70:217|70:217|41:258,1,89.9999976158143
245,143,90777,6,0,L|279:58,1,89.9999976158142
293,225,90995,2,0,L|316:313,1,89.9999976158142
205,187,91212,2,0,L|135:128,1,89.9999976158142,8|0,0:0|0:0,0:0:0:0:
299,166,91429,2,0,L|390:172,1,89.9999976158142
215,242,91647,6,0,L|102:277,1,89.9999976158142
258,127,91865,2,0,L|329:32,1,89.9999976158142
291,246,92082,2,0,L|290:364,1,89.9999976158142,8|0,0:0|0:0,0:0:0:0:
195,169,92299,2,0,L|126:72,1,89.9999976158142
340,191,92516,6,0,L|469:277,1,89.9999976158142
187,242,92734,2,0,L|33:248,1,89.9999976158142
281,111,92951,2,0,L|402:15,1,89.9999976158142,8|0,0:0|0:0,0:0:0:0:
283,272,93168,2,0,L|241:421,1,89.9999976158142
165,99,93386,5,8,0:0:0:0:
165,99,93495,1,8,0:0:0:0:
165,99,93603,1,8,0:0:0:0:
165,99,93712,1,8,0:0:0:0:
165,99,93821,1,8,0:0:0:0:
165,99,93929,2,0,L|165:6,2,89.9999976158142,0|8|8,0:0|0:0|0:0,0:0:0:0:
151,277,94255,6,0,P|170:319|210:366,1,89.9999976158143
290,61,94473,2,0,P|250:38|190:24,1,89.9999976158143
304,318,94690,2,0,P|350:313|407:289,1,89.9999976158143,8|0,0:0|0:0,0:0:0:0:
142,118,94908,2,0,P|108:149|76:202,1,89.9999976158143
390,184,95125,6,0,L|395:78,1,89.9999976158143
151,277,95342,2,0,L|154:366,1,89.9999976158143
487,359,95560,2,0,L|483:269,1,89.9999976158143,8|0,0:0|0:0,0:0:0:0:
206,32,95777,2,0,L|202:121,1,89.9999976158143
496,146,95995,6,0,B|482:104|482:104|452:69,1,89.9999976158143
273,320,96212,2,0,B|316:328|316:328|361:320,1,89.9999976158143
293,50,96429,2,0,L|205:31,1,89.9999976158143,8|0,0:0|0:0,0:0:0:0:
60,189,96647,2,0,L|86:275,1,89.9999976158143
346,146,96864,5,0,0:0:0:0:
346,146,96973,1,0,0:0:0:0:
346,146,97082,1,0,0:0:0:0:
346,146,97190,1,0,0:0:0:0:
346,146,97299,1,8,0:0:0:0:
346,146,97408,1,0,0:0:0:0:
346,146,97516,1,0,0:0:0:0:
346,146,97625,1,0,0:0:0:0:
346,146,97734,6,0,P|351:189|345:237,1,89.9999976158143
166,235,97951,2,0,P|161:190|166:146,1,89.9999976158143
356,145,98169,2,0,P|361:188|355:236,1,89.9999976158143,8|0,0:0|0:0,0:0:0:0:
156,234,98386,2,0,P|151:189|156:145,1,89.9999976158143
386,137,98603,6,0,P|394:192|380:248,1,107.999993843079
129,242,98821,2,0,P|117:190|126:137,1,107.999993843079
398,136,99038,2,0,P|406:191|392:247,1,107.999993843079,8|0,0:0|0:0,0:0:0:0:
117,241,99255,2,0,P|105:189|114:136,1,107.999993843079
429,123,99473,6,0,P|441:191|429:248,1,125.999992816925
82,246,99690,2,0,P|70:184|83:123,1,125.999992816925
441,122,99908,2,0,P|453:183|441:245,1,125.999992816925,8|0,0:0|0:0,0:0:0:0:
70,245,100125,2,0,P|58:183|71:122,1,125.999992816925
482,112,100342,6,0,P|494:182|482:257,1,143.999996185303
28,253,100560,2,0,P|17:182|30:112,1,143.999996185303
498,112,100777,2,0,P|510:182|499:253,1,143.999996185303,8|0,0:0|0:0,0:0:0:0:
12,253,100995,2,0,P|1:182|14:112,1,143.999996185303
305,24,101212,6,0,L|468:36,1,161.999990764618
207,360,101429,2,0,L|44:348,1,161.999990764618
373,120,101647,2,0,B|445:158|445:158|507:213,1,161.999990764618,8|0,0:0|0:0,0:0:0:0:
139,264,101864,2,0,B|67:226|67:226|5:171,1,161.999990764618
335,322,102082,6,0,P|406:345|504:355,1,161.999990764618
153,106,102299,2,0,P|82:129|-3:178,1,161.999990764618
404,157,102516,2,0,P|447:96|487:6,1,161.999990764618,8|0,0:0|0:0,0:0:0:0:
118,220,102734,2,0,P|118:294|138:390,1,161.999990764618
308,148,102951,6,0,L|230:4,1,161.999990764618
434,278,103169,2,0,B|385:335|385:335|300:378,1,161.999990764618
44,58,103386,2,0,B|117:71|117:71|197:124,1,161.999990764618,8|0,0:0|0:0,0:0:0:0:
100,362,103603,2,0,B|75:291|80:195,1,161.999990764618
412,22,103821,6,0,B|436:92|431:188,1,161.999990764618
188,384,104038,2,0,L|2:377,1,161.999990764618
364,266,104255,2,0,L|516:336,1,161.999990764618,8|0,0:0|0:0,0:0:0:0:
177,89,104473,2,0,B|93:100|93:100|15:135,1,161.999990764618
355,34,104690,6,0,B|398:33|430:63|430:63|500:24,1,161.999990764618
181,195,104908,2,0,P|143:264|135:354,1,161.999990764618
364,266,105125,2,0,P|355:185|317:115,1,161.999990764618,8|0,0:0|0:0,0:0:0:0:
10,196,105342,2,0,L|29:368,1,161.999990764618
484,357,105560,6,0,L|502:196,1,161.999990764618
27,26,105777,2,0,L|10:188,1,161.999990764618
502,188,105995,2,0,L|484:26,1,161.999990764618,8|0,0:0|0:0,0:0:0:0:
10,196,106212,2,0,L|27:357,1,161.999990764618
409,134,106429,6,0,P|347:31|259:20,1,161.999990764618
103,250,106647,2,0,P|165:353|253:364,1,161.999990764618
115,3,106864,2,0,P|12:65|1:153,1,161.999990764618,8|0,0:0|0:0,0:0:0:0:
397,381,107082,2,0,P|500:319|511:231,1,161.999990764618
0,197,107299,6,0,B|4:280|4:280|29:358,1,161.999990764618
512,187,107516,2,0,B|508:104|508:104|483:26,1,161.999990764618
265,372,107734,2,0,L|427:344,1,161.999990764618,8|0,0:0|0:0,0:0:0:0:
247,12,107951,2,0,L|85:40,1,161.999990764618
256,192,108169,5,4,0:0:0:0:
256,192,120337,5,0,0:0:0:0:
256,192,121206,6,0,L|266:309,2,107.999993843079
369,225,121532,2,0,L|366:286,1,53.9999969215394
324,83,122076,6,0,L|439:95,1,107.999993843079
199,149,122510,5,0,0:0:0:0:
436,188,122728,1,0,0:0:0:0:
188,159,122945,2,0,L|199:271,1,107.999993843079
255,75,123380,5,0,0:0:0:0:
291,337,123597,1,0,0:0:0:0:
246,59,123815,2,0,P|187:49|123:48,1,107.999993843079
358,136,124250,5,0,0:0:0:0:
21,139,124467,1,0,0:0:0:0:
369,147,124684,2,0,B|379:202|379:202|366:260,1,107.999993843079
358,44,125119,5,0,0:0:0:0:
343,358,125337,1,0,0:0:0:0:
354,24,125554,2,0,L|482:36,1,107.999993843079
205,87,125989,5,0,0:0:0:0:
485,173,126206,1,0,0:0:0:0:
184,108,126423,2,0,P|109:145|68:195,1,107.999993843079
299,57,126858,5,0,0:0:0:0:
117,310,127076,1,0,0:0:0:0:
323,40,127293,2,0,L|345:159,1,107.999993843079
201,14,127728,5,0,0:0:0:0:
286,309,127945,1,0,0:0:0:0:
192,40,128163,2,0,P|122:72|58:67,1,107.999993843079
323,42,128597,5,0,0:0:0:0:
466,133,128815,1,0,0:0:0:0:
466,133,128923,2,0,L|459:197,1,53.9999969215394
379,168,129141,2,0,L|372:232,1,53.9999969215394
357,368,129467,5,0,0:0:0:0:
399,47,129684,1,0,0:0:0:0:
361,345,129902,2,0,B|306:349|306:349|250:338,1,107.999993843079
463,300,130337,5,0,0:0:0:0:
149,280,130554,1,0,0:0:0:0:
480,325,130771,6,0,L|490:212,1,107.999993843079
282,88,131206,2,0,L|291:195,1,107.999993843079
454,123,131641,6,0,P|431:58|406:24,1,107.999993843079
344,277,132076,2,0,P|367:342|392:376,1,107.999993843079
211,182,132510,6,0,B|159:164|159:164|103:161,1,107.999993843079
344,180,132945,2,0,B|396:177|396:177|448:159,1,107.999993843079
232,77,133380,6,0,L|113:32,1,107.999993843079
246,260,133815,2,0,L|272:379,1,107.999993843079
350,95,134141,6,0,L|354:50,1,26.9999984607697
366,28,134250,6,0,B|310:124|470:179|364:337,1,323.999981529237
144,312,135119,6,0,L|126:196,1,107.999993843079
250,94,135337,2,0,L|233:200,1,107.999993843079
277,330,135554,1,0,0:0:0:0:
277,330,135969,6,0,P|399:343|439:300,1,179.999995231629
468,237,136295,1,0,0:0:0:0:
451,211,136403,2,0,P|430:171|416:127,1,89.9999976158143
317,35,136621,2,0,P|303:77|282:117,1,89.9999976158143
132,175,136838,6,0,B|63:162|63:162|186:113,1,179.999995231629
366,202,137273,2,0,L|453:233,1,89.9999976158143
294,283,137490,2,0,L|207:314,1,89.9999976158143
278,193,137708,6,0,P|310:100|281:20,1,179.999995231629
204,28,138034,1,0,0:0:0:0:
180,51,138142,2,0,L|163:140,1,89.9999976158143
162,311,138360,2,0,L|179:222,1,89.9999976158143
65,132,138577,6,0,B|46:183|46:183|54:258|52:350,1,179.999995231629
459,308,139012,2,0,B|458:258|466:183|466:183|447:132,1,179.999995231629
174,200,139447,6,0,B|221:224|236:274|236:274|319:244,1,179.999995231629
273,146,139882,1,0,0:0:0:0:
166,367,140099,1,0,0:0:0:0:
165,28,140316,6,0,P|244:13|333:57,1,179.999995231629
362,135,140642,1,0,0:0:0:0:
377,171,140751,2,0,P|410:185|474:187,1,89.9999976158143
263,156,140969,2,0,P|218:157|176:173,1,89.9999976158143
127,312,141186,6,0,B|180:311|199:349|199:349|234:315|290:323,1,179.999995231629
278,204,141512,2,0,B|225:203|206:241|206:241|171:207|115:215,1,179.999995231629
192,126,141838,2,0,L|286:117,1,89.9999976158143
445,136,142055,6,0,P|461:175|468:224,1,89.9999976158143
436,128,142273,2,0,P|452:167|459:216,1,89.9999976158143
427,120,142490,2,0,P|443:159|450:208,1,89.9999976158143
418,112,142708,2,0,P|434:151|441:200,1,89.9999976158143
435,302,142925,6,0,B|416:351|415:351|415:351|325:364|270:321,1,179.999995231629
279,309,143251,1,0,0:0:0:0:
265,283,143360,2,0,L|265:193,1,89.9999976158143
186,274,143577,2,0,L|186:184,1,89.9999976158143
206,41,143795,6,0,P|130:118|72:87,1,179.999995231629
345,79,144229,1,0,0:0:0:0:
79,235,144447,1,0,0:0:0:0:
380,156,144664,6,0,B|400:305|400:305|345:277,1,179.999995231629
334,289,144990,1,0,0:0:0:0:
293,312,145099,2,0,L|199:305,1,89.9999976158143
423,226,145316,2,0,L|512:232,1,89.9999976158143
238,108,145534,5,0,0:0:0:0:
238,108,145969,1,0,0:0:0:0:
216,340,146186,1,0,0:0:0:0:
137,103,146403,6,0,P|84:62|70:142,1,179.999995231629
210,233,146838,2,0,L|298:218,1,89.9999976158143
338,142,147055,2,0,L|250:127,1,89.9999976158143
275,341,147273,6,0,P|375:320|452:257,1,179.999995231629
289,16,147708,2,0,L|194:32,1,89.9999976158143
424,86,147925,2,0,L|519:102,1,89.9999976158143
346,201,148142,6,0,P|277:196|273:102,1,179.999995231629
226,79,148469,2,0,P|233:160|152:177,1,179.999995231629
124,155,148795,2,0,L|106:48,1,89.9999976158143
29,197,149012,6,0,B|73:259|78:340|78:340|103:308|130:296,1,179.999995231629
135,304,149338,1,0,0:0:0:0:
144,304,149447,1,0,0:0:0:0:
152,304,149555,1,0,0:0:0:0:
161,304,149664,1,0,0:0:0:0:
169,304,149773,6,0,L|312:303,1,119.999996821086
449,278,150573,6,0,L|441:186,1,89.9999976158143
363,265,151007,2,0,L|355:173,1,89.9999976158143
338,47,151442,6,0,P|265:101|98:57,1,269.999992847443
35,178,152312,6,0,P|55:223|70:269,1,89.9999976158143
119,168,152747,2,0,P|139:213|154:259,1,89.9999976158143
257,370,153399,5,0,0:0:0:0:
257,370,154051,5,0,0:0:0:0:
257,370,154268,2,0,L|350:350,1,89.9999976158143
264,283,154703,2,0,L|357:263,1,89.9999976158143
296,38,155790,6,0,L|203:52,1,89.9999976158143
330,124,156225,1,0,0:0:0:0:
330,124,156442,2,0,L|237:138,1,89.9999976158143
359,235,156850,6,0,P|450:216|502:136,1,179.999995231629
153,149,157284,2,0,P|62:168|10:248,1,179.999995231629
313,316,157719,5,0,0:0:0:0:
199,68,157936,1,0,0:0:0:0:
236,355,158154,1,0,0:0:0:0:
276,29,158371,1,0,0:0:0:0:
145,203,158589,6,0,B|106:278|185:302|128:380,1,179.999995231629
367,181,159023,2,0,B|406:106|327:82|384:4,1,179.999995231629
381,290,159458,5,0,0:0:0:0:
131,94,159676,1,0,0:0:0:0:
389,188,159893,1,0,0:0:0:0:
123,196,160110,1,0,0:0:0:0:
411,153,160328,6,0,B|407:221|421:298|421:298|392:269,1,179.999995231629
217,37,160763,2,0,B|285:41|362:27|362:27|333:56,1,179.999995231629
101,231,161197,2,0,B|105:163|91:86|91:86|120:115,1,179.999995231629
295,347,161632,2,0,B|227:343|150:357|150:357|179:328,1,179.999995231629
237,125,162067,6,0,P|323:202|189:213,1,314.99999165535
143,102,163831,6,0,B|208:98|232:91|232:91|272:114|335:118,1,179.999995231629
390,70,164158,1,0,0:0:0:0:
419,87,164266,2,0,P|445:164|410:260,1,179.999995231629
124,358,164701,6,0,P|93:275|119:191,1,179.999995231629
191,136,165027,1,0,0:0:0:0:
191,136,165136,2,0,L|322:156,1,89.9999976158143
278,41,165353,2,0,L|375:74,1,89.9999976158143
471,124,165571,5,0,0:0:0:0:
471,124,165679,1,0,0:0:0:0:
243,262,165897,1,0,0:0:0:0:
243,262,166005,1,0,0:0:0:0:
499,355,166223,2,0,L|491:257,1,89.9999976158143
367,38,166440,5,0,0:0:0:0:
366,376,166658,1,0,0:0:0:0:
319,33,166875,1,0,0:0:0:0:
277,376,167092,1,0,0:0:0:0:
237,57,167310,6,0,P|191:42|134:42,1,89.9999976158143
57,75,167527,1,0,0:0:0:0:
57,75,167636,2,0,B|69:124|57:162|57:162|67:209|115:242,1,179.999995231629
172,269,167962,2,0,L|274:256,1,89.9999976158143
486,362,168179,6,0,P|406:349|292:347,1,179.999995231629
208,177,168505,2,0,P|297:176|386:162,1,179.999995231629
177,9,168831,2,0,L|98:54,1,89.9999976158143
19,176,169049,5,0,0:0:0:0:
288,54,169266,1,0,0:0:0:0:
288,54,169375,2,0,P|381:27|475:53,1,179.999995231629
499,122,169701,1,0,0:0:0:0:
304,171,169918,6,0,P|254:276|336:250,2,269.999992847443
403,313,170788,6,0,P|317:369|235:367,1,179.999995231629
181,336,171114,1,0,0:0:0:0:
147,319,171223,2,0,B|104:306|104:306|51:307,1,89.9999976158143
246,238,171440,2,0,B|289:251|289:251|342:250,1,89.9999976158143
130,212,171658,6,0,P|70:144|27:44,1,179.999995231629
168,199,171984,2,0,P|154:98|168:21,1,179.999995231629
213,187,172310,2,0,P|237:140|267:104,1,89.9999976158143
354,51,172527,5,0,0:0:0:0:
354,51,172636,1,0,0:0:0:0:
379,290,172853,1,0,0:0:0:0:
379,290,172962,1,0,0:0:0:0:
491,185,173179,2,0,L|480:86,1,89.9999976158143
505,298,173397,5,0,0:0:0:0:
185,259,173614,1,0,0:0:0:0:
490,186,173831,1,0,0:0:0:0:
101,224,174049,1,0,0:0:0:0:
401,131,174266,6,0,P|412:91|383:46,1,89.9999976158143
290,22,174484,1,0,0:0:0:0:
290,22,174592,2,0,L|108:42,1,179.999995231629
19,54,174918,1,0,0:0:0:0:
254,181,175136,6,0,B|339:163|421:199|421:199|383:165|348:117,2,269.999992847443
165,266,176004,5,0,0:0:0:0:
359,277,176222,1,0,0:0:0:0:
359,277,176331,1,0,0:0:0:0:
77,343,176657,1,0,0:0:0:0:
165,266,176874,6,0,L|157:86,1,179.999995231629
320,53,177744,6,0,L|416:65,1,89.9999976158143
192,53,177961,2,0,L|96:65,1,89.9999976158143
330,71,178178,2,0,L|426:83,1,89.9999976158143,8|0,0:0|0:0,0:0:0:0:
182,71,178396,2,0,L|86:83,1,89.9999976158143
344,157,178613,6,0,P|389:165|428:193,1,89.9999976158143
168,157,178831,2,0,P|123:165|84:193,1,89.9999976158143
359,172,179048,2,0,P|393:201|413:245,1,89.9999976158143,8|0,0:0|0:0,0:0:0:0:
153,172,179265,2,0,P|118:201|98:245,1,89.9999976158143
327,264,179483,6,0,L|355:351,1,89.9999976158143
249,158,179700,2,0,L|272:62,1,89.9999976158143
188,313,179917,2,0,B|158:340|158:340|104:363,1,89.9999976158143,8|0,0:0|0:0,0:0:0:0:
361,161,180135,2,0,P|402:144|458:130,1,89.9999976158143
141,211,180352,5,0,0:0:0:0:
141,211,180461,1,0,0:0:0:0:
141,211,180570,1,0,0:0:0:0:
141,211,180678,1,0,0:0:0:0:
141,211,180787,1,8,0:0:0:0:
141,211,180896,1,0,0:0:0:0:
141,211,181004,1,0,0:0:0:0:
141,211,181113,1,0,0:0:0:0:
141,211,181222,6,0,L|123:122,1,89.9999976158143
275,307,181439,2,0,L|186:325,1,89.9999976158143
371,173,181657,2,0,L|389:262,1,89.9999976158143,8|0,0:0|0:0,0:0:0:0:
237,77,181874,2,0,L|326:59,1,89.9999976158143
125,251,182091,6,0,L|75:151,1,89.9999976158143
315,322,182308,2,0,L|215:372,1,89.9999976158143
386,132,182526,2,0,L|436:232,1,89.9999976158143,8|0,0:0|0:0,0:0:0:0:
196,61,182743,2,0,L|296:11,1,89.9999976158143
131,294,182961,6,0,L|48:200,1,89.9999976158143
358,316,183178,2,0,L|264:399,1,89.9999976158143
380,89,183396,2,0,L|463:183,1,89.9999976158143,8|0,0:0|0:0,0:0:0:0:
153,67,183613,2,0,L|247:-15,1,89.9999976158143
143,349,183831,6,0,L|17:266,1,89.9999976158143
413,304,184048,2,0,L|330:430,1,89.9999976158143
368,34,184266,2,0,L|494:117,1,89.9999976158143,8|0,0:0|0:0,0:0:0:0:
98,79,184483,2,0,L|181:-46,1,89.9999976158143
182,208,184700,6,0,L|197:297,1,89.9999976158143
309,100,184917,2,0,B|282:63|282:63|265:18,1,89.9999976158143
323,262,185135,2,0,L|402:309,1,89.9999976158143,8|0,0:0|0:0,0:0:0:0:
501,122,185352,2,0,B|487:78|487:78|458:41,1,89.9999976158143
190,81,185570,6,0,L|102:58,1,89.9999976158143
392,159,185787,2,0,L|438:240,1,89.9999976158143
181,281,186004,2,0,B|150:249|150:249|127:209,1,89.9999976158143,8|0,0:0|0:0,0:0:0:0:
366,294,186222,2,0,B|343:334|343:334|312:366,1,89.9999976158143
245,121,186439,6,0,L|275:32,1,89.9999976158143
181,281,186657,2,0,L|111:342,1,89.9999976158143
352,161,186874,2,0,P|386:151|465:148,1,89.9999976158143,8|0,0:0|0:0,0:0:0:0:
154,177,187091,2,0,P|120:187|41:190,1,89.9999976158143
356,74,187309,6,0,L|422:11,1,89.9999976158143
262,246,187526,2,0,B|254:289|254:289|258:343,1,89.9999976158143
444,235,187744,2,0,B|447:188|447:188|439:145,1,89.9999976158143,8|0,0:0|0:0,0:0:0:0:
217,34,187961,2,0,L|108:73,1,89.9999976158143
262,246,188178,6,0,P|306:221|347:212,1,89.9999976158143
250,138,188396,2,0,P|206:163|165:172,1,89.9999976158143
271,254,188613,2,0,P|318:237|360:235,1,89.9999976158143,8|0,0:0|0:0,0:0:0:0:
241,130,188831,2,0,P|193:146|151:148,1,89.9999976158143
285,259,189048,6,0,P|334:250|376:256,1,89.9999976158143
227,125,189265,2,0,P|177:133|135:127,1,89.9999976158143
294,270,189483,2,0,P|344:270|384:283,1,89.9999976158143,8|0,0:0|0:0,0:0:0:0:
218,114,189700,2,0,P|167:113|127:100,1,89.9999976158143
295,283,189917,6,0,P|344:292|381:311,1,89.9999976158143
217,101,190135,2,0,P|167:91|130:72,1,89.9999976158143
290,303,190352,2,0,P|337:320|370:346,1,89.9999976158143,8|0,0:0|0:0,0:0:0:0:
222,81,190570,2,0,P|174:63|141:37,1,89.9999976158143
256,192,190787,5,8,0:0:0:0:
256,192,190896,1,8,0:0:0:0:
256,192,191004,1,8,0:0:0:0:
256,192,191113,1,8,0:0:0:0:
256,192,191222,1,8,0:0:0:0:
256,192,191331,2,0,L|256:288,2,89.9999976158143,0|8|8,0:0|0:0|0:0,0:0:0:0:
317,62,191657,6,0,P|367:44|423:38,1,89.9999976158143
140,189,191874,2,0,P|95:181|53:165,1,89.9999976158143
354,160,192091,2,0,L|393:242,1,89.9999976158143,8|0,0:0|0:0,0:0:0:0:
174,358,192309,2,0,B|128:340|128:340|85:313,1,89.9999976158143
327,327,192526,6,0,L|412:358,1,89.9999976158143
264,102,192744,2,0,B|241:63|241:63|203:35,1,89.9999976158143
87,376,192961,2,0,B|132:375|132:375|175:356,1,89.9999976158143,8|0,0:0|0:0,0:0:0:0:
428,218,193178,2,0,L|396:117,1,89.9999976158143
84,166,193396,6,0,L|111:251,1,89.9999976158143
264,102,193613,2,0,L|306:17,1,89.9999976158143
301,268,193831,2,0,B|291:312|291:312|268:359,1,89.9999976158143,8|0,0:0|0:0,0:0:0:0:
399,134,194048,2,0,B|425:95|425:95|462:68,1,89.9999976158143
420,290,194265,5,0,0:0:0:0:
420,290,194374,1,0,0:0:0:0:
420,290,194483,1,0,0:0:0:0:
420,290,194591,1,0,0:0:0:0:
420,290,194700,1,8,0:0:0:0:
420,290,194809,1,0,0:0:0:0:
420,290,194917,1,0,0:0:0:0:
420,290,195026,1,0,0:0:0:0:
420,290,195135,6,0,P|385:330|339:354,1,89.9999976158143
92,290,195352,2,0,P|127:330|173:354,1,89.9999976158143
435,295,195570,2,0,P|400:335|354:359,1,89.9999976158143,8|0,0:0|0:0,0:0:0:0:
77,295,195787,2,0,P|112:335|158:359,1,89.9999976158143
436,206,196004,6,0,P|391:233|335:248,1,107.999993843079
76,206,196222,2,0,P|121:233|177:248,1,107.999993843079
442,184,196439,2,0,P|397:211|341:226,1,107.999993843079,8|0,0:0|0:0,0:0:0:0:
70,184,196657,2,0,P|115:211|171:226,1,107.999993843079
448,104,196874,6,0,P|371:124|319:121,1,125.999992816925
64,104,197091,2,0,P|141:124|193:121,1,125.999992816925
456,85,197309,2,0,P|379:105|327:102,1,125.999992816925,8|0,0:0|0:0,0:0:0:0:
56,85,197526,2,0,P|133:105|185:102,1,125.999992816925
510,1,197744,6,0,P|441:16|365:18,1,143.999996185303
2,1,197961,2,0,P|71:16|147:18,1,143.999996185303
500,243,198178,2,0,P|427:241|350:212,1,143.999996185303,8|0,0:0|0:0,0:0:0:0:
12,243,198396,2,0,P|85:245|162:274,1,143.999996185303
411,117,198613,6,0,B|334:89|334:89|272:38,1,161.999990764618
135,200,198831,2,0,L|60:360,1,161.999990764618
414,314,199048,2,0,P|483:247|514:189,1,161.999990764618,8|0,0:0|0:0,0:0:0:0:
198,94,199265,2,0,B|117:100|117:100|16:86,1,161.999990764618
317,27,199483,6,0,B|398:21|398:21|499:35,1,161.999990764618
414,314,199700,2,0,L|242:364,1,161.999990764618
493,115,199917,2,0,B|510:195|510:195|493:284,1,161.999990764618,8|0,0:0|0:0,0:0:0:0:
90,124,200135,2,0,B|150:69|150:69|236:39,1,161.999990764618
99,224,200352,6,0,P|95:289|120:381,1,161.999990764618
359,130,200570,2,0,P|324:75|249:15,1,161.999990764618
283,300,200787,2,0,L|449:348,1,161.999990764618,8|0,0:0|0:0,0:0:0:0:
172,88,201004,2,0,B|90:102|90:102|16:141,1,161.999990764618
361,22,201222,6,0,B|443:36|443:36|517:75,1,161.999990764618
170,240,201439,2,0,B|100:276|100:276|18:290,1,161.999990764618
403,225,201657,2,0,L|506:360,1,161.999990764618,8|0,0:0|0:0,0:0:0:0:
196,113,201874,2,0,L|47:24,1,161.999990764618
287,283,202091,6,0,P|268:338|175:366,1,161.999990764618
225,101,202309,2,0,P|244:46|337:18,1,161.999990764618
119,215,202526,2,0,B|72:286|72:286|7:339,1,161.999990764618,8|0,0:0|0:0,0:0:0:0:
393,169,202744,2,0,B|440:98|440:98|505:45,1,161.999990764618
181,50,202961,6,0,L|23:19,1,161.999990764618
331,334,203178,2,0,L|489:365,1,161.999990764618
165,245,203396,2,0,B|101:288|101:288|40:351,1,161.999990764618,8|0,0:0|0:0,0:0:0:0:
347,139,203613,2,0,B|411:96|411:96|472:33,1,161.999990764618
88,107,203831,6,0,P|26:163|31:270,1,161.999990764618
424,277,204048,2,0,P|486:221|481:114,1,161.999990764618
201,365,204265,2,0,B|117:364|117:364|41:348,1,161.999990764618,8|0,0:0|0:0,0:0:0:0:
310,18,204483,2,0,B|395:20|395:20|471:36,1,161.999990764618
193,335,204700,5,0,0:0:0:0:
193,335,204809,1,0,0:0:0:0:
193,335,204917,1,0,0:0:0:0:
193,335,205026,1,0,0:0:0:0:
193,335,205135,1,8,0:0:0:0:
193,335,205244,1,0,0:0:0:0:
193,335,205352,1,0,0:0:0:0:
193,335,205461,1,0,0:0:0:0:
193,335,205555,6,0,L|182:245,1,89.9999976158143
329,245,205772,2,0,L|319:335,1,89.9999976158143
182,138,205989,2,0,L|193:49,1,89.9999976158143,8|0,0:0|0:0,0:0:0:0:
319,49,206207,2,0,L|329:138,1,89.9999976158143
181,346,206424,6,0,L|137:265,1,89.9999976158143
373,266,206641,2,0,L|331:346,1,89.9999976158143
138,117,206859,2,0,L|181:38,1,89.9999976158143,8|0,0:0|0:0,0:0:0:0:
331,38,207076,2,0,L|373:117,1,89.9999976158143
163,364,207294,6,0,L|76:330,1,89.9999976158143
432,331,207511,2,0,L|349:364,1,89.9999976158143
79,52,207728,2,0,L|163:20,1,89.9999976158143,8|0,0:0|0:0,0:0:0:0:
349,20,207946,2,0,L|432:52,1,89.9999976158143
371,235,208163,5,0,0:0:0:0:
371,235,208272,1,0,0:0:0:0:
371,235,208381,1,0,0:0:0:0:
371,235,208489,1,0,0:0:0:0:
371,235,208598,1,8,0:0:0:0:
371,235,208707,1,0,0:0:0:0:
371,235,208815,1,0,0:0:0:0:
371,235,208924,1,0,0:0:0:0:
371,235,209033,6,0,P|357:162|357:120,1,89.9999976158143
141,149,209250,2,0,P|155:222|155:264,1,89.9999976158143
299,77,209468,2,0,P|226:91|184:91,1,89.9999976158143,8|0,0:0|0:0,0:0:0:0:
213,307,209685,2,0,P|286:293|328:293,1,89.9999976158143
130,102,209902,6,0,P|123:195|109:246,1,89.9999976158143
381,281,210119,2,0,P|388:188|402:137,1,89.9999976158143
166,317,210337,2,0,P|259:324|310:338,1,89.9999976158143,8|0,0:0|0:0,0:0:0:0:
345,66,210554,2,0,P|252:59|201:45,1,89.9999976158143
375,336,210772,6,0,P|412:229|444:173,1,89.9999976158143
136,47,210989,2,0,P|99:154|67:210,1,89.9999976158143
400,72,211207,2,0,P|293:35|237:3,1,89.9999976158143,8|0,0:0|0:0,0:0:0:0:
111,311,211424,2,0,P|218:348|274:380,1,89.9999976158143
168,0,211641,6,0,P|127:67|87:115,1,89.9999976158143
343,383,211859,2,0,P|384:316|424:268,1,89.9999976158143
64,279,212076,2,0,P|131:320|179:360,1,89.9999976158143,8|0,0:0|0:0,0:0:0:0:
447,104,212294,2,0,P|380:63|332:23,1,89.9999976158143
215,190,212511,6,0,L|121:206,1,89.9999976158143
385,180,212728,2,0,B|424:199|424:199|460:231,1,89.9999976158143
250,332,212946,2,0,P|203:319|163:301,1,89.9999976158143,8|0,0:0|0:0,0:0:0:0:
307,86,213163,2,0,P|348:67|391:56,1,89.9999976158143
181,28,213381,6,0,L|94:59,1,89.9999976158143
366,268,213598,2,0,L|385:179,1,89.9999976158143
52,163,213815,2,0,L|70:251,1,89.9999976158143,8|0,0:0|0:0,0:0:0:0:
371,364,214033,2,0,B|412:347|412:347|446:318,1,89.9999976158143
198,259,214250,6,0,B|169:222|169:222|155:180,1,89.9999976158143
505,131,214468,2,0,B|491:171|491:171|462:208,1,89.9999976158143
242,42,214685,2,0,L|325:4,1,89.9999976158143,8|0,0:0|0:0,0:0:0:0:
366,268,214902,2,0,L|323:368,1,89.9999976158143
97,339,215120,6,0,L|80:244,1,89.9999976158143
319,99,215337,2,0,L|303:187,1,89.9999976158143
80,109,215555,2,0,B|94:70|94:70|120:24,1,89.9999976158143,8|0,0:0|0:0,0:0:0:0:
257,300,215772,2,0,B|288:331|288:331|337:353,1,89.9999976158143
369,129,215989,6,0,P|335:100|310:58,1,89.9999976158143
193,79,216207,2,0,P|164:113|122:138,1,89.9999976158143
143,255,216424,2,0,P|177:284|202:326,1,89.9999976158143,8|0,0:0|0:0,0:0:0:0:
319,305,216641,2,0,P|348:271|390:246,1,89.9999976158143
357,93,216859,6,0,P|313:71|258:11,1,107.999993843079
157,90,217076,2,0,P|135:134|75:189,1,107.999993843079
154,290,217294,2,0,P|198:312|253:372,1,107.999993843079,8|0,0:0|0:0,0:0:0:0:
354,293,217511,2,0,P|376:249|436:194,1,107.999993843079
337,56,217728,6,0,P|283:46|206:-6,1,125.999992816925
120,110,217946,2,0,P|110:164|57:241,1,125.999992816925
174,327,218163,2,0,P|228:337|305:390,1,125.999992816925,8|0,0:0|0:0,0:0:0:0:
391,273,218381,2,0,P|401:219|454:142,1,125.999992816925
256,80,218598,5,8,0:0:0:0:
256,80,218707,1,8,0:0:0:0:
256,80,218815,1,8,0:0:0:0:
256,80,218924,1,8,0:0:0:0:
256,80,219033,1,8,0:0:0:0:
256,80,219141,2,0,L|256:192,2,89.9999976158143,0|8|8,0:0|0:0|0:0,0:0:0:0:
309,270,219468,6,0,L|366:348,1,89.9999976158143
161,134,219685,2,0,B|119:117|119:117|74:108,1,89.9999976158143
368,156,219902,2,0,B|411:147|411:147|453:130,1,89.9999976158143,8|0,0:0|0:0,0:0:0:0:
164,249,220120,2,0,L|126:341,1,89.9999976158143
399,237,220337,6,0,L|479:295,1,89.9999976158143
217,344,220555,2,0,B|173:344|173:344|123:330,1,89.9999976158143
365,117,220772,2,0,B|409:117|409:117|459:131,1,89.9999976158143,8|0,0:0|0:0,0:0:0:0:
139,181,220989,2,0,L|119:84,1,89.9999976158143
348,260,221207,6,0,L|329:348,1,89.9999976158143
237,112,221424,2,0,B|222:71|222:71|221:25,1,89.9999976158143
181,275,221641,2,0,B|148:305|148:305|101:331,1,89.9999976158143,8|0,0:0|0:0,0:0:0:0:
365,117,221859,2,0,L|452:164,1,89.9999976158143
339,298,222076,5,0,0:0:0:0:
339,298,222185,1,0,0:0:0:0:
339,298,222294,1,0,0:0:0:0:
339,298,222402,1,0,0:0:0:0:
339,298,222511,1,8,0:0:0:0:
339,298,222620,1,0,0:0:0:0:
339,298,222728,1,0,0:0:0:0:
339,298,222837,1,0,0:0:0:0:
339,298,222946,6,0,P|285:325|237:328,1,89.9999976158143
173,86,223163,2,0,P|227:59|275:56,1,89.9999976158143
331,311,223381,2,0,P|277:338|229:341,1,89.9999976158143,8|0,0:0|0:0,0:0:0:0:
181,73,223598,2,0,P|235:46|283:43,1,89.9999976158143
312,349,223815,6,0,P|243:365|190:357,1,107.999993843079
200,35,224033,2,0,P|269:19|322:27,1,107.999993843079
296,365,224250,2,0,P|227:381|174:373,1,107.999993843079,8|0,0:0|0:0,0:0:0:0:
216,19,224468,2,0,P|285:3|338:11,1,107.999993843079
255,383,224685,6,0,P|181:368|127:337,1,125.999992816925
257,1,224902,2,0,P|331:16|385:47,1,125.999992816925
221,384,225120,2,0,P|147:369|93:338,1,125.999992816925,8|0,0:0|0:0,0:0:0:0:
291,0,225337,2,0,P|365:15|419:46,1,125.999992816925
170,373,225555,6,0,P|107:328|64:259,1,143.999996185303
342,11,225772,2,0,P|405:56|448:125,1,143.999996185303
129,376,225989,2,0,P|66:331|23:262,1,143.999996185303,8|0,0:0|0:0,0:0:0:0:
383,8,226207,2,0,P|446:53|489:122,1,143.999996185303
22,186,226424,6,0,L|45:8,1,179.999995231629
490,198,226641,2,0,L|467:376,1,179.999995231629
152,170,226859,2,0,B|96:96|96:96|65:7,1,179.999995231629,8|0,0:0|0:0,0:0:0:0:
405,225,227076,2,0,B|376:307|376:307|320:381,1,179.999995231629
324,38,227294,6,0,P|218:3|145:15,1,179.999995231629
47,339,227511,2,0,P|153:374|226:362,1,179.999995231629
501,205,227728,2,0,L|459:29,1,179.999995231629,8|0,0:0|0:0,0:0:0:0:
64,53,227946,2,0,B|25:131|25:131|7:235,1,179.999995231629
293,107,228163,6,0,P|341:49|435:4,1,179.999995231629
219,277,228381,2,0,P|171:335|77:380,1,179.999995231629
422,104,228598,2,0,P|483:139|495:240,1,179.999995231629,8|0,0:0|0:0,0:0:0:0:
90,280,228815,2,0,P|29:245|17:144,1,179.999995231629
336,345,229033,6,0,B|415:368|415:368|517:377,1,179.999995231629
176,345,229250,2,0,B|97:368|97:368|-5:377,1,179.999995231629
392,246,229468,2,0,B|460:196|460:196|514:110,1,179.999995231629,8|0,0:0|0:0,0:0:0:0:
120,246,229685,2,0,B|52:196|52:196|-2:110,1,179.999995231629
334,0,229902,6,0,L|513:20,1,179.999995231629
178,384,230120,2,0,L|-1:364,1,179.999995231629
404,112,230337,2,0,B|461:177|461:177|505:273,1,179.999995231629,8|0,0:0|0:0,0:0:0:0:
0,150,230555,2,0,B|38:64|38:64|95:0,1,179.999995231629
342,337,230772,6,0,P|417:364|516:364,1,179.999995231629
512,20,230989,2,0,P|426:18|342:47,1,179.999995231629
0,363,231207,2,0,P|85:365|170:337,1,179.999995231629,8|0,0:0|0:0,0:0:0:0:
170,47,231424,2,0,P|85:18|-4:20,1,179.999995231629
504,278,231641,6,0,B|514:189|514:189|503:98,1,179.999995231629
8,99,231859,2,0,B|-2:189|-2:189|8:278,1,179.999995231629
334,384,232076,2,0,L|512:358,1,179.999995231629,8|0,0:0|0:0,0:0:0:0:
178,0,232294,2,0,L|0:26,1,179.999995231629
330,46,232511,6,0,B|407:13|407:13|512:-2,1,179.999995231629
182,338,232728,2,0,B|105:371|105:371|0:386,1,179.999995231629
490,179,232946,2,0,L|512:363,1,179.999995231629,8|0,0:0|0:0,0:0:0:0:
22,205,233163,2,0,L|0:21,1,179.999995231629
256,192,233354,5,0,0:0:0:0:
309,290,233571,1,0,0:0:0:0:
309,290,233680,2,0,P|392:280|421:188,1,179.999995231629
321,69,234006,6,0,L|230:80,1,89.9999976158143
378,12,234223,2,0,B|506:29|506:29|446:57,1,179.999995231629
125,169,234658,5,4,0:0:0:0:
