osu file format v14

[General]
AudioFilename: audio.mp3
AudioLeadIn: 0
PreviewTime: 39046
Countdown: 0
SampleSet: Normal
StackLeniency: 0.2
Mode: 0
LetterboxInBreaks: 0
WidescreenStoryboard: 1

[Editor]
Bookmarks: 80333,177724,198376,205550,233376
DistanceSpacing: 1.2
BeatDivisor: 4
GridSize: 4
TimelineZoom: 2.7

[Metadata]
Title:A FOOL MOON NIGHT
TitleUnicode:A FOOL MOON NIGHT
Artist:The Koxx
ArtistUnicode:칵스
Creator:Astar
Version:Piggey's Destruction
Source:
Tags:piggey overjoy a_kochav [_emillia_] [ emillia ] friendofox
BeatmapID:1186901
BeatmapSetID:524026

[Difficulty]
HPDrainRate:4
CircleSize:4
OverallDifficulty:9
ApproachRate:10
SliderMultiplier:2.2
SliderTickRate:1

[Events]
//Background and Video events
0,0,"1474291154383.jpg",0,0
//Break Periods
2,108369,119887
//Storyboard Layer 0 (Background)
//Storyboard Layer 1 (Fail)
//Storyboard Layer 2 (Pass)
//Storyboard Layer 3 (Foreground)
//Storyboard Sound Samples

[TimingPoints]
321,434.782608695652,4,1,0,30,1,0
17277,-50,4,1,0,30,0,0
17929,-100,4,1,0,30,0,0
24667,-125,4,1,0,100,0,0
38612,434.782608695652,4,1,0,60,1,0
38612,-200,4,1,0,60,0,0
39264,-66.6666666666667,4,1,0,60,0,0
40351,-200,4,1,0,60,0,0
41003,-66.6666666666667,4,1,0,60,0,0
42090,-200,4,1,0,60,0,0
42742,-66.6666666666667,4,1,0,60,0,0
43829,-200,4,1,0,60,0,0
44481,-66.6666666666667,4,1,0,60,0,0
45567,434.782608695652,4,1,0,60,1,0
45567,-200,4,1,0,60,0,0
46189,-66.6666666666667,4,1,0,60,0,0
47306,-200,4,1,0,60,0,0
52958,-100,4,1,0,80,0,0
53387,434.782608695652,4,1,0,80,1,0
54256,434.782608695652,4,1,0,80,1,0
65777,-66.6666666666667,4,1,0,80,0,0
76864,-133.333333333333,4,1,0,80,0,0
80342,-66.6666666666667,4,1,0,100,0,1
108169,-100,4,1,0,100,0,0
120337,434.782608695652,4,1,0,100,1,0
134032,-200,4,1,0,100,0,0
135119,-100,4,1,0,100,0,0
135981,434.782608695652,4,1,0,100,1,0
149921,434.782608695652,4,1,0,100,1,0
149921,-200,4,1,0,75,0,0
156850,434.782608695652,4,1,0,75,1,0
157284,-200,4,1,0,75,0,0
163154,-66.6666666666667,4,1,0,75,0,0
163831,434.782608695652,4,1,0,75,1,0
163831,-66.6666666666667,4,1,0,75,0,0
177744,-66.6666666666667,4,1,0,100,0,1
231222,434.782608695652,4,1,0,100,1,1
233358,434.782608695652,4,1,0,100,1,0

[HitObjects]
255,122,3581,5,0,0:0:0:0:
256,157,3690,1,0,0:0:0:0:
256,192,3799,1,0,0:0:0:0:
256,192,3907,12,0,7168,0:0:0:0:
256,192,7277,5,0,0:0:0:0:
256,192,7386,12,0,10647,0:0:0:0:
256,192,10755,5,0,0:0:0:0:
384,308,11625,5,0,0:0:0:0:
96,280,12494,5,0,0:0:0:0:
400,52,13364,5,0,0:0:0:0:
144,256,14234,5,0,0:0:0:0:
388,144,14668,2,0,B|328:216|232:224|232:224|272:188,1,220
52,24,15973,5,0,0:0:0:0:
460,360,16842,5,0,0:0:0:0:
352,296,17277,2,0,B|440:302|440:302|420:318,1,110
96,240,17712,1,0,0:0:0:0:
156,288,17929,6,0,P|144:228|144:176,1,110
164,144,18255,1,0,0:0:0:0:
180,120,18364,1,0,0:0:0:0:
308,284,18581,1,0,0:0:0:0:
416,48,18799,6,0,P|436:116|432:172,1,110
424,184,19125,1,0,0:0:0:0:
404,208,19234,1,0,0:0:0:0:
312,24,19451,1,0,0:0:0:0:
272,212,19668,6,0,P|240:136|216:88,1,110
184,112,19994,1,0,0:0:0:0:
152,144,20103,1,0,0:0:0:0:
192,336,20320,5,0,0:0:0:0:
432,204,20538,1,0,0:0:0:0:
248,184,20755,1,0,0:0:0:0:
360,360,20973,5,0,0:0:0:0:
340,96,21190,1,0,0:0:0:0:
128,304,21407,1,0,0:0:0:0:
388,184,21625,1,0,0:0:0:0:
56,148,21842,1,0,0:0:0:0:
288,308,22060,5,0,0:0:0:0:
240,24,22277,1,0,0:0:0:0:
120,308,22494,5,0,0:0:0:0:
328,112,22712,1,0,0:0:0:0:
124,304,22929,1,0,0:0:0:0:
220,148,23799,5,0,0:0:0:0:
388,220,24016,1,0,0:0:0:0:
318,191,24125,1,0,0:0:0:0:
248,162,24234,1,0,0:0:0:0:
56,324,24668,6,0,P|112:340|152:336,1,88
272,248,25103,1,0,0:0:0:0:
76,224,25320,1,0,0:0:0:0:
356,108,25538,6,0,P|408:160|420:192,1,88
144,152,25973,1,0,0:0:0:0:
432,160,26190,1,0,0:0:0:0:
208,184,26407,6,0,L|220:80,1,88
288,52,26842,1,0,0:0:0:0:
272,312,27060,1,0,0:0:0:0:
168,96,27277,1,0,0:0:0:0:
392,116,27494,1,0,0:0:0:0:
60,208,27712,1,0,0:0:0:0:
280,40,27929,5,0,0:0:0:0:
286,88,28038,1,0,0:0:0:0:
303,134,28147,1,0,0:0:0:0:
388,276,28364,1,0,0:0:0:0:
388,276,28473,1,0,0:0:0:0:
388,276,28581,6,0,P|344:308|300:308,1,88
192,192,29016,1,0,0:0:0:0:
336,308,29234,1,0,0:0:0:0:
116,312,29451,2,0,L|112:212,1,88
440,56,29886,5,0,0:0:0:0:
386,76,29994,1,0,0:0:0:0:
328,68,30103,2,0,P|284:64|236:80,1,88
264,240,30538,1,0,0:0:0:0:
160,64,30755,2,0,L|120:24,1,44
64,128,30973,2,0,L|128:160,1,44
192,224,31190,2,0,L|128:256,1,44
32,320,31407,2,0,L|96:352,1,44
324,304,31625,6,0,L|328:196,1,88
176,88,32060,2,0,L|272:40,1,88
404,52,32494,1,0,0:0:0:0:
304,328,32712,1,0,0:0:0:0:
336,100,32929,2,0,L|432:168,1,88
220,240,33364,5,0,0:0:0:0:
84,104,33581,1,0,0:0:0:0:
212,236,33799,1,0,0:0:0:0:
264,36,34016,1,0,0:0:0:0:
220,232,34234,1,0,0:0:0:0:
120,8,34451,1,0,0:0:0:0:
236,240,34668,1,0,0:0:0:0:
56,200,34886,1,0,0:0:0:0:
56,200,34994,1,0,0:0:0:0:
56,200,35103,1,0,0:0:0:0:
260,92,35320,1,0,0:0:0:0:
176,316,35538,6,0,L|148:200,1,88
128,84,35973,1,0,0:0:0:0:
176,308,36190,1,0,0:0:0:0:
376,64,36407,6,0,L|348:168,1,88
264,320,36842,1,0,0:0:0:0:
248,56,37060,1,0,0:0:0:0:
206,42,37168,1,0,0:0:0:0:
163,50,37277,1,0,0:0:0:0:
128,68,37386,1,0,0:0:0:0:
192,120,37494,1,0,0:0:0:0:
233,133,37603,1,0,0:0:0:0:
276,125,37712,1,0,0:0:0:0:
312,104,37820,5,0,0:0:0:0:
390,83,37929,1,0,0:0:0:0:
409,122,38038,1,0,0:0:0:0:
402,165,38147,1,0,0:0:0:0:
367,195,38255,1,0,0:0:0:0:
312,211,38364,5,0,0:0:0:0:
268,247,38473,1,0,0:0:0:0:
244,300,38612,2,0,L|216:360,1,55
104,340,39046,5,0,0:0:0:0:
204,84,39264,2,0,L|408:100,1,165.000006294251
204,172,39698,2,0,P|128:116|132:40,1,165.000006294251
368,200,40133,1,0,0:0:0:0:
72,328,40351,6,0,L|100:216,1,110
432,252,41003,6,0,P|408:324|324:308,1,165.000006294251
372,268,41438,2,0,B|296:152|296:152|280:184,1,165.000006294251
256,296,41872,1,0,0:0:0:0:
448,112,42090,6,0,L|324:88,1,110
120,240,42742,6,0,L|120:44,1,165.000006294251
204,120,43177,2,0,L|32:120,1,165.000006294251
168,296,43612,1,0,0:0:0:0:
304,68,43829,6,0,B|324:64|324:64|272:152,1,110
188,292,44481,6,0,P|272:248|348:312,1,165.000006294251
388,348,44916,2,0,P|456:316|448:208,1,165.000006294251
392,264,45351,1,0,0:0:0:0:
440,64,45568,6,0,P|384:60|320:76,1,110
244,240,46219,6,0,L|216:52,1,165.000006294251
60,248,46653,2,0,B|136:348|136:348|168:308,1,165.000006294251
240,224,47088,1,0,0:0:0:0:
376,64,47306,6,0,L|408:172,1,110
396,320,47958,1,0,0:0:0:0:
368,323,48067,1,0,0:0:0:0:
342,316,48175,1,0,0:0:0:0:
300,184,48393,1,0,0:0:0:0:
216,164,48501,1,0,0:0:0:0:
136,194,48610,1,0,0:0:0:0:
184,344,48827,5,0,0:0:0:0:
187,316,48936,1,0,0:0:0:0:
192,296,49045,2,0,L|208:184,1,110
240,60,49697,5,0,0:0:0:0:
352,256,49914,1,0,0:0:0:0:
220,80,50132,1,0,0:0:0:0:
172,296,50349,1,0,0:0:0:0:
324,128,50567,1,0,0:0:0:0:
136,160,50784,6,0,L|24:176,1,110
136,256,51436,1,0,0:0:0:0:
360,152,51653,6,0,L|408:132,1,27.5
244,248,51871,1,0,0:0:0:0:
293,240,51980,1,0,0:0:0:0:
342,233,52088,1,0,0:0:0:0:
240,68,52523,6,0,P|192:56|152:64,1,82.5
192,132,52958,6,0,P|260:144|320:108,1,110
348,56,53387,1,0,0:0:0:0:
324,252,53604,1,0,0:0:0:0:
292,296,53713,1,0,0:0:0:0:
248,320,53821,2,0,P|184:332|132:328,1,110
124,148,54256,1,0,0:0:0:0:
124,148,54364,1,0,0:0:0:0:
124,148,54473,1,0,0:0:0:0:
124,148,54582,1,0,0:0:0:0:
124,148,54690,6,0,B|140:148|140:148|124:168|124:168|104:148|104:148|124:128|124:128|124:144,1,110
228,112,55125,2,0,L|348:132,1,110
324,252,55560,1,0,0:0:0:0:
128,280,55777,5,0,0:0:0:0:
137,225,55886,1,0,0:0:0:0:
148,168,55995,2,0,B|160:68|160:68|192:160,1,165
232,232,56429,2,0,B|252:262|252:262|264:190,1,110
268,60,56756,1,0,0:0:0:0:
220,33,56864,1,0,0:0:0:0:
166,38,56973,1,0,0:0:0:0:
124,73,57082,1,0,0:0:0:0:
109,125,57190,1,0,0:0:0:0:
126,176,57299,5,0,0:0:0:0:
320,144,57516,1,0,0:0:0:0:
104,352,57734,2,0,B|72:312|72:312|136:312,1,110
260,320,58169,1,0,0:0:0:0:
148,168,58386,1,0,0:0:0:0:
488,240,58603,6,0,L|432:216,1,55
396,280,58821,2,0,L|332:296,1,55
284,220,59038,2,0,L|216:204,1,55
184,304,59256,2,0,L|116:320,1,55
80,184,59473,6,0,P|104:120|156:104,1,110
308,208,59908,6,0,L|324:80,1,110
172,96,60342,1,0,0:0:0:0:
464,176,60560,1,0,0:0:0:0:
272,296,60777,6,0,L|288:168,1,110
296,60,61212,1,0,0:0:0:0:
396,232,61429,1,0,0:0:0:0:
332,228,61538,2,0,L|268:216,1,55
280,176,61864,1,0,0:0:0:0:
240,344,62082,1,0,0:0:0:0:
176,28,62516,1,0,0:0:0:0:
352,160,62951,6,0,L|248:232,1,110
272,172,63277,2,0,L|252:224,1,55
216,324,63603,1,0,0:0:0:0:
76,196,63821,2,0,L|140:168,1,55
240,88,64038,2,0,L|156:88,1,55
64,88,64256,1,0,0:0:0:0:
288,204,64473,1,0,0:0:0:0:
160,168,64690,5,0,0:0:0:0:
172,115,64799,1,0,0:0:0:0:
212,77,64908,1,0,0:0:0:0:
265,67,65016,1,0,0:0:0:0:
315,87,65125,1,0,0:0:0:0:
264,204,65342,5,0,0:0:0:0:
500,224,65560,1,0,0:0:0:0:
224,328,65777,5,0,0:0:0:0:
159,281,65886,1,0,0:0:0:0:
154,201,65995,1,0,0:0:0:0:
208,144,66103,1,0,0:0:0:0:
205,66,66212,1,0,0:0:0:0:
132,42,66321,1,0,0:0:0:0:
84,104,66429,6,0,P|164:168|224:100,1,165.000006294251
336,56,66864,6,0,B|416:20|416:20|400:128,1,165.000006294251
400,288,67299,2,0,B|344:352|272:264|228:336,1,165.000006294251
112,316,67734,2,0,B|84:344|84:344|84:196,1,165.000006294251
128,92,68169,6,0,L|36:100,1,82.5000031471254
360,288,68495,2,0,L|472:320,1,82.5000031471254
328,32,68821,5,0,0:0:0:0:
312,62,68929,1,0,0:0:0:0:
297,93,69038,1,0,0:0:0:0:
281,124,69147,1,0,0:0:0:0:
266,155,69256,1,0,0:0:0:0:
252,188,69364,1,0,0:0:0:0:
256,276,69473,6,0,L|236:104,1,165.000006294251
144,24,69908,5,0,0:0:0:0:
94,44,70016,1,0,0:0:0:0:
74,94,70125,1,0,0:0:0:0:
96,142,70234,1,0,0:0:0:0:
147,161,70342,1,0,0:0:0:0:
196,136,70451,1,0,0:0:0:0:
245,112,70560,1,0,0:0:0:0:
299,112,70669,1,0,0:0:0:0:
349,136,70777,1,0,0:0:0:0:
384,178,70886,1,0,0:0:0:0:
397,230,70995,1,0,0:0:0:0:
387,284,71103,1,0,0:0:0:0:
355,328,71212,1,0,0:0:0:0:
307,354,71321,1,0,0:0:0:0:
253,358,71429,1,0,0:0:0:0:
202,338,71538,1,0,0:0:0:0:
168,300,71647,5,0,0:0:0:0:
189,239,71756,1,0,0:0:0:0:
165,179,71864,1,0,0:0:0:0:
107,151,71973,1,0,0:0:0:0:
45,169,72082,1,0,0:0:0:0:
11,224,72190,1,0,0:0:0:0:
22,287,72299,1,0,0:0:0:0:
72,332,72408,1,0,0:0:0:0:
136,323,72516,1,0,0:0:0:0:
190,286,72625,1,0,0:0:0:0:
220,228,72734,1,0,0:0:0:0:
221,163,72842,1,0,0:0:0:0:
191,104,72951,1,0,0:0:0:0:
256,348,73169,1,0,0:0:0:0:
416,72,73386,6,0,B|392:260|392:260|364:192,1,247.500009441376
368,184,73821,2,0,P|320:168|272:196,1,82.5000031471254
356,116,74038,2,0,P|264:104|220:176,1,165.000006294251
248,320,74473,6,0,P|164:324|96:268,1,165.000006294251
184,176,74908,1,0,0:0:0:0:
440,324,75125,6,0,L|448:216,1,82.5000031471254
72,60,75451,2,0,L|64:168,1,82.5000031471254
268,324,75777,5,0,0:0:0:0:
341,301,75886,1,0,0:0:0:0:
341,225,75995,1,0,0:0:0:0:
264,204,76103,1,0,0:0:0:0:
189,174,76212,1,0,0:0:0:0:
162,98,76321,1,0,0:0:0:0:
201,28,76429,1,0,0:0:0:0:
279,11,76538,1,0,0:0:0:0:
344,58,76647,1,0,0:0:0:0:
444,268,76864,5,0,0:0:0:0:
404,278,76973,1,0,0:0:0:0:
364,288,77082,1,0,0:0:0:0:
324,298,77190,1,0,0:0:0:0:
284,308,77299,1,0,0:0:0:0:
244,318,77408,1,0,0:0:0:0:
200,328,77516,5,0,0:0:0:0:
235,307,77625,1,0,0:0:0:0:
271,286,77734,1,0,0:0:0:0:
306,265,77842,1,0,0:0:0:0:
342,244,77951,1,0,0:0:0:0:
376,220,78060,1,0,0:0:0:0:
408,200,78169,5,0,0:0:0:0:
168,96,78603,5,0,0:0:0:0:
128,256,78821,2,0,L|148:192,1,41.2500015735627
100,348,79256,1,0,0:0:0:0:
168,96,79473,1,0,0:0:0:0:
128,256,79908,2,0,L|148:192,1,41.2500015735627
379,76,80342,5,0,0:0:0:0:
256,323,80451,1,0,0:0:0:0:
251,80,80560,5,0,0:0:0:0:
399,327,80669,1,0,0:0:0:0:
168,164,80777,5,0,0:0:0:0:
482,237,80886,1,0,0:0:0:0:
168,284,80995,5,0,0:0:0:0:
403,73,81103,1,0,0:0:0:0:
387,363,81212,1,0,0:0:0:0:
256,99,81321,1,0,0:0:0:0:
482,206,81429,1,0,0:0:0:0:
232,358,81538,5,0,0:0:0:0:
199,69,81647,1,0,0:0:0:0:
422,277,81755,1,0,0:0:0:0:
125,192,81864,1,0,0:0:0:0:
336,100,81973,1,0,0:0:0:0:
137,323,82082,5,0,0:0:0:0:
313,23,82190,1,0,0:0:0:0:
371,304,82299,5,0,0:0:0:0:
191,42,82408,1,0,0:0:0:0:
246,347,82516,1,0,0:0:0:0:
379,50,82625,1,0,0:0:0:0:
74,144,82734,1,0,0:0:0:0:
435,307,82842,1,0,0:0:0:0:
180,33,82951,5,0,0:0:0:0:
156,311,83060,1,0,0:0:0:0:
411,112,83169,1,0,0:0:0:0:
82,80,83277,5,0,0:0:0:0:
298,355,83386,1,0,0:0:0:0:
317,18,83495,1,0,0:0:0:0:
58,187,83603,1,0,0:0:0:0:
419,116,83712,1,0,0:0:0:0:
129,268,83821,5,0,0:0:0:0:
465,277,83929,1,0,0:0:0:0:
153,175,84038,5,0,0:0:0:0:
438,363,84147,1,0,0:0:0:0:
244,124,84255,5,0,0:0:0:0:
348,380,84364,1,0,0:0:0:0:
356,135,84473,5,0,0:0:0:0:
227,358,84582,1,0,0:0:0:0:
395,222,84690,5,0,0:0:0:0:
176,268,84799,1,0,0:0:0:0:
379,315,84908,5,0,0:0:0:0:
204,194,85016,1,0,0:0:0:0:
286,323,85125,5,0,0:0:0:0:
294,175,85234,1,0,0:0:0:0:
239,273,85342,5,0,0:0:0:0:
341,225,85451,1,0,0:0:0:0:
176,182,85560,5,0,0:0:0:0:
336,220,85669,1,0,0:0:0:0:
118,347,85777,5,0,0:0:0:0:
352,224,85886,1,0,0:0:0:0:
66,135,85995,5,0,0:0:0:0:
368,224,86103,1,0,0:0:0:0:
30,331,86212,5,0,0:0:0:0:
380,224,86321,1,0,0:0:0:0:
20,121,86429,5,0,0:0:0:0:
266,350,86538,1,0,0:0:0:0:
240,64,86647,1,0,0:0:0:0:
84,304,86755,5,0,0:0:0:0:
391,163,86864,1,0,0:0:0:0:
97,10,86973,1,0,0:0:0:0:
234,367,87082,5,0,0:0:0:0:
272,64,87190,1,0,0:0:0:0:
16,168,87299,1,0,0:0:0:0:
419,268,87408,5,0,0:0:0:0:
144,80,87516,1,0,0:0:0:0:
129,363,87625,1,0,0:0:0:0:
416,112,87734,1,0,0:0:0:0:
4,204,87842,1,0,0:0:0:0:
356,352,87951,1,0,0:0:0:0:
208,16,88060,1,0,0:0:0:0:
66,301,88169,5,0,0:0:0:0:
435,230,88277,1,0,0:0:0:0:
97,168,88386,5,0,0:0:0:0:
465,97,88494,1,0,0:0:0:0:
106,42,88603,5,0,0:0:0:0:
458,159,88712,1,0,0:0:0:0:
129,222,88821,5,0,0:0:0:0:
482,339,88930,1,0,0:0:0:0:
101,331,89038,1,0,0:0:0:0:
458,175,89147,1,0,0:0:0:0:
97,97,89256,1,0,0:0:0:0:
371,323,89364,1,0,0:0:0:0:
215,26,89473,1,0,0:0:0:0:
129,323,89582,1,0,0:0:0:0:
365,69,89690,5,0,0:0:0:0:
262,323,89799,1,0,0:0:0:0:
120,89,89908,1,0,0:0:0:0:
422,241,90016,5,0,0:0:0:0:
106,237,90125,1,0,0:0:0:0:
371,42,90234,1,0,0:0:0:0:
266,347,90342,1,0,0:0:0:0:
137,73,90451,1,0,0:0:0:0:
388,293,90560,5,0,0:0:0:0:
118,162,90669,1,0,0:0:0:0:
256,146,90777,5,0,0:0:0:0:
256,214,90886,1,0,0:0:0:0:
289,158,90995,5,0,0:0:0:0:
222,203,91103,1,0,0:0:0:0:
301,192,91212,5,0,0:0:0:0:
210,169,91321,1,0,0:0:0:0:
267,214,91429,5,0,0:0:0:0:
233,135,91538,1,0,0:0:0:0:
216,234,91647,5,0,0:0:0:0:
278,109,91755,1,0,0:0:0:0:
165,197,91864,5,0,0:0:0:0:
329,149,91973,1,0,0:0:0:0:
159,135,92082,5,0,0:0:0:0:
340,208,92190,1,0,0:0:0:0:
196,84,92299,5,0,0:0:0:0:
292,254,92408,1,0,0:0:0:0:
272,80,92516,5,0,0:0:0:0:
216,260,92625,1,0,0:0:0:0:
340,104,92734,5,0,0:0:0:0:
161,231,92842,1,0,0:0:0:0:
385,151,92951,5,0,0:0:0:0:
135,180,93060,1,0,0:0:0:0:
385,209,93169,5,0,0:0:0:0:
142,126,93277,1,0,0:0:0:0:
351,278,93386,5,0,0:0:0:0:
179,88,93495,1,0,0:0:0:0:
287,289,93603,5,0,0:0:0:0:
237,84,93712,1,0,0:0:0:0:
207,327,93821,5,0,0:0:0:0:
309,56,93929,5,0,0:0:0:0:
408,259,94038,5,0,0:0:0:0:
182,223,94147,5,0,0:0:0:0:
405,121,94255,5,0,0:0:0:0:
275,276,94364,1,0,0:0:0:0:
275,95,94473,1,0,0:0:0:0:
357,310,94582,1,0,0:0:0:0:
190,177,94690,5,0,0:0:0:0:
377,126,94799,1,0,0:0:0:0:
196,293,94908,1,0,0:0:0:0:
301,101,95016,5,0,0:0:0:0:
321,305,95125,1,0,0:0:0:0:
123,214,95234,1,0,0:0:0:0:
369,90,95342,5,0,0:0:0:0:
185,293,95451,1,0,0:0:0:0:
230,84,95560,1,0,0:0:0:0:
374,276,95669,1,0,0:0:0:0:
148,163,95777,1,0,0:0:0:0:
323,93,95886,5,0,0:0:0:0:
244,302,95995,1,0,0:0:0:0:
165,101,96103,5,0,0:0:0:0:
374,183,96212,1,0,0:0:0:0:
134,268,96321,5,0,0:0:0:0:
392,184,96429,1,0,0:0:0:0:
103,78,96538,5,0,0:0:0:0:
408,184,96647,1,0,0:0:0:0:
106,282,96755,5,0,0:0:0:0:
424,188,96864,1,0,0:0:0:0:
120,112,96973,5,0,0:0:0:0:
323,276,97082,1,0,0:0:0:0:
289,93,97190,1,0,0:0:0:0:
128,234,97299,1,0,0:0:0:0:
380,175,97408,1,0,0:0:0:0:
171,101,97516,5,0,0:0:0:0:
244,302,97625,1,0,0:0:0:0:
343,78,97734,1,0,0:0:0:0:
151,282,97843,1,0,0:0:0:0:
363,274,97951,5,0,0:0:0:0:
205,59,98060,1,0,0:0:0:0:
227,313,98169,1,0,0:0:0:0:
258,59,98277,1,0,0:0:0:0:
270,310,98386,1,0,0:0:0:0:
230,61,98495,1,0,0:0:0:0:
241,313,98603,5,0,0:0:0:0:
213,160,98712,1,0,0:0:0:0:
340,208,98821,1,0,0:0:0:0:
227,310,98929,5,0,0:0:0:0:
227,152,99038,1,0,0:0:0:0:
352,228,99147,1,0,0:0:0:0:
213,302,99255,5,0,0:0:0:0:
241,146,99364,1,0,0:0:0:0:
346,254,99473,1,0,0:0:0:0:
148,231,99582,5,0,0:0:0:0:
346,158,99690,1,0,0:0:0:0:
296,340,99799,1,0,0:0:0:0:
199,115,99908,5,0,0:0:0:0:
380,251,100016,1,0,0:0:0:0:
196,313,100125,1,0,0:0:0:0:
304,101,100234,5,0,0:0:0:0:
304,322,100342,1,0,0:0:0:0:
142,189,100451,1,0,0:0:0:0:
388,146,100560,5,0,0:0:0:0:
188,327,100669,1,0,0:0:0:0:
199,70,100777,1,0,0:0:0:0:
352,293,100886,1,0,0:0:0:0:
125,194,100995,5,0,0:0:0:0:
343,104,101103,1,0,0:0:0:0:
196,265,101212,5,0,0:0:0:0:
261,70,101321,1,0,0:0:0:0:
284,282,101429,5,0,0:0:0:0:
185,78,101538,1,0,0:0:0:0:
168,296,101647,5,0,0:0:0:0:
289,67,101755,1,0,0:0:0:0:
281,313,101864,5,0,0:0:0:0:
233,61,101973,1,0,0:0:0:0:
176,296,102082,5,0,0:0:0:0:
309,73,102190,1,0,0:0:0:0:
335,310,102299,5,0,0:0:0:0:
159,81,102408,1,0,0:0:0:0:
400,223,102516,5,0,0:0:0:0:
120,152,102625,1,0,0:0:0:0:
289,296,102734,5,0,0:0:0:0:
340,73,102842,1,0,0:0:0:0:
145,237,102951,5,0,0:0:0:0:
394,129,103060,1,0,0:0:0:0:
145,90,103169,5,0,0:0:0:0:
391,268,103277,1,0,0:0:0:0:
278,59,103386,5,0,0:0:0:0:
222,305,103495,1,0,0:0:0:0:
414,90,103603,5,0,0:0:0:0:
131,242,103712,1,0,0:0:0:0:
224,64,103821,5,0,0:0:0:0:
329,305,103929,1,0,0:0:0:0:
267,64,104038,5,0,0:0:0:0:
289,310,104147,1,0,0:0:0:0:
304,67,104255,5,0,0:0:0:0:
241,310,104364,1,0,0:0:0:0:
264,67,104473,5,0,0:0:0:0:
284,305,104582,1,0,0:0:0:0:
241,67,104690,5,0,0:0:0:0:
312,305,104799,1,0,0:0:0:0:
295,67,104908,5,0,0:0:0:0:
261,307,105016,1,0,0:0:0:0:
205,67,105125,5,0,0:0:0:0:
343,302,105234,1,0,0:0:0:0:
329,61,105342,5,0,0:0:0:0:
213,307,105451,1,0,0:0:0:0:
388,129,105560,5,0,0:0:0:0:
145,254,105669,1,0,0:0:0:0:
414,206,105777,5,0,0:0:0:0:
128,169,105886,1,0,0:0:0:0:
377,293,105995,5,0,0:0:0:0:
168,81,106103,1,0,0:0:0:0:
284,305,106212,5,0,0:0:0:0:
239,59,106321,1,0,0:0:0:0:
196,299,106429,5,0,0:0:0:0:
323,67,106538,1,0,0:0:0:0:
128,254,106647,5,0,0:0:0:0:
380,109,106755,1,0,0:0:0:0:
139,172,106864,5,0,0:0:0:0:
379,182,106973,1,0,0:0:0:0:
162,98,107082,5,0,0:0:0:0:
353,240,107190,1,0,0:0:0:0:
239,109,107299,5,0,0:0:0:0:
281,234,107408,1,0,0:0:0:0:
304,135,107516,5,0,0:0:0:0:
213,208,107625,1,0,0:0:0:0:
309,186,107734,5,0,0:0:0:0:
216,158,107842,1,0,0:0:0:0:
270,208,107951,5,0,0:0:0:0:
256,152,108060,1,0,0:0:0:0:
256,192,108169,1,0,0:0:0:0:
336,156,120337,5,0,0:0:0:0:
104,200,121206,2,0,L|172:224,1,55
256,276,121423,1,0,0:0:0:0:
185,289,121532,1,0,0:0:0:0:
114,302,121641,1,0,0:0:0:0:
380,120,122076,6,0,P|396:200|384:260,1,110
208,32,122510,1,0,0:0:0:0:
152,336,122728,6,0,P|224:300|252:248,1,110
152,248,123163,2,0,L|92:264,1,55
44,276,123380,1,0,0:0:0:0:
312,92,123597,2,0,L|388:104,1,55
420,112,123815,1,0,0:0:0:0:
88,28,124032,6,0,L|140:84,1,55
160,112,124250,1,0,0:0:0:0:
328,296,124467,5,0,0:0:0:0:
328,296,124576,1,0,0:0:0:0:
328,296,124684,1,0,0:0:0:0:
84,244,124902,5,0,0:0:0:0:
84,244,125010,1,0,0:0:0:0:
84,244,125119,1,0,0:0:0:0:
360,104,125337,6,0,L|396:56,2,55
208,304,125771,2,0,L|184:368,2,55
180,76,126206,6,0,L|156:24,2,55
316,296,126641,2,0,L|352:360,2,55
104,184,127076,5,0,0:0:0:0:
112,152,127184,1,0,0:0:0:0:
136,176,127293,1,0,0:0:0:0:
408,184,127510,5,0,0:0:0:0:
400,152,127619,1,0,0:0:0:0:
376,176,127728,1,0,0:0:0:0:
256,344,127945,1,0,0:0:0:0:
256,289,128054,1,0,0:0:0:0:
256,234,128163,1,0,0:0:0:0:
256,40,128380,1,0,0:0:0:0:
256,95,128489,1,0,0:0:0:0:
256,150,128597,1,0,0:0:0:0:
76,32,128815,5,0,0:0:0:0:
84,52,128923,2,0,L|68:112,1,55
52,136,129141,1,0,0:0:0:0:
132,188,129250,2,0,L|8:272,1,110
176,336,129684,6,0,P|232:356|296:352,1,110
464,80,130119,2,0,P|408:60|344:64,1,110
16,124,130554,6,0,P|28:184|72:240,1,110
496,260,130989,2,0,P|484:200|440:144,1,110
152,96,131423,6,0,L|176:160,2,55
360,288,131858,2,0,L|336:224,2,55
168,252,132293,5,0,0:0:0:0:
168,252,132402,1,0,0:0:0:0:
168,252,132510,1,0,0:0:0:0:
344,108,132728,1,0,0:0:0:0:
344,108,132837,1,0,0:0:0:0:
344,108,132945,5,0,0:0:0:0:
288,348,133163,1,0,0:0:0:0:
288,348,133271,1,0,0:0:0:0:
288,348,133380,1,0,0:0:0:0:
208,60,133597,1,0,0:0:0:0:
208,60,133706,1,0,0:0:0:0:
208,60,133815,1,0,0:0:0:0:
256,176,134032,6,0,L|256:212,2,27.5
256,192,134358,12,0,135010,0:0:0:0:
420,268,135119,6,0,L|360:312,1,55
284,268,135337,1,0,0:0:0:0:
337,280,135445,1,0,0:0:0:0:
379,314,135554,1,0,0:0:0:0:
48,324,135981,5,0,0:0:0:0:
60,228,136089,1,0,0:0:0:0:
112,144,136198,1,0,0:0:0:0:
192,84,136307,1,0,0:0:0:0:
284,48,136415,2,0,L|356:32,1,55
404,112,136633,2,0,L|448:176,1,55
444,256,136850,5,0,0:0:0:0:
372,324,136959,1,0,0:0:0:0:
308,248,137067,1,0,0:0:0:0:
380,180,137176,1,0,0:0:0:0:
392,280,137285,6,0,L|372:344,1,55
276,336,137502,2,0,L|204:312,1,55
128,292,137720,5,0,0:0:0:0:
148,196,137828,1,0,0:0:0:0:
52,212,137937,1,0,0:0:0:0:
84,120,138046,2,0,L|112:68,1,55
204,36,138263,5,0,0:0:0:0:
304,36,138372,1,0,0:0:0:0:
392,84,138481,1,0,0:0:0:0:
452,164,138589,2,0,L|488:216,1,55
428,292,138807,1,0,0:0:0:0:
340,332,138915,1,0,0:0:0:0:
252,284,139024,2,0,L|176:240,1,55
224,160,139241,5,0,0:0:0:0:
156,88,139350,1,0,0:0:0:0:
60,120,139459,1,0,0:0:0:0:
68,220,139567,1,0,0:0:0:0:
164,244,139676,1,0,0:0:0:0:
156,144,139785,5,0,0:0:0:0:
228,76,139894,2,0,P|272:44|300:48,1,55
364,76,140111,2,0,P|389:65|406:44,1,55
460,128,140328,5,0,0:0:0:0:
400,204,140437,1,0,0:0:0:0:
448,292,140546,1,0,0:0:0:0:
384,368,140654,1,0,0:0:0:0:
316,296,140763,6,0,L|272:236,1,55
216,324,140981,2,0,L|176:376,1,55
100,296,141198,5,0,0:0:0:0:
88,188,141307,1,0,0:0:0:0:
156,104,141415,1,0,0:0:0:0:
264,92,141524,1,0,0:0:0:0:
332,180,141633,1,0,0:0:0:0:
444,176,141741,1,0,0:0:0:0:
468,68,141850,1,0,0:0:0:0:
368,16,141959,1,0,0:0:0:0:
280,80,142067,6,0,L|208:128,1,55
340,320,142285,2,0,L|412:344,1,55
80,16,142502,6,0,L|48:72,1,55
508,280,142720,2,0,L|528:216,1,55
256,192,142937,5,0,0:0:0:0:
256,304,143046,5,0,0:0:0:0:
360,264,143154,1,0,0:0:0:0:
372,156,143263,1,0,0:0:0:0:
292,80,143372,2,0,L|236:56,1,55
168,140,143589,2,0,L|164:52,1,55
184,0,143807,5,0,0:0:0:0:
264,76,143915,1,0,0:0:0:0:
156,52,144024,1,0,0:0:0:0:
256,4,144133,1,0,0:0:0:0:
192,96,144241,2,0,L|164:152,1,55
256,208,144459,6,0,L|292:284,1,55
352,332,144676,1,0,0:0:0:0:
348,228,144785,1,0,0:0:0:0:
244,232,144894,1,0,0:0:0:0:
244,336,145002,1,0,0:0:0:0:
300,296,145111,5,0,0:0:0:0:
200,252,145220,1,0,0:0:0:0:
152,352,145328,1,0,0:0:0:0:
264,384,145437,1,0,0:0:0:0:
280,276,145546,5,0,0:0:0:0:
228,180,145654,1,0,0:0:0:0:
280,108,145763,1,0,0:0:0:0:
192,52,145872,1,0,0:0:0:0:
280,0,145981,1,0,0:0:0:0:
292,120,146089,5,0,0:0:0:0:
232,204,146198,1,0,0:0:0:0:
148,268,146307,1,0,0:0:0:0:
72,340,146415,5,0,0:0:0:0:
172,312,146524,1,0,0:0:0:0:
272,348,146633,1,0,0:0:0:0:
320,256,146741,1,0,0:0:0:0:
428,256,146850,2,0,L|460:184,1,55
440,92,147067,2,0,L|368:48,1,55
204,80,147285,5,0,0:0:0:0:
188,188,147394,1,0,0:0:0:0:
184,296,147502,1,0,0:0:0:0:
84,340,147611,1,0,0:0:0:0:
8,260,147720,2,0,L|36:168,1,55
92,120,147937,2,0,L|168:76,1,55
248,60,148154,5,0,0:0:0:0:
248,60,148263,1,0,0:0:0:0:
248,60,148372,1,0,0:0:0:0:
248,60,148481,2,0,L|264:120,1,55
280,220,148698,1,0,0:0:0:0:
268,328,148807,2,0,L|276:256,1,55
164,128,149024,1,0,0:0:0:0:
110,117,149133,1,0,0:0:0:0:
60,137,149241,1,0,0:0:0:0:
29,181,149350,1,0,0:0:0:0:
27,236,149459,1,0,0:0:0:0:
56,282,149567,1,0,0:0:0:0:
105,305,149676,1,0,0:0:0:0:
160,304,149785,1,0,0:0:0:0:
200,280,149894,6,0,B|244:248|212:204|212:204|244:168,1,110
444,124,150355,6,0,L|432:200,1,55
88,124,151225,6,0,L|136:80,1,55
224,32,151986,1,0,0:0:0:0:
304,288,152312,5,0,0:0:0:0:
184,308,152529,1,0,0:0:0:0:
412,56,152964,5,0,0:0:0:0:
68,264,153834,6,0,L|80:208,1,55
400,276,154703,6,0,L|348:324,1,55
144,40,155464,5,0,0:0:0:0:
376,304,155790,5,0,0:0:0:0:
128,336,156007,1,0,0:0:0:0:
144,20,156442,5,0,0:0:0:0:
68,260,157284,6,0,L|80:184,1,55
424,260,158154,6,0,L|376:304,1,55
288,352,158915,1,0,0:0:0:0:
208,96,159241,5,0,0:0:0:0:
328,76,159458,1,0,0:0:0:0:
100,328,159893,5,0,0:0:0:0:
444,120,160763,6,0,L|432:176,1,55
112,108,161632,6,0,L|164:60,1,55
368,344,162393,5,0,0:0:0:0:
136,80,162719,5,0,0:0:0:0:
384,48,162936,1,0,0:0:0:0:
392,272,163154,5,0,0:0:0:0:
290,236,163262,1,0,0:0:0:0:
189,201,163371,1,0,0:0:0:0:
360,320,163831,6,0,P|436:288|328:156,1,247.500009441376
400,256,164265,2,0,P|424:160|480:116,1,165.000006294251
336,44,164700,2,0,P|244:44|184:96,1,165.000006294251
244,264,165135,2,0,L|100:112,1,165.000006294251
52,268,165570,6,0,L|60:368,1,82.5000031471254
460,116,165896,6,0,L|452:16,1,82.5000031471254
248,72,166222,6,0,L|128:68,1,82.5000031471254
276,152,166439,2,0,L|380:168,1,82.5000031471254
416,292,166657,2,0,L|356:360,1,82.5000031471254
244,328,166874,2,0,L|224:240,1,82.5000031471254
288,160,167091,2,0,L|380:192,1,82.5000031471254
144,320,167309,5,0,0:0:0:0:
80,224,167417,1,0,0:0:0:0:
180,164,167526,1,0,0:0:0:0:
240,264,167635,1,0,0:0:0:0:
124,268,167744,5,0,0:0:0:0:
192,176,167852,1,0,0:0:0:0:
284,248,167961,1,0,0:0:0:0:
208,336,168070,1,0,0:0:0:0:
160,232,168178,5,0,0:0:0:0:
68,164,168287,1,0,0:0:0:0:
80,48,168396,1,0,0:0:0:0:
188,8,168504,5,0,0:0:0:0:
248,84,168613,1,0,0:0:0:0:
340,44,168722,1,0,0:0:0:0:
372,140,168831,1,0,0:0:0:0:
468,116,168939,1,0,0:0:0:0:
324,288,169048,5,0,0:0:0:0:
365,204,169156,1,0,0:0:0:0:
457,214,169265,1,0,0:0:0:0:
481,304,169374,1,0,0:0:0:0:
404,360,169483,1,0,0:0:0:0:
350,298,169591,5,0,0:0:0:0:
275,266,169700,1,0,0:0:0:0:
193,271,169809,1,0,0:0:0:0:
120,312,169917,5,0,0:0:0:0:
44,192,170026,1,0,0:0:0:0:
68,52,170135,1,0,0:0:0:0:
164,32,170244,5,0,0:0:0:0:
164,128,170352,1,0,0:0:0:0:
260,128,170461,1,0,0:0:0:0:
260,32,170570,1,0,0:0:0:0:
184,68,170678,5,0,0:0:0:0:
152,64,170787,6,0,P|76:96|184:228,1,247.500009441376
112,128,171222,2,0,P|88:224|32:268,1,165.000006294251
176,340,171657,2,0,P|268:340|328:288,1,165.000006294251
268,120,172091,2,0,L|412:272,1,165.000006294251
460,116,172526,6,0,L|452:16,1,82.5000031471254
52,268,172852,6,0,L|60:368,1,82.5000031471254
264,312,173178,6,0,L|384:316,1,82.5000031471254
236,232,173396,2,0,L|132:216,1,82.5000031471254
96,92,173613,6,0,L|156:24,1,82.5000031471254
268,56,173831,2,0,L|288:144,1,82.5000031471254
224,224,174048,2,0,L|132:192,1,82.5000031471254
192,64,174265,5,0,0:0:0:0:
267,35,174374,1,0,0:0:0:0:
344,60,174483,1,0,0:0:0:0:
390,127,174591,1,0,0:0:0:0:
384,207,174700,1,0,0:0:0:0:
328,264,174809,5,0,0:0:0:0:
296,190,174917,1,0,0:0:0:0:
219,169,175026,1,0,0:0:0:0:
154,215,175135,1,0,0:0:0:0:
149,295,175244,1,0,0:0:0:0:
212,348,175352,5,0,0:0:0:0:
229,269,175461,1,0,0:0:0:0:
186,201,175570,1,0,0:0:0:0:
112,184,175678,1,0,0:0:0:0:
58,124,175787,1,0,0:0:0:0:
344,288,176004,5,0,0:0:0:0:
384,128,176222,2,0,L|364:192,1,41.2500015735627
412,36,176657,1,0,0:0:0:0:
344,288,176874,1,0,0:0:0:0:
384,128,177309,2,0,L|364:192,1,41.2500015735627
68,156,177744,5,0,0:0:0:0:
204,232,177852,1,0,0:0:0:0:
184,52,177961,1,0,0:0:0:0:
104,240,178070,5,0,0:0:0:0:
268,120,178178,1,0,0:0:0:0:
80,84,178287,1,0,0:0:0:0:
260,248,178396,1,0,0:0:0:0:
160,120,178504,5,0,0:0:0:0:
168,336,178613,1,0,0:0:0:0:
364,196,178722,1,0,0:0:0:0:
112,252,178831,1,0,0:0:0:0:
272,336,178939,1,0,0:0:0:0:
208,108,179048,5,0,0:0:0:0:
288,336,179157,1,0,0:0:0:0:
376,112,179265,1,0,0:0:0:0:
464,264,179374,1,0,0:0:0:0:
212,204,179483,1,0,0:0:0:0:
472,304,179591,1,0,0:0:0:0:
260,116,179700,5,0,0:0:0:0:
316,344,179809,1,0,0:0:0:0:
424,136,179917,1,0,0:0:0:0:
192,240,180026,1,0,0:0:0:0:
408,232,180135,5,0,0:0:0:0:
192,240,180244,1,0,0:0:0:0:
380,320,180352,1,0,0:0:0:0:
192,240,180461,1,0,0:0:0:0:
296,380,180570,1,0,0:0:0:0:
192,240,180678,1,0,0:0:0:0:
200,384,180787,1,0,0:0:0:0:
212,124,180896,5,0,0:0:0:0:
352,256,181004,1,0,0:0:0:0:
176,252,181113,1,0,0:0:0:0:
308,120,181222,1,0,0:0:0:0:
256,304,181331,1,0,0:0:0:0:
144,136,181439,5,0,0:0:0:0:
336,204,181548,1,0,0:0:0:0:
144,296,181657,1,0,0:0:0:0:
336,204,181765,1,0,0:0:0:0:
120,136,181874,1,0,0:0:0:0:
336,204,181983,1,0,0:0:0:0:
120,300,182091,1,0,0:0:0:0:
336,204,182200,1,0,0:0:0:0:
96,128,182309,5,0,0:0:0:0:
240,296,182417,1,0,0:0:0:0:
284,80,182526,1,0,0:0:0:0:
84,212,182635,5,0,0:0:0:0:
336,240,182744,1,0,0:0:0:0:
192,48,182852,1,0,0:0:0:0:
164,292,182961,5,0,0:0:0:0:
336,148,183070,1,0,0:0:0:0:
100,84,183178,1,0,0:0:0:0:
272,308,183287,5,0,0:0:0:0:
236,72,183396,1,0,0:0:0:0:
84,268,183504,1,0,0:0:0:0:
336,184,183613,1,0,0:0:0:0:
116,108,183722,1,0,0:0:0:0:
216,304,183831,5,0,0:0:0:0:
336,104,183939,1,0,0:0:0:0:
412,324,184048,1,0,0:0:0:0:
272,80,184157,5,0,0:0:0:0:
328,344,184265,1,0,0:0:0:0:
416,128,184374,5,0,0:0:0:0:
192,176,184483,1,0,0:0:0:0:
416,344,184591,5,0,0:0:0:0:
336,104,184700,1,0,0:0:0:0:
192,348,184809,5,0,0:0:0:0:
440,264,184917,1,0,0:0:0:0:
104,248,185026,5,0,0:0:0:0:
352,164,185134,1,0,0:0:0:0:
12,136,185244,5,0,0:0:0:0:
260,52,185352,1,0,0:0:0:0:
116,268,185461,5,0,0:0:0:0:
84,48,185570,1,0,0:0:0:0:
224,304,185678,5,0,0:0:0:0:
192,84,185787,1,0,0:0:0:0:
332,340,185896,5,0,0:0:0:0:
300,120,186005,1,0,0:0:0:0:
492,264,186113,5,0,0:0:0:0:
224,288,186222,1,0,0:0:0:0:
428,148,186331,1,0,0:0:0:0:
364,356,186439,1,0,0:0:0:0:
248,164,186548,1,0,0:0:0:0:
404,36,186657,5,0,0:0:0:0:
320,264,186765,1,0,0:0:0:0:
324,116,186874,5,0,0:0:0:0:
408,344,186982,1,0,0:0:0:0:
408,164,187091,5,0,0:0:0:0:
184,268,187200,1,0,0:0:0:0:
288,48,187309,1,0,0:0:0:0:
280,340,187417,1,0,0:0:0:0:
292,52,187526,1,0,0:0:0:0:
408,348,187635,5,0,0:0:0:0:
212,180,187744,1,0,0:0:0:0:
416,72,187852,1,0,0:0:0:0:
232,292,187961,5,0,0:0:0:0:
320,68,188070,1,0,0:0:0:0:
492,248,188178,1,0,0:0:0:0:
176,208,188287,5,0,0:0:0:0:
464,84,188396,1,0,0:0:0:0:
336,344,188504,1,0,0:0:0:0:
184,88,188613,1,0,0:0:0:0:
488,312,188722,5,0,0:0:0:0:
208,308,188831,1,0,0:0:0:0:
336,48,188939,1,0,0:0:0:0:
392,344,189048,5,0,0:0:0:0:
176,68,189157,1,0,0:0:0:0:
132,368,189265,1,0,0:0:0:0:
408,200,189374,1,0,0:0:0:0:
80,112,189483,1,0,0:0:0:0:
324,364,189591,1,0,0:0:0:0:
272,40,189700,1,0,0:0:0:0:
84,280,189809,1,0,0:0:0:0:
432,280,189917,5,0,0:0:0:0:
152,40,190026,1,0,0:0:0:0:
196,376,190135,1,0,0:0:0:0:
364,48,190244,1,0,0:0:0:0:
56,152,190352,1,0,0:0:0:0:
388,336,190461,5,0,0:0:0:0:
196,12,190570,1,0,0:0:0:0:
112,336,190678,1,0,0:0:0:0:
464,76,190787,5,0,0:0:0:0:
56,192,190896,1,0,0:0:0:0:
464,308,191004,5,0,0:0:0:0:
44,192,191113,1,0,0:0:0:0:
464,56,191222,5,0,0:0:0:0:
36,192,191331,1,0,0:0:0:0:
336,344,191439,5,0,0:0:0:0:
312,202,191547,5,0,0:0:0:0:
288,61,191656,5,0,0:0:0:0:
96,236,191765,1,0,0:0:0:0:
280,340,191874,1,0,0:0:0:0:
196,92,191983,5,0,0:0:0:0:
164,324,192091,1,0,0:0:0:0:
368,268,192200,1,0,0:0:0:0:
84,176,192309,5,0,0:0:0:0:
268,332,192417,1,0,0:0:0:0:
312,100,192526,1,0,0:0:0:0:
140,304,192635,1,0,0:0:0:0:
352,244,192744,1,0,0:0:0:0:
128,64,192852,5,0,0:0:0:0:
288,316,192961,1,0,0:0:0:0:
308,40,193070,5,0,0:0:0:0:
172,320,193178,1,0,0:0:0:0:
208,36,193287,5,0,0:0:0:0:
340,336,193396,1,0,0:0:0:0:
112,144,193504,1,0,0:0:0:0:
352,60,193613,1,0,0:0:0:0:
156,252,193722,5,0,0:0:0:0:
264,16,193831,1,0,0:0:0:0:
308,300,193939,1,0,0:0:0:0:
168,24,194048,1,0,0:0:0:0:
436,240,194157,1,0,0:0:0:0:
140,140,194265,5,0,0:0:0:0:
368,40,194374,1,0,0:0:0:0:
248,248,194483,1,0,0:0:0:0:
248,24,194591,1,0,0:0:0:0:
256,276,194700,1,0,0:0:0:0:
416,104,194809,5,0,0:0:0:0:
144,208,194917,1,0,0:0:0:0:
428,184,195026,1,0,0:0:0:0:
168,124,195135,5,0,0:0:0:0:
224,280,195244,1,0,0:0:0:0:
344,72,195352,5,0,0:0:0:0:
340,284,195461,1,0,0:0:0:0:
232,64,195570,5,0,0:0:0:0:
448,208,195678,1,0,0:0:0:0:
196,224,195787,1,0,0:0:0:0:
368,48,195896,1,0,0:0:0:0:
332,296,196004,1,0,0:0:0:0:
276,60,196113,5,0,0:0:0:0:
428,288,196222,1,0,0:0:0:0:
200,204,196331,1,0,0:0:0:0:
432,84,196439,1,0,0:0:0:0:
284,324,196548,1,0,0:0:0:0:
420,180,196657,5,0,0:0:0:0:
276,248,196765,1,0,0:0:0:0:
276,96,196874,1,0,0:0:0:0:
352,236,196983,1,0,0:0:0:0:
248,180,197091,1,0,0:0:0:0:
460,276,197200,5,0,0:0:0:0:
397,329,197308,1,0,0:0:0:0:
318,348,197417,1,0,0:0:0:0:
239,329,197526,1,0,0:0:0:0:
177,276,197634,1,0,0:0:0:0:
145,200,197743,1,0,0:0:0:0:
220,64,197852,5,0,0:0:0:0:
144,332,197961,1,0,0:0:0:0:
20,100,198070,1,0,0:0:0:0:
308,124,198178,1,0,0:0:0:0:
44,284,198287,1,0,0:0:0:0:
248,28,198396,5,0,0:0:0:0:
396,344,198504,1,0,0:0:0:0:
88,332,198613,1,0,0:0:0:0:
300,36,198722,5,0,0:0:0:0:
352,368,198831,1,0,0:0:0:0:
84,280,198939,1,0,0:0:0:0:
456,68,199048,5,0,0:0:0:0:
220,376,199157,1,0,0:0:0:0:
168,8,199265,1,0,0:0:0:0:
460,264,199374,1,0,0:0:0:0:
168,8,199483,5,0,0:0:0:0:
204,340,199591,1,0,0:0:0:0:
352,4,199700,1,0,0:0:0:0:
72,224,199809,1,0,0:0:0:0:
460,300,199917,1,0,0:0:0:0:
180,28,200026,1,0,0:0:0:0:
248,348,200135,1,0,0:0:0:0:
412,32,200244,1,0,0:0:0:0:
136,176,200352,5,0,0:0:0:0:
416,44,200461,1,0,0:0:0:0:
328,304,200570,1,0,0:0:0:0:
408,40,200678,1,0,0:0:0:0:
216,132,200787,1,0,0:0:0:0:
464,248,200896,1,0,0:0:0:0:
316,32,201004,5,0,0:0:0:0:
252,328,201113,1,0,0:0:0:0:
468,80,201222,1,0,0:0:0:0:
168,36,201331,1,0,0:0:0:0:
252,328,201439,1,0,0:0:0:0:
272,24,201548,1,0,0:0:0:0:
252,360,201657,1,0,0:0:0:0:
432,80,201765,5,0,0:0:0:0:
64,212,201874,1,0,0:0:0:0:
460,292,201983,1,0,0:0:0:0:
148,0,202091,1,0,0:0:0:0:
208,380,202200,1,0,0:0:0:0:
424,88,202309,1,0,0:0:0:0:
80,172,202417,1,0,0:0:0:0:
448,336,202526,5,0,0:0:0:0:
248,28,202635,1,0,0:0:0:0:
160,360,202744,1,0,0:0:0:0:
432,48,202852,1,0,0:0:0:0:
288,340,202961,5,0,0:0:0:0:
88,52,203070,1,0,0:0:0:0:
484,208,203178,1,0,0:0:0:0:
76,280,203287,1,0,0:0:0:0:
296,16,203396,1,0,0:0:0:0:
324,384,203504,1,0,0:0:0:0:
100,20,203613,5,0,0:0:0:0:
440,176,203722,1,0,0:0:0:0:
48,348,203831,1,0,0:0:0:0:
320,4,203939,1,0,0:0:0:0:
320,372,204048,1,0,0:0:0:0:
100,72,204157,1,0,0:0:0:0:
432,148,204265,1,0,0:0:0:0:
128,248,204374,5,0,0:0:0:0:
320,104,204483,1,0,0:0:0:0:
300,324,204591,1,0,0:0:0:0:
192,128,204700,1,0,0:0:0:0:
364,188,204809,1,0,0:0:0:0:
204,264,204917,5,0,0:0:0:0:
280,200,205026,1,0,0:0:0:0:
276,304,205135,1,0,0:0:0:0:
228,208,205244,1,0,0:0:0:0:
308,244,205352,1,0,0:0:0:0:
208,280,205461,5,0,0:0:0:0:
304,204,205570,1,0,0:0:0:0:
312,352,205678,1,0,0:0:0:0:
184,176,205787,1,0,0:0:0:0:
396,140,205896,1,0,0:0:0:0:
224,364,206004,5,0,0:0:0:0:
280,144,206113,1,0,0:0:0:0:
144,328,206222,5,0,0:0:0:0:
352,192,206331,1,0,0:0:0:0:
112,252,206439,5,0,0:0:0:0:
376,272,206548,1,0,0:0:0:0:
108,160,206657,5,0,0:0:0:0:
344,344,206765,1,0,0:0:0:0:
164,104,206874,5,0,0:0:0:0:
268,368,206983,1,0,0:0:0:0:
248,80,207091,5,0,0:0:0:0:
192,360,207200,1,0,0:0:0:0:
332,96,207309,5,0,0:0:0:0:
120,320,207417,1,0,0:0:0:0:
392,184,207526,5,0,0:0:0:0:
68,204,207635,1,0,0:0:0:0:
356,328,207744,1,0,0:0:0:0:
244,96,207852,1,0,0:0:0:0:
156,328,207961,1,0,0:0:0:0:
428,208,208070,5,0,0:0:0:0:
184,120,208178,1,0,0:0:0:0:
276,352,208287,1,0,0:0:0:0:
384,88,208396,5,0,0:0:0:0:
140,264,208504,1,0,0:0:0:0:
400,308,208613,1,0,0:0:0:0:
260,64,208722,5,0,0:0:0:0:
252,352,208831,1,0,0:0:0:0:
380,152,208939,1,0,0:0:0:0:
156,136,209048,1,0,0:0:0:0:
288,180,209157,5,0,0:0:0:0:
118,332,209265,1,0,0:0:0:0:
129,123,209374,1,0,0:0:0:0:
225,313,209483,1,0,0:0:0:0:
61,236,209591,1,0,0:0:0:0:
242,126,209700,5,0,0:0:0:0:
265,335,209809,1,0,0:0:0:0:
104,185,209917,1,0,0:0:0:0:
319,247,210026,1,0,0:0:0:0:
172,318,210135,1,0,0:0:0:0:
310,151,210244,5,0,0:0:0:0:
183,369,210352,1,0,0:0:0:0:
141,165,210461,5,0,0:0:0:0:
271,355,210570,1,0,0:0:0:0:
231,134,210678,1,0,0:0:0:0:
135,349,210787,1,0,0:0:0:0:
356,281,210896,1,0,0:0:0:0:
95,163,211004,1,0,0:0:0:0:
279,361,211113,5,0,0:0:0:0:
296,160,211222,1,0,0:0:0:0:
112,304,211331,1,0,0:0:0:0:
350,327,211439,5,0,0:0:0:0:
194,129,211548,1,0,0:0:0:0:
180,372,211657,1,0,0:0:0:0:
367,250,211765,1,0,0:0:0:0:
107,301,211874,1,0,0:0:0:0:
316,191,211983,5,0,0:0:0:0:
73,185,212091,1,0,0:0:0:0:
299,259,212200,5,0,0:0:0:0:
93,123,212309,1,0,0:0:0:0:
225,296,212417,5,0,0:0:0:0:
155,117,212526,1,0,0:0:0:0:
152,287,212635,5,0,0:0:0:0:
245,126,212744,1,0,0:0:0:0:
124,225,212852,5,0,0:0:0:0:
282,191,212961,1,0,0:0:0:0:
135,157,213070,5,0,0:0:0:0:
262,245,213178,1,0,0:0:0:0:
203,151,213287,5,0,0:0:0:0:
197,259,213396,1,0,0:0:0:0:
237,188,213504,5,0,0:0:0:0:
163,222,213613,1,0,0:0:0:0:
282,253,213722,5,0,0:0:0:0:
169,228,213831,1,0,0:0:0:0:
324,134,213939,5,0,0:0:0:0:
160,216,214048,1,0,0:0:0:0:
361,287,214157,5,0,0:0:0:0:
149,216,214265,1,0,0:0:0:0:
387,146,214374,5,0,0:0:0:0:
129,219,214483,1,0,0:0:0:0:
395,298,214591,5,0,0:0:0:0:
217,132,214700,1,0,0:0:0:0:
231,338,214809,1,0,0:0:0:0:
378,202,214917,1,0,0:0:0:0:
127,267,215026,1,0,0:0:0:0:
339,378,215135,1,0,0:0:0:0:
240,120,215244,5,0,0:0:0:0:
180,338,215352,1,0,0:0:0:0:
395,264,215461,1,0,0:0:0:0:
107,191,215570,5,0,0:0:0:0:
308,321,215678,1,0,0:0:0:0:
248,88,215787,1,0,0:0:0:0:
104,324,215896,1,0,0:0:0:0:
400,272,216004,1,0,0:0:0:0:
176,88,216113,1,0,0:0:0:0:
224,352,216222,1,0,0:0:0:0:
348,80,216330,5,0,0:0:0:0:
68,228,216439,1,0,0:0:0:0:
400,328,216548,1,0,0:0:0:0:
196,72,216657,1,0,0:0:0:0:
288,364,216765,1,0,0:0:0:0:
460,64,216874,5,0,0:0:0:0:
192,248,216983,1,0,0:0:0:0:
496,236,217091,1,0,0:0:0:0:
256,44,217200,1,0,0:0:0:0:
332,332,217309,1,0,0:0:0:0:
400,52,217417,1,0,0:0:0:0:
192,256,217526,1,0,0:0:0:0:
496,152,217635,1,0,0:0:0:0:
176,44,217744,5,0,0:0:0:0:
296,296,217852,1,0,0:0:0:0:
392,24,217961,1,0,0:0:0:0:
160,216,218070,1,0,0:0:0:0:
472,176,218178,1,0,0:0:0:0:
188,68,218287,1,0,0:0:0:0:
236,312,218396,1,0,0:0:0:0:
320,52,218504,1,0,0:0:0:0:
76,164,218613,5,0,0:0:0:0:
352,256,218722,1,0,0:0:0:0:
176,56,218830,1,0,0:0:0:0:
120,344,218939,1,0,0:0:0:0:
312,112,219048,1,0,0:0:0:0:
48,184,219157,1,0,0:0:0:0:
288,328,219265,1,0,0:0:0:0:
160,84,219374,1,0,0:0:0:0:
172,340,219483,5,0,0:0:0:0:
368,184,219591,1,0,0:0:0:0:
56,252,219700,1,0,0:0:0:0:
352,312,219809,1,0,0:0:0:0:
260,56,219917,1,0,0:0:0:0:
200,348,220026,1,0,0:0:0:0:
408,100,220135,1,0,0:0:0:0:
96,192,220244,1,0,0:0:0:0:
472,260,220352,5,0,0:0:0:0:
264,104,220461,1,0,0:0:0:0:
280,352,220570,1,0,0:0:0:0:
464,148,220678,1,0,0:0:0:0:
188,232,220787,1,0,0:0:0:0:
440,304,220896,1,0,0:0:0:0:
120,104,221004,1,0,0:0:0:0:
140,352,221113,1,0,0:0:0:0:
332,172,221222,5,0,0:0:0:0:
60,200,221330,1,0,0:0:0:0:
368,320,221439,1,0,0:0:0:0:
224,28,221548,1,0,0:0:0:0:
248,356,221657,1,0,0:0:0:0:
456,108,221765,1,0,0:0:0:0:
100,160,221874,1,0,0:0:0:0:
404,336,221983,1,0,0:0:0:0:
364,28,222091,1,0,0:0:0:0:
268,308,222200,1,0,0:0:0:0:
484,108,222309,5,0,0:0:0:0:
268,44,222417,1,0,0:0:0:0:
200,248,222526,1,0,0:0:0:0:
424,324,222635,1,0,0:0:0:0:
470,233,222744,5,0,0:0:0:0:
324,104,222852,1,0,0:0:0:0:
336,376,222961,1,0,0:0:0:0:
476,104,223070,5,0,0:0:0:0:
216,292,223178,1,0,0:0:0:0:
508,336,223287,1,0,0:0:0:0:
240,112,223396,1,0,0:0:0:0:
340,280,223504,5,0,0:0:0:0:
356,27,223613,1,0,0:0:0:0:
132,187,223722,1,0,0:0:0:0:
432,136,223831,1,0,0:0:0:0:
204,8,223939,1,0,0:0:0:0:
310,288,224048,5,0,0:0:0:0:
219,27,224157,1,0,0:0:0:0:
104,316,224265,1,0,0:0:0:0:
24,76,224374,1,0,0:0:0:0:
340,192,224483,1,0,0:0:0:0:
8,40,224591,1,0,0:0:0:0:
251,278,224700,5,0,0:0:0:0:
187,18,224809,1,0,0:0:0:0:
63,256,224917,1,0,0:0:0:0:
320,84,225026,1,0,0:0:0:0:
420,288,225135,5,0,0:0:0:0:
268,36,225243,1,0,0:0:0:0:
232,328,225352,1,0,0:0:0:0:
436,124,225461,5,0,0:0:0:0:
132,148,225570,1,0,0:0:0:0:
352,340,225678,1,0,0:0:0:0:
328,36,225787,5,0,0:0:0:0:
168,252,225896,1,0,0:0:0:0:
420,304,226004,1,0,0:0:0:0:
236,52,226113,5,0,0:0:0:0:
284,336,226222,1,0,0:0:0:0:
440,88,226330,1,0,0:0:0:0:
172,200,226439,1,0,0:0:0:0:
408,284,226548,1,0,0:0:0:0:
296,80,226657,5,0,0:0:0:0:
176,279,226765,1,0,0:0:0:0:
100,60,226874,1,0,0:0:0:0:
239,309,226983,5,0,0:0:0:0:
180,30,227091,1,0,0:0:0:0:
87,259,227200,5,0,0:0:0:0:
323,207,227309,1,0,0:0:0:0:
87,30,227417,5,0,0:0:0:0:
171,283,227526,1,0,0:0:0:0:
323,26,227635,5,0,0:0:0:0:
62,115,227743,1,0,0:0:0:0:
415,131,227852,5,0,0:0:0:0:
154,221,227960,1,0,0:0:0:0:
511,250,228070,5,0,0:0:0:0:
251,339,228178,1,0,0:0:0:0:
403,111,228287,5,0,0:0:0:0:
437,342,228396,1,0,0:0:0:0:
289,74,228504,5,0,0:0:0:0:
323,305,228613,1,0,0:0:0:0:
175,35,228722,5,0,0:0:0:0:
209,267,228831,1,0,0:0:0:0:
20,119,228939,5,0,0:0:0:0:
288,96,229048,1,0,0:0:0:0:
84,235,229157,1,0,0:0:0:0:
147,27,229265,1,0,0:0:0:0:
264,220,229374,1,0,0:0:0:0:
108,347,229483,5,0,0:0:0:0:
192,119,229591,1,0,0:0:0:0:
383,188,229700,1,0,0:0:0:0:
312,384,229809,1,0,0:0:0:0:
103,220,229917,5,0,0:0:0:0:
344,84,230026,1,0,0:0:0:0:
224,335,230135,1,0,0:0:0:0:
232,20,230243,1,0,0:0:0:0:
220,332,230352,1,0,0:0:0:0:
96,32,230461,5,0,0:0:0:0:
324,224,230570,1,0,0:0:0:0:
80,328,230678,1,0,0:0:0:0:
272,84,230787,5,0,0:0:0:0:
204,332,230896,1,0,0:0:0:0:
28,144,231004,1,0,0:0:0:0:
396,128,231113,5,0,0:0:0:0:
4,324,231222,1,0,0:0:0:0:
176,24,231330,1,0,0:0:0:0:
332,328,231439,1,0,0:0:0:0:
24,72,231548,5,0,0:0:0:0:
360,72,231657,1,0,0:0:0:0:
184,376,231765,1,0,0:0:0:0:
104,24,231874,5,0,0:0:0:0:
384,368,231983,1,0,0:0:0:0:
400,4,232091,1,0,0:0:0:0:
92,280,232200,1,0,0:0:0:0:
448,292,232309,1,0,0:0:0:0:
176,0,232417,1,0,0:0:0:0:
256,384,232526,1,0,0:0:0:0:
432,36,232635,1,0,0:0:0:0:
64,136,232743,5,0,0:0:0:0:
436,372,232852,1,0,0:0:0:0:
308,0,232961,1,0,0:0:0:0:
128,376,233070,1,0,0:0:0:0:
472,184,233178,1,0,0:0:0:0:
100,0,233287,5,0,0:0:0:0:
344,288,233358,5,0,0:0:0:0:
384,128,233575,2,0,L|368:180,1,55
412,36,234011,1,0,0:0:0:0:
344,288,234228,1,0,0:0:0:0:
384,128,234663,2,0,L|364:192,1,41.2500015735627
