osu file format v14

[General]
AudioFilename: audio.mp3
AudioLeadIn: 0
PreviewTime: 39046
Countdown: 0
SampleSet: Normal
StackLeniency: 0.2
Mode: 0
LetterboxInBreaks: 0
WidescreenStoryboard: 1

[Editor]
Bookmarks: 80333,177724,198376,205550,233376
DistanceSpacing: 1.3
BeatDivisor: 4
GridSize: 32
TimelineZoom: 1.500001

[Metadata]
Title:A FOOL MOON NIGHT
TitleUnicode:A FOOL MOON NIGHT
Artist:The Koxx
ArtistUnicode:칵스
Creator:Astar
Version:Friendofox's Galaxy
Source:
Tags:piggey overjoy a_kochav [_emillia_] [ emillia ] friendofox naoka firedigger silverboxer
BeatmapID:1134237
BeatmapSetID:524026

[Difficulty]
HPDrainRate:3.4
CircleSize:4
OverallDifficulty:9.6
ApproachRate:10
SliderMultiplier:2.2
SliderTickRate:1

[Events]
//Background and Video events
0,0,"1474291154383.jpg",0,0
//Break Periods
2,108347,119812
//Storyboard Layer 0 (Background)
//Storyboard Layer 1 (Fail)
//Storyboard Layer 2 (Pass)
//Storyboard Layer 3 (Foreground)
//Storyboard Sound Samples

[TimingPoints]
321,434.782608695652,4,1,0,30,1,0
38612,434.782608695652,4,1,0,60,1,0
45567,434.782608695652,4,1,0,60,1,0
53387,434.782608695652,4,1,0,80,1,0
54256,434.782608695652,4,1,0,80,1,0
80234,-50,4,1,0,30,0,1
120337,434.782608695652,4,1,0,100,1,0
120342,-100,4,1,0,30,0,0
135981,434.782608695652,4,1,0,100,1,0
149921,434.782608695652,4,1,0,100,1,0
156850,434.782608695652,4,1,0,75,1,0
163819,434.782608695652,4,1,0,75,1,0
177744,-35,4,1,0,30,0,1
224688,-20,4,1,0,30,0,1
231222,434.782608695652,4,1,0,100,1,1
233358,434.782608695652,4,1,0,100,1,0
233358,-133.333333333333,4,1,0,30,0,1

[HitObjects]
0,32,3581,5,0,0:0:0:0:
16,16,3690,1,0,0:0:0:0:
32,0,3799,1,0,0:0:0:0:
464,272,7060,6,0,L|400:240,2,55
128,288,10538,1,0,0:0:0:0:
160,304,10647,1,0,0:0:0:0:
192,288,10755,5,0,0:0:0:0:
416,80,11625,1,0,0:0:0:0:
112,112,12494,5,0,0:0:0:0:
400,240,13364,1,0,0:0:0:0:
96,192,14234,5,0,0:0:0:0:
216,284,14668,2,0,B|274:273|304:303|304:303|347:286|347:286|411:312|435:284|435:284,1,220
208,48,15973,1,0,0:0:0:0:
448,256,16842,5,0,0:0:0:0:
368,176,17114,1,0,0:0:0:0:
320,272,17440,1,0,0:0:0:0:
224,240,17712,5,0,0:0:0:0:
320,176,17929,1,0,0:0:0:0:
272,272,18147,1,0,0:0:0:0:
272,160,18364,1,0,0:0:0:0:
304,224,18581,5,0,0:0:0:0:
240,128,18799,1,0,0:0:0:0:
336,176,19016,1,0,0:0:0:0:
224,176,19234,1,0,0:0:0:0:
288,144,19451,5,0,0:0:0:0:
192,208,19668,1,0,0:0:0:0:
240,112,19886,1,0,0:0:0:0:
240,224,20103,1,0,0:0:0:0:
208,160,20320,5,0,0:0:0:0:
272,256,20538,1,0,0:0:0:0:
176,208,20755,1,0,0:0:0:0:
288,208,20973,1,0,0:0:0:0:
176,144,21190,5,0,0:0:0:0:
144,272,21407,1,0,0:0:0:0:
256,192,21625,1,0,0:0:0:0:
128,192,21842,1,0,0:0:0:0:
336,240,22060,5,0,0:0:0:0:
368,112,22277,1,0,0:0:0:0:
256,192,22494,1,0,0:0:0:0:
384,192,22712,1,0,0:0:0:0:
256,192,22929,1,0,0:0:0:0:
112,320,23799,5,0,0:0:0:0:
240,288,24016,1,0,0:0:0:0:
240,288,24125,1,0,0:0:0:0:
240,288,24234,1,0,0:0:0:0:
208,192,24668,5,0,0:0:0:0:
368,192,24886,1,0,0:0:0:0:
224,112,25103,2,0,P|160:112|128:192,1,110
192,288,25538,1,0,0:0:0:0:
352,256,25755,1,0,0:0:0:0:
192,192,25973,2,0,B|240:176|240:144|288:128,1,110
448,112,26407,6,0,B|448:144|464:176|416:224,1,110
272,272,26842,2,0,B|272:240|256:208|304:160,1,110
64,272,27277,2,0,B|64:240|48:208|96:160,1,110
240,112,27712,2,0,B|240:144|256:176|208:224,1,110
368,272,28147,5,0,0:0:0:0:
272,144,28364,1,0,0:0:0:0:
320,352,28581,1,0,0:0:0:0:
352,192,28799,1,0,0:0:0:0:
336,80,29016,5,0,0:0:0:0:
208,176,29234,1,0,0:0:0:0:
416,128,29451,1,0,0:0:0:0:
256,96,29668,1,0,0:0:0:0:
144,112,29886,5,0,0:0:0:0:
240,240,30103,1,0,0:0:0:0:
192,32,30320,1,0,0:0:0:0:
160,192,30538,1,0,0:0:0:0:
176,304,30755,5,0,0:0:0:0:
304,208,30973,1,0,0:0:0:0:
96,256,31190,1,0,0:0:0:0:
256,288,31407,1,0,0:0:0:0:
416,320,31625,5,0,0:0:0:0:
304,192,31842,2,0,B|336:208|400:208|432:176,1,110
336,64,32277,1,0,0:0:0:0:
192,144,32494,2,0,B|176:192|144:176|144:176|112:224,1,110
320,144,32929,2,0,B|336:192|368:176|368:176|400:224,1,110
256,304,33364,5,0,0:0:0:0:
128,208,33581,1,0,0:0:0:0:
128,208,33690,1,0,0:0:0:0:
128,208,33799,1,0,0:0:0:0:
208,64,34016,1,0,0:0:0:0:
336,176,34234,2,0,B|368:192|400:176|448:192,1,110
304,272,34668,2,0,B|272:288|240:272|192:288,1,110
128,128,35103,5,0,0:0:0:0:
176,288,35320,2,0,P|224:320|288:320,1,110
432,288,35755,1,0,0:0:0:0:
192,320,35973,5,0,0:0:0:0:
352,272,36190,2,0,P|384:224|384:160,1,110
352,16,36625,1,0,0:0:0:0:
384,256,36842,5,0,0:0:0:0:
336,96,37060,2,0,P|288:64|224:64,1,110
80,96,37494,1,0,0:0:0:0:
320,64,37712,5,0,0:0:0:0:
160,112,37929,2,0,P|128:160|128:224,1,110
160,368,38364,1,0,0:0:0:0:
256,224,38581,6,0,B|240:208|240:208|272:192|272:192|256:176|240:160|240:160|272:144|272:144|240:128|256:96|256:96|256:64,1,220
160,240,39288,2,0,B|128:224|96:192|48:176,1,110
352,240,39668,2,0,B|384:224|416:192|464:176,1,110
256,48,40375,6,0,B|224:96|288:96|240:144|272:144|240:160|240:160|272:160|272:160|256:176|256:176|256:208|256:224,1,220
96,176,41027,2,0,P|128:224|192:256,1,110
416,176,41462,2,0,P|384:224|320:256,1,110
256,336,42114,6,0,B|240:304|240:304|224:336|224:336|208:304|192:320|192:304|192:304|160:304|160:304|176:288|176:288|128:288,1,220
288,224,42766,2,0,B|320:208|320:192|384:160,1,110
208,144,43201,2,0,B|240:160|240:176|304:208,1,110
256,336,43853,6,0,B|272:304|272:304|288:336|288:336|304:304|320:320|320:304|320:304|352:304|352:304|336:288|336:288|384:288,1,220
224,224,44505,2,0,B|192:208|192:192|128:160,1,110
304,144,44940,2,0,B|272:160|272:176|208:208,1,110
208,144,45538,5,0,0:0:0:0:
320,256,45755,1,0,0:0:0:0:
320,96,45973,1,0,0:0:0:0:
224,240,46190,1,0,0:0:0:0:
384,192,46407,1,0,0:0:0:0:
224,160,46625,1,0,0:0:0:0:
336,272,46842,1,0,0:0:0:0:
304,112,47060,1,0,0:0:0:0:
304,240,47277,5,0,0:0:0:0:
192,128,47494,1,0,0:0:0:0:
192,288,47712,1,0,0:0:0:0:
288,144,47929,1,0,0:0:0:0:
128,192,48147,1,0,0:0:0:0:
288,224,48364,1,0,0:0:0:0:
176,112,48581,1,0,0:0:0:0:
208,272,48799,1,0,0:0:0:0:
304,144,49016,6,0,B|336:176|384:160|384:160|400:192,1,110
208,144,49451,2,0,B|176:176|128:160|128:160|112:192,1,110
304,240,49886,2,0,B|336:208|384:224|384:224|400:192,1,110
208,240,50320,2,0,B|176:208|128:224|128:224|112:192,1,110
32,352,50755,1,0,0:0:0:0:
448,32,51625,5,0,0:0:0:0:
304,112,51842,1,0,0:0:0:0:
304,112,51951,1,0,0:0:0:0:
304,112,52060,1,0,0:0:0:0:
448,32,52494,5,0,0:0:0:0:
304,112,52929,1,0,0:0:0:0:
256,256,53364,5,0,0:0:0:0:
96,224,53581,1,0,0:0:0:0:
96,224,53690,1,0,0:0:0:0:
96,224,53799,1,0,0:0:0:0:
224,128,54016,1,0,0:0:0:0:
352,224,54234,6,0,B|384:240|416:224|448:272,1,110
288,320,54668,2,0,B|272:288|288:256|240:224,1,110
80,288,55103,1,0,0:0:0:0:
144,128,55320,1,0,0:0:0:0:
272,224,55538,1,0,0:0:0:0:
368,96,55755,1,0,0:0:0:0:
272,224,55973,5,0,0:0:0:0:
208,80,56190,1,0,0:0:0:0:
208,80,56299,1,0,0:0:0:0:
208,80,56407,1,0,0:0:0:0:
272,224,56625,1,0,0:0:0:0:
112,240,56842,5,0,0:0:0:0:
256,144,57060,1,0,0:0:0:0:
192,288,57277,1,0,0:0:0:0:
176,128,57494,1,0,0:0:0:0:
336,80,57712,6,0,B|320:128|384:112|384:112|384:144,1,110
336,304,58147,2,0,B|320:256|384:272|384:272|384:240,1,110
176,80,58581,2,0,B|192:128|128:112|128:112|128:144,1,110
176,304,59016,2,0,B|192:256|128:272|128:272|128:240,1,110
224,112,59451,5,0,0:0:0:0:
368,208,59668,1,0,0:0:0:0:
368,208,59777,1,0,0:0:0:0:
368,208,59886,1,0,0:0:0:0:
224,304,60103,1,0,0:0:0:0:
368,208,60320,2,0,B|368:160|336:128|384:80,1,110
368,207,60755,2,0,B|325:185|282:198|262:133,1,110
144,64,61190,6,0,B|128:112|160:128|160:128|128:192,1,110
48,304,61625,1,0,0:0:0:0:
208,256,61842,1,0,0:0:0:0:
368,320,62060,6,0,B|384:272|352:256|352:256|384:192,1,110
464,80,62494,1,0,0:0:0:0:
304,128,62712,1,0,0:0:0:0:
192,256,62929,5,0,0:0:0:0:
304,128,63147,1,0,0:0:0:0:
272,288,63364,1,0,0:0:0:0:
224,128,63581,1,0,0:0:0:0:
336,240,63799,1,0,0:0:0:0:
176,192,64016,1,0,0:0:0:0:
336,160,64234,1,0,0:0:0:0:
208,272,64451,1,0,0:0:0:0:
272,96,64668,5,0,0:0:0:0:
288,288,64886,1,0,0:0:0:0:
192,128,65103,1,0,0:0:0:0:
352,224,65320,1,0,0:0:0:0:
160,208,65538,5,0,0:0:0:0:
128,224,65647,1,0,0:0:0:0:
96,256,65755,1,0,0:0:0:0:
80,288,65864,1,0,0:0:0:0:
112,272,65973,1,0,0:0:0:0:
144,272,66081,1,0,0:0:0:0:
176,288,66190,1,0,0:0:0:0:
208,304,66299,1,0,0:0:0:0:
240,320,66407,6,0,P|336:320|400:288,1,165
336,240,66842,2,0,P|400:192|432:128,1,110
336,144,67277,2,0,P|368:96|368:32,1,110
288,64,67712,2,0,P|240:128|192:160,1,110
272,320,68147,6,0,P|176:320|112:288,1,165
176,240,68581,2,0,P|112:192|80:128,1,110
176,144,69016,2,0,P|144:96|144:32,1,110
224,64,69451,2,0,P|272:128|320:160,1,110
208,288,69886,5,0,0:0:0:0:
246,284,69994,1,0,0:0:0:0:
283,293,70103,1,0,0:0:0:0:
314,315,70212,1,0,0:0:0:0:
352,318,70320,1,0,0:0:0:0:
386,299,70429,1,0,0:0:0:0:
412,270,70538,1,0,0:0:0:0:
426,234,70647,1,0,0:0:0:0:
431,196,70755,5,0,0:0:0:0:
427,157,70864,1,0,0:0:0:0:
414,120,70973,1,0,0:0:0:0:
388,91,71081,1,0,0:0:0:0:
353,72,71190,1,0,0:0:0:0:
314,72,71299,1,0,0:0:0:0:
277,84,71407,1,0,0:0:0:0:
251,112,71516,1,0,0:0:0:0:
283,132,71625,5,0,0:0:0:0:
311,158,71734,1,0,0:0:0:0:
329,191,71842,1,0,0:0:0:0:
329,229,71951,1,0,0:0:0:0:
311,263,72060,1,0,0:0:0:0:
275,276,72168,1,0,0:0:0:0:
236,273,72277,1,0,0:0:0:0:
200,258,72386,1,0,0:0:0:0:
175,228,72494,5,0,0:0:0:0:
164,190,72603,1,0,0:0:0:0:
165,151,72712,1,0,0:0:0:0:
180,115,72820,1,0,0:0:0:0:
212,94,72929,1,0,0:0:0:0:
250,89,73038,1,0,0:0:0:0:
287,99,73147,1,0,0:0:0:0:
321,115,73255,1,0,0:0:0:0:
352,144,73364,6,0,B|400:192|432:240|432:240|432:288,1,165
352,256,73799,2,0,L|256:144,1,110
208,208,74234,2,0,L|288:304,1,110
192,320,74668,2,0,L|112:224,1,110
160,240,75103,6,0,B|112:192|80:144|80:144|80:96,1,165
160,128,75538,2,0,L|256:240,1,110
304,176,75973,2,0,L|224:80,1,110
320,64,76407,2,0,L|400:160,1,110
256,256,76842,5,0,0:0:0:0:
224,240,76951,1,0,0:0:0:0:
196,212,77060,1,0,0:0:0:0:
181,176,77168,1,0,0:0:0:0:
175,137,77277,1,0,0:0:0:0:
182,99,77386,1,0,0:0:0:0:
203,67,77494,1,0,0:0:0:0:
236,47,77603,1,0,0:0:0:0:
228,84,77712,5,0,0:0:0:0:
233,121,77820,1,0,0:0:0:0:
250,155,77929,1,0,0:0:0:0:
276,182,78038,1,0,0:0:0:0:
312,195,78147,1,0,0:0:0:0:
350,196,78255,1,0,0:0:0:0:
386,183,78364,1,0,0:0:0:0:
415,158,78473,1,0,0:0:0:0:
419,196,78581,5,0,0:0:0:0:
376,303,78907,1,0,0:0:0:0:
301,214,79234,1,0,0:0:0:0:
301,214,79451,2,0,B|268:233|251:215|251:215|211:258|165:217|165:217|131:257|93:246,1,220
149,143,80320,5,0,0:0:0:0:
288,227,80429,1,0,0:0:0:0:
223,74,80538,1,0,0:0:0:0:
191,236,80647,1,0,0:0:0:0:
308,121,80755,2,0,B|323:106|347:109|352:73|352:73|405:73|419:50|419:50|435:57,1,110
340,226,80973,2,0,B|325:241|301:238|296:274|296:274|243:274|229:297|229:297|213:290,1,110
97,228,81190,5,0,0:0:0:0:
235,317,81299,1,0,0:0:0:0:
71,315,81407,1,0,0:0:0:0:
211,227,81516,1,0,0:0:0:0:
82,122,81625,2,0,B|82:112|66:102|51:108|43:85|43:85|13:80|0:49,1,110
167,54,81842,2,0,B|167:64|183:74|198:68|206:91|206:91|236:96|249:127,1,110
323,270,82060,5,0,0:0:0:0:
283,110,82168,1,0,0:0:0:0:
323,270,82277,1,0,0:0:0:0:
283,110,82386,1,0,0:0:0:0:
400,223,82494,1,0,0:0:0:0:
239,184,82603,1,0,0:0:0:0:
400,223,82712,1,0,0:0:0:0:
239,184,82820,1,0,0:0:0:0:
389,115,82929,6,0,B|401:84|456:62|456:62|475:7|479:11,1,110
123,269,83147,2,0,B|111:300|56:322|56:322|37:377|33:373,1,110
299,129,83364,2,0,B|302:95|349:60|349:60|354:2|359:5,1,110
213,255,83581,2,0,B|209:288|162:323|162:323|157:381|152:378,1,110
116,184,83799,5,0,0:0:0:0:
253,95,83907,1,0,0:0:0:0:
131,207,84016,1,0,0:0:0:0:
237,80,84125,1,0,0:0:0:0:
152,220,84234,2,0,B|141:266|144:280|155:296|155:296|128:334,1,110
285,245,84451,2,0,B|296:199|293:185|282:169|282:169|309:131,1,110
420,257,84668,5,0,0:0:0:0:
370,99,84777,1,0,0:0:0:0:
399,261,84886,1,0,0:0:0:0:
393,97,84994,1,0,0:0:0:0:
371,261,85103,2,0,B|334:290|325:323|325:323|297:332|235:341,1,110
283,165,85320,2,0,B|246:136|237:103|237:103|209:94|147:85,1,110
112,233,85538,5,0,0:0:0:0:
276,254,85647,1,0,0:0:0:0:
119,206,85755,1,0,0:0:0:0:
269,275,85864,1,0,0:0:0:0:
134,179,85973,2,0,B|173:177|204:171|204:171|225:190|268:189,1,110
381,102,86190,2,0,B|342:100|311:94|311:94|290:113|247:112,1,110
350,257,86407,5,0,0:0:0:0:
241,132,86516,1,0,0:0:0:0:
334,268,86625,1,0,0:0:0:0:
263,119,86734,1,0,0:0:0:0:
309,277,86842,1,0,0:0:0:0:
291,112,86951,1,0,0:0:0:0:
279,277,87060,1,0,0:0:0:0:
322,118,87168,1,0,0:0:0:0:
256,270,87277,6,0,B|217:285|232:319|232:319|188:362,1,110
90,227,87494,2,0,B|128:211|113:177|113:177|157:134,1,110
256,270,87712,2,0,B|294:285|279:319|279:319|323:362,1,110
422,227,87929,2,0,B|383:211|398:177|398:177|354:134,1,110
256,114,88147,6,0,B|294:98|279:64|279:64|323:21,1,110
422,157,88364,2,0,B|383:172|398:206|398:206|354:249,1,110
256,114,88581,2,0,B|217:98|232:64|232:64|188:21,1,110
90,157,88799,2,0,B|128:172|113:206|113:206|157:249,1,110
295,311,89016,6,0,B|346:279|346:279|391:256|391:256|408:248,1,110
375,153,89234,2,0,B|343:102|343:102|320:57|320:57|312:40,1,110
217,73,89451,2,0,B|166:105|166:105|121:128|121:128|104:136,1,110
137,231,89668,2,0,B|169:282|169:282|192:327|192:327|200:344,1,110
295,311,89886,6,0,B|335:265|335:265|391:256|391:256|408:248,1,110
375,153,90103,2,0,B|329:113|329:113|320:57|320:57|312:40,1,110
217,73,90320,2,0,B|177:119|177:119|121:128|121:128|104:136,1,110
137,231,90538,2,0,B|183:271|183:271|192:327|192:327|200:344,1,110
179,154,90755,5,0,0:0:0:0:
256,300,90864,1,0,0:0:0:0:
212,140,90973,5,0,0:0:0:0:
286,286,91081,1,0,0:0:0:0:
244,125,91190,5,0,0:0:0:0:
324,269,91299,1,0,0:0:0:0:
274,112,91407,5,0,0:0:0:0:
358,254,91516,1,0,0:0:0:0:
373,89,91625,5,0,0:0:0:0:
330,247,91734,1,0,0:0:0:0:
300,84,91842,5,0,0:0:0:0:
251,242,91951,1,0,0:0:0:0:
226,78,92060,5,0,0:0:0:0:
170,232,92168,1,0,0:0:0:0:
155,67,92277,5,0,0:0:0:0:
93,220,92386,1,0,0:0:0:0:
243,154,92494,5,0,0:0:0:0:
77,164,92603,1,0,0:0:0:0:
230,102,92712,1,0,0:0:0:0:
93,220,92820,1,0,0:0:0:0:
258,214,92929,1,0,0:0:0:0:
113,132,93038,1,0,0:0:0:0:
275,164,93147,1,0,0:0:0:0:
136,252,93255,1,0,0:0:0:0:
297,289,93364,6,0,B|331:282|342:263|342:263|405:244,1,110
215,95,93581,2,0,B|181:102|170:121|170:121|107:140,1,110
159,233,93799,2,0,B|166:267|185:278|185:278|204:341,1,110
353,151,94016,1,0,0:0:0:0:
310,51,94125,1,0,0:0:0:0:
286,215,94234,5,0,0:0:0:0:
432,138,94342,1,0,0:0:0:0:
266,130,94451,1,0,0:0:0:0:
371,257,94560,1,0,0:0:0:0:
351,94,94668,1,0,0:0:0:0:
212,184,94777,1,0,0:0:0:0:
376,168,94886,1,0,0:0:0:0:
238,79,94994,1,0,0:0:0:0:
281,238,95103,5,0,0:0:0:0:
296,73,95212,1,0,0:0:0:0:
140,124,95320,1,0,0:0:0:0:
299,167,95429,1,0,0:0:0:0:
187,44,95538,1,0,0:0:0:0:
183,209,95647,1,0,0:0:0:0:
243,56,95755,1,0,0:0:0:0:
113,159,95864,1,0,0:0:0:0:
273,118,95973,6,0,B|316:115|316:115|351:107|351:107|389:134,1,110
239,118,96190,2,0,B|196:115|196:115|161:107|161:107|123:134,1,110
281,202,96407,2,0,B|326:192|378:206|378:206|438:227,1,110
231,202,96625,2,0,B|186:192|134:206|134:206|74:227,1,110
95,46,96842,6,0,B|124:79|124:79|155:61|155:61|212:112,1,110
417,46,97060,2,0,B|388:79|388:79|357:61|357:61|300:112,1,110
95,338,97277,2,0,B|124:305|124:305|155:323|155:323|212:272,1,110
417,338,97494,2,0,B|388:305|388:305|357:323|357:323|300:272,1,110
192,215,97712,5,0,0:0:0:0:
354,233,97820,1,0,0:0:0:0:
224,129,97929,1,0,0:0:0:0:
280,284,98038,1,0,0:0:0:0:
192,169,98147,5,0,0:0:0:0:
354,151,98255,1,0,0:0:0:0:
224,255,98364,1,0,0:0:0:0:
280,100,98473,1,0,0:0:0:0:
320,169,98581,5,0,0:0:0:0:
158,151,98690,1,0,0:0:0:0:
288,255,98799,1,0,0:0:0:0:
232,100,98907,1,0,0:0:0:0:
320,215,99016,5,0,0:0:0:0:
158,233,99125,1,0,0:0:0:0:
288,129,99234,1,0,0:0:0:0:
232,284,99342,1,0,0:0:0:0:
192,123,99451,6,0,B|215:61|209:73|209:73|273:37,1,110
187,256,99668,2,0,B|125:233|137:239|137:239|101:175,1,110
320,261,99886,2,0,B|297:323|303:311|303:311|239:347,1,110
325,128,100103,2,0,B|387:151|375:145|375:145|411:209,1,110
169,47,100320,6,0,B|113:67|113:67|91:123,1,110
343,337,100538,2,0,B|399:317|399:317|421:261,1,110
235,145,100755,1,0,0:0:0:0:
440,226,100864,1,0,0:0:0:0:
290,63,100973,1,0,0:0:0:0:
354,271,101081,1,0,0:0:0:0:
195,117,101190,5,0,0:0:0:0:
332,289,101299,1,0,0:0:0:0:
223,99,101407,5,0,0:0:0:0:
300,305,101516,1,0,0:0:0:0:
255,88,101625,5,0,0:0:0:0:
265,306,101734,1,0,0:0:0:0:
295,87,101842,5,0,0:0:0:0:
230,297,101951,1,0,0:0:0:0:
329,99,102060,5,0,0:0:0:0:
195,272,102168,1,0,0:0:0:0:
358,123,102277,5,0,0:0:0:0:
168,236,102386,1,0,0:0:0:0:
372,158,102494,5,0,0:0:0:0:
156,205,102603,1,0,0:0:0:0:
376,193,102712,5,0,0:0:0:0:
159,165,102820,1,0,0:0:0:0:
372,222,102929,5,0,0:0:0:0:
171,130,103038,1,0,0:0:0:0:
355,251,103147,5,0,0:0:0:0:
194,102,103255,1,0,0:0:0:0:
335,271,103364,5,0,0:0:0:0:
223,80,103473,1,0,0:0:0:0:
302,283,103581,5,0,0:0:0:0:
260,66,103690,1,0,0:0:0:0:
263,286,103799,5,0,0:0:0:0:
298,70,103907,1,0,0:0:0:0:
228,279,104016,5,0,0:0:0:0:
329,83,104125,1,0,0:0:0:0:
196,256,104234,5,0,0:0:0:0:
357,105,104342,1,0,0:0:0:0:
173,228,104451,5,0,0:0:0:0:
373,135,104560,1,0,0:0:0:0:
160,188,104668,6,0,B|146:171|146:171|104:197|39:162,1,110
352,196,104886,6,0,B|366:213|366:213|408:187|473:222,1,110
164,163,105103,6,0,B|155:143|155:143|107:157|54:106,1,110
347,220,105320,6,0,B|356:240|356:240|404:226|457:277,1,110
174,140,105538,6,0,B|171:118|171:118|121:120|83:57,1,110
337,243,105755,6,0,B|340:265|340:265|390:263|428:326,1,110
190,121,105973,6,0,B|193:99|193:99|144:88|123:17,1,110
321,262,106190,6,0,B|318:284|318:284|367:295|388:366,1,110
211,106,106407,6,0,B|219:86|219:86|175:62|173:-10,1,110
300,277,106625,6,0,B|292:297|292:297|336:321|338:394,1,110
235,98,106842,6,0,B|247:80|247:80|211:46|228:-25,1,110
276,285,107060,6,0,B|264:303|264:303|300:337|283:409,1,110
259,96,107277,6,0,B|276:81|276:81|251:40|285:-24,1,110
252,288,107494,6,0,B|235:302|235:302|261:343|226:409,1,110
284,100,107712,6,0,B|304:91|304:91|290:43|341:-9,1,110
227,283,107929,6,0,B|207:292|207:292|221:340|170:393,1,110
256,192,108147,5,0,0:0:0:0:
256,192,120320,5,0,0:0:0:0:
256,192,121190,5,0,0:0:0:0:
256,192,121407,1,0,0:0:0:0:
256,192,121516,1,0,0:0:0:0:
256,192,121625,1,0,0:0:0:0:
100,71,122060,6,0,B|78:113|101:137|101:137|62:166|85:206|85:206|65:233,1,165
81,246,122494,2,0,P|124:275|188:293,1,110
392,236,122929,1,0,0:0:0:0:
249,151,123147,1,0,0:0:0:0:
120,148,123364,1,0,0:0:0:0:
263,233,123581,1,0,0:0:0:0:
408,155,123799,6,0,B|390:112|390:112|391:83|336:94|333:86|320:72|320:72|259:68,1,165
258,73,124234,2,0,P|198:81|137:109,1,110
141,263,124668,1,0,0:0:0:0:
248,137,124886,1,0,0:0:0:0:
241,301,125103,1,0,0:0:0:0:
353,179,125320,1,0,0:0:0:0:
194,222,125538,6,0,B|166:173|166:173|106:176|106:176,1,110
318,222,125973,2,0,B|346:173|346:173|406:176|406:176,1,110
238,139,126407,2,0,P|181:98|114:91,1,110
274,139,126842,2,0,P|331:98|398:91,1,110
355,254,127277,5,0,0:0:0:0:
304,97,127494,1,0,0:0:0:0:
252,311,127712,1,0,0:0:0:0:
233,198,127929,1,0,0:0:0:0:
157,130,128147,1,0,0:0:0:0:
208,287,128364,1,0,0:0:0:0:
260,73,128581,1,0,0:0:0:0:
279,186,128799,1,0,0:0:0:0:
303,215,128907,5,0,0:0:0:0:
338,229,129016,1,0,0:0:0:0:
375,236,129125,1,0,0:0:0:0:
413,236,129234,1,0,0:0:0:0:
389,72,129451,1,0,0:0:0:0:
337,228,129668,1,0,0:0:0:0:
196,140,129886,5,0,0:0:0:0:
360,150,130103,1,0,0:0:0:0:
200,192,130320,1,0,0:0:0:0:
364,198,130538,1,0,0:0:0:0:
207,247,130755,6,0,B|155:248|102:188|74:213|74:213|59:149,1,165
60,108,131190,1,0,0:0:0:0:
218,63,131407,1,0,0:0:0:0:
120,196,131625,1,0,0:0:0:0:
274,138,131842,1,0,0:0:0:0:
226,296,132060,1,0,0:0:0:0:
295,146,132277,1,0,0:0:0:0:
371,291,132494,5,0,0:0:0:0:
344,127,132712,1,0,0:0:0:0:
214,229,132929,5,0,0:0:0:0:
209,63,133147,1,0,0:0:0:0:
313,189,133364,5,0,0:0:0:0:
305,24,133581,1,0,0:0:0:0:
197,149,133799,5,0,0:0:0:0:
353,97,134016,1,0,0:0:0:0:
197,149,134125,1,0,0:0:0:0:
197,149,134179,1,0,0:0:0:0:
197,149,134234,1,0,0:0:0:0:
431,306,135103,5,0,0:0:0:0:
341,167,135320,1,0,0:0:0:0:
341,167,135429,1,0,0:0:0:0:
341,167,135538,1,0,0:0:0:0:
55,319,135973,6,0,B|67:278|67:278|92:270|109:239|109:239|154:228|157:195,1,165
214,143,136407,1,0,0:0:0:0:
310,277,136625,1,0,0:0:0:0:
382,128,136842,2,0,B|365:86|365:86|321:75|297:46,1,110
130,128,137277,2,0,B|147:86|147:86|191:75|215:46,1,110
228,220,137712,5,0,0:0:0:0:
391,242,137929,1,0,0:0:0:0:
321,92,138147,1,0,0:0:0:0:
228,220,138364,1,0,0:0:0:0:
380,156,138581,1,0,0:0:0:0:
248,56,138799,1,0,0:0:0:0:
228,220,139016,1,0,0:0:0:0:
248,56,139234,1,0,0:0:0:0:
228,220,139451,6,0,B|189:247|172:279|123:272|123:272|80:324,1,165
95,331,139886,2,0,B|149:344|149:344|240:332,1,110
353,269,140320,1,0,0:0:0:0:
200,204,140538,1,0,0:0:0:0:
349,134,140755,1,0,0:0:0:0:
207,220,140973,1,0,0:0:0:0:
400,261,141190,5,0,0:0:0:0:
202,256,141407,1,0,0:0:0:0:
382,172,141625,5,0,0:0:0:0:
190,124,141842,1,0,0:0:0:0:
428,85,142060,5,0,0:0:0:0:
213,198,142277,1,0,0:0:0:0:
477,269,142494,5,0,0:0:0:0:
246,117,142712,1,0,0:0:0:0:
51,326,142929,6,0,B|72:294|72:294|100:292|95:249|95:249|152:245|168:208,1,165
187,203,143364,2,0,P|243:235|327:229,1,110
430,156,143799,2,0,P|374:124|290:130,1,110
164,121,144234,1,0,0:0:0:0:
312,193,144451,1,0,0:0:0:0:
234,47,144668,5,0,0:0:0:0:
206,210,144886,1,0,0:0:0:0:
347,126,145103,5,0,0:0:0:0:
385,286,145320,1,0,0:0:0:0:
244,198,145538,5,0,0:0:0:0:
169,345,145755,1,0,0:0:0:0:
311,260,145973,5,0,0:0:0:0:
146,254,146190,1,0,0:0:0:0:
107,93,146407,6,0,B|136:122|136:122|170:109|234:101,1,110
355,43,146842,2,0,B|326:72|326:72|339:106|347:170,1,110
405,291,147277,2,0,B|376:262|376:262|342:275|278:283,1,110
157,341,147712,2,0,B|186:312|186:312|173:278|165:214,1,110
143,82,148147,6,0,P|187:52|246:73,1,110
366,79,148581,2,0,P|396:123|375:182,1,110
369,302,149016,2,0,P|325:332|266:311,1,110
146,305,149451,2,0,P|116:261|137:202,1,110
256,192,149886,5,0,0:0:0:0:
64,240,150592,6,0,P|96:320|144:336,1,110
183,286,151027,2,0,P|151:206|103:190,1,110
448,144,152331,6,0,P|416:64|368:48,1,110
329,98,152766,2,0,P|361:178|409:194,1,110
113,49,154070,6,0,B|59:48|59:48|59:114|59:114,1,110
113,166,154505,2,0,B|167:167|167:167|167:101|167:101,1,110
400,335,155810,6,0,B|454:336|454:336|454:270|454:270,1,110
400,218,156244,2,0,B|346:217|346:217|346:283|346:283,1,110
90,63,156842,5,0,0:0:0:0:
409,143,157277,1,0,0:0:0:0:
86,213,157494,2,0,B|116:233|136:235|136:235|151:268|151:268|181:278,1,110
332,258,157929,2,0,B|302:278|282:280|282:280|267:313|267:313|237:323,1,110
422,321,158581,5,0,0:0:0:0:
103,241,159016,1,0,0:0:0:0:
426,171,159234,2,0,B|396:151|376:149|376:149|361:116|361:116|331:106,1,110
180,126,159668,2,0,B|210:106|230:104|230:104|245:71|245:71|275:61,1,110
448,339,160320,5,0,0:0:0:0:
218,101,160755,1,0,0:0:0:0:
128,239,160973,2,0,B|151:235|156:256|156:256|195:271|194:311,1,110
384,145,161407,2,0,B|361:149|356:128|356:128|317:113|318:73,1,110
256,192,162060,5,0,0:0:0:0:
192,304,162712,2,0,P|240:336|304:336,1,110
320,80,163147,2,0,P|272:48|208:48,1,110
88,67,163841,6,0,B|119:81|119:81|138:71|138:110|138:110|174:114|175:145|175:145|209:156,1,165
212,177,164276,2,0,P|212:257|271:268,1,110
376,193,164711,2,0,P|376:113|317:102,1,110
421,255,165145,2,0,P|501:255|512:314,1,110
424,317,165580,6,0,B|393:303|393:303|374:313|374:274|374:274|338:270|337:239|337:239|303:228,1,165
300,207,166015,2,0,P|300:127|241:116,1,110
136,191,166450,2,0,P|136:271|195:282,1,110
91,129,166885,2,0,P|11:129|0:70,1,110
119,225,167319,5,0,0:0:0:0:
146,251,167428,1,0,0:0:0:0:
180,268,167537,1,0,0:0:0:0:
208,241,167645,1,0,0:0:0:0:
239,219,167754,1,0,0:0:0:0:
276,209,167863,1,0,0:0:0:0:
301,237,167972,1,0,0:0:0:0:
330,262,168080,1,0,0:0:0:0:
367,267,168189,5,0,0:0:0:0:
390,236,168298,1,0,0:0:0:0:
419,211,168406,1,0,0:0:0:0:
454,197,168515,1,0,0:0:0:0:
431,165,168624,1,0,0:0:0:0:
401,140,168732,1,0,0:0:0:0:
426,111,168841,1,0,0:0:0:0:
456,88,168950,1,0,0:0:0:0:
425,64,169058,5,0,0:0:0:0:
386,66,169167,1,0,0:0:0:0:
354,86,169276,1,0,0:0:0:0:
319,67,169385,1,0,0:0:0:0:
285,48,169493,1,0,0:0:0:0:
261,17,169602,1,0,0:0:0:0:
236,46,169711,1,0,0:0:0:0:
223,82,169819,1,0,0:0:0:0:
232,118,169928,5,0,0:0:0:0:
202,142,170037,1,0,0:0:0:0:
163,143,170145,1,0,0:0:0:0:
128,126,170254,1,0,0:0:0:0:
129,164,170363,1,0,0:0:0:0:
147,198,170472,1,0,0:0:0:0:
119,225,170580,1,0,0:0:0:0:
87,246,170689,1,0,0:0:0:0:
95,283,170798,6,0,B|133:307|176:298|176:298|203:321|270:301,1,165
281,279,171232,2,0,P|343:228|355:177,1,110
235,85,171667,2,0,P|173:136|161:187,1,110
122,321,172102,2,0,B|130:297|130:297|121:285|121:285|156:286|156:286|141:261|141:261|151:230,1,110
417,101,172537,6,0,B|379:77|336:86|336:86|309:63|242:83,1,165
231,105,172972,2,0,P|169:156|157:207,1,110
277,299,173406,2,0,P|339:248|351:197,1,110
390,63,173841,2,0,B|382:87|382:87|391:99|391:99|356:98|356:98|371:123|371:123|361:154,1,110
379,293,174276,5,0,0:0:0:0:
330,302,174385,1,0,0:0:0:0:
280,299,174493,1,0,0:0:0:0:
258,254,174602,1,0,0:0:0:0:
220,221,174711,1,0,0:0:0:0:
170,227,174819,1,0,0:0:0:0:
177,275,174928,1,0,0:0:0:0:
160,321,175037,1,0,0:0:0:0:
116,345,175145,5,0,0:0:0:0:
124,296,175254,1,0,0:0:0:0:
119,247,175363,1,0,0:0:0:0:
93,204,175472,1,0,0:0:0:0:
136,179,175580,1,0,0:0:0:0:
152,132,175689,1,0,0:0:0:0:
144,82,175798,1,0,0:0:0:0:
105,50,175906,1,0,0:0:0:0:
56,42,176015,5,0,0:0:0:0:
94,202,176232,2,0,L|147:265,1,55
376,266,176667,1,0,0:0:0:0:
312,113,176885,6,0,B|305:152|305:152|300:173|241:192|191:176|191:176|213:113,1,220
419,310,177754,5,0,0:0:0:0:
338,158,177863,1,0,0:0:0:0:
180,84,177972,1,0,0:0:0:0:
13,34,178080,1,0,0:0:0:0:
96,184,178189,1,0,0:0:0:0:
267,211,178298,1,0,0:0:0:0:
396,95,178406,1,0,0:0:0:0:
226,64,178515,1,0,0:0:0:0:
170,228,178624,6,0,B|143:262|161:305|161:305|115:355|117:373,1,157.142857142857
342,156,178841,6,0,B|369:122|351:79|351:79|397:29|395:11,1,157.142857142857
429,187,179058,5,0,0:0:0:0:
267,124,179167,1,0,0:0:0:0:
404,227,179276,1,0,0:0:0:0:
299,88,179385,1,0,0:0:0:0:
129,123,179493,5,0,0:0:0:0:
129,123,179602,1,0,0:0:0:0:
129,123,179711,1,0,0:0:0:0:
129,123,179819,1,0,0:0:0:0:
222,267,179928,1,0,0:0:0:0:
222,267,180037,1,0,0:0:0:0:
222,267,180145,1,0,0:0:0:0:
222,267,180254,1,0,0:0:0:0:
345,147,180363,5,0,0:0:0:0:
345,147,180472,1,0,0:0:0:0:
345,147,180580,1,0,0:0:0:0:
345,147,180689,1,0,0:0:0:0:
414,305,180798,1,0,0:0:0:0:
414,305,180906,1,0,0:0:0:0:
414,305,181015,1,0,0:0:0:0:
414,305,181124,1,0,0:0:0:0:
249,250,181232,5,0,0:0:0:0:
124,129,181341,1,0,0:0:0:0:
210,277,181450,1,0,0:0:0:0:
176,106,181558,1,0,0:0:0:0:
161,278,181667,1,0,0:0:0:0:
227,119,181776,1,0,0:0:0:0:
116,252,181885,1,0,0:0:0:0:
265,164,181993,1,0,0:0:0:0:
436,148,182102,5,0,0:0:0:0:
264,109,182211,1,0,0:0:0:0:
410,202,182319,1,0,0:0:0:0:
299,67,182428,1,0,0:0:0:0:
351,232,182537,1,0,0:0:0:0:
357,53,182645,1,0,0:0:0:0:
289,215,182754,1,0,0:0:0:0:
406,89,182863,1,0,0:0:0:0:
239,137,182972,6,0,B|276:137|276:137|286:147|324:130|324:130|347:161|347:161|392:149,1,157.142857142857
273,247,183189,2,0,B|236:247|236:247|226:237|188:254|188:254|165:223|165:223|120:235,1,157.142857142857
254,69,183406,2,0,B|291:69|291:69|301:79|339:62|339:62|362:93|362:93|407:81,1,157.142857142857
258,315,183624,2,0,B|221:315|221:315|211:305|173:322|173:322|150:291|150:291|105:303,1,157.142857142857
192,128,183841,5,0,0:0:0:0:
320,256,183950,1,0,0:0:0:0:
256,96,184058,5,0,0:0:0:0:
256,288,184167,1,0,0:0:0:0:
320,128,184276,5,0,0:0:0:0:
192,256,184385,1,0,0:0:0:0:
352,192,184493,5,0,0:0:0:0:
160,192,184602,1,0,0:0:0:0:
352,192,184711,5,0,0:0:0:0:
201,106,184819,1,0,0:0:0:0:
358,37,184928,1,0,0:0:0:0:
352,192,185037,1,0,0:0:0:0:
211,293,185145,2,0,L|370:387,1,157.142857142857
352,192,185363,2,0,L|191:101,1,157.142857142857
64,204,185580,5,0,0:0:0:0:
64,384,185689,1,0,0:0:0:0:
224,288,185798,1,0,0:0:0:0:
64,204,185906,1,0,0:0:0:0:
210,113,186015,2,0,L|224:286,1,157.142857142857
379,193,186232,2,0,L|218:112,1,157.142857142857
224,288,186450,6,0,L|366:207,1,157.142857142857
160,96,186667,2,0,L|160:256,1,157.142857142857
224,320,186885,2,0,L|384:224,1,157.142857142857
384,160,187102,2,0,L|224:64,1,157.142857142857
374,263,187319,6,0,L|187:148,1,157.142857142857
366,361,187537,2,0,L|191:247,1,157.142857142857
138,121,187754,6,0,L|325:236,1,157.142857142857
146,23,187972,2,0,L|321:137,1,157.142857142857
255,141,188189,5,0,0:0:0:0:
254,240,188298,1,0,0:0:0:0:
239,124,188406,1,0,0:0:0:0:
273,251,188515,1,0,0:0:0:0:
220,108,188624,1,0,0:0:0:0:
290,265,188732,1,0,0:0:0:0:
203,93,188841,1,0,0:0:0:0:
305,277,188950,1,0,0:0:0:0:
320,128,189058,5,0,0:0:0:0:
192,256,189167,1,0,0:0:0:0:
326,100,189276,1,0,0:0:0:0:
186,284,189385,1,0,0:0:0:0:
330,74,189493,1,0,0:0:0:0:
180,310,189602,1,0,0:0:0:0:
335,51,189711,1,0,0:0:0:0:
173,338,189819,1,0,0:0:0:0:
352,192,189928,5,0,0:0:0:0:
160,192,190037,1,0,0:0:0:0:
373,204,190145,1,0,0:0:0:0:
143,177,190254,1,0,0:0:0:0:
395,218,190363,1,0,0:0:0:0:
122,156,190472,1,0,0:0:0:0:
419,236,190580,1,0,0:0:0:0:
108,141,190689,1,0,0:0:0:0:
416,96,190798,5,0,0:0:0:0:
96,288,190906,1,0,0:0:0:0:
429,77,191015,1,0,0:0:0:0:
83,306,191124,1,0,0:0:0:0:
443,56,191232,1,0,0:0:0:0:
69,327,191341,1,0,0:0:0:0:
457,31,191450,1,0,0:0:0:0:
54,350,191558,1,0,0:0:0:0:
224,192,191667,6,0,B|222:159|222:159|204:168|204:168|213:136|191:142|191:142|149:84,1,157.142857142857
288,192,191885,2,0,B|290:159|290:159|308:168|308:168|299:136|321:142|321:142|363:84,1,157.142857142857
192,203,192102,2,0,B|185:170|185:170|169:182|169:182|172:149|151:159|151:159|100:109,1,157.142857142857
319,203,192319,2,0,B|326:170|326:170|342:182|342:182|339:149|360:159|360:159|411:109,1,157.142857142857
160,224,192537,2,0,B|146:193|146:193|132:208|132:208|130:175|111:188|111:188|52:148,1,157.142857142857
352,224,192754,2,0,B|365:193|365:193|379:208|379:208|381:175|400:188|400:188|459:148,1,157.142857142857
141,277,192972,2,0,B|122:249|122:249|111:266|111:266|103:234|87:250|87:250|22:221,1,157.142857142857
370,277,193189,2,0,B|389:249|389:249|400:266|400:266|408:234|424:250|424:250|489:221,1,157.142857142857
269,162,193406,5,0,0:0:0:0:
101,302,193515,1,0,0:0:0:0:
194,102,193624,1,0,0:0:0:0:
190,322,193732,1,0,0:0:0:0:
226,179,193841,5,0,0:0:0:0:
366,347,193950,1,0,0:0:0:0:
166,254,194058,1,0,0:0:0:0:
386,258,194167,1,0,0:0:0:0:
243,222,194276,5,0,0:0:0:0:
411,82,194385,1,0,0:0:0:0:
318,282,194493,1,0,0:0:0:0:
322,62,194602,1,0,0:0:0:0:
286,205,194711,5,0,0:0:0:0:
146,37,194819,1,0,0:0:0:0:
346,130,194928,1,0,0:0:0:0:
126,126,195037,1,0,0:0:0:0:
352,128,195145,5,0,0:0:0:0:
126,126,195254,1,0,0:0:0:0:
352,160,195363,1,0,0:0:0:0:
128,160,195472,1,0,0:0:0:0:
352,192,195580,1,0,0:0:0:0:
128,192,195689,1,0,0:0:0:0:
352,224,195798,1,0,0:0:0:0:
128,224,195906,1,0,0:0:0:0:
320,256,196015,5,0,0:0:0:0:
160,256,196124,1,0,0:0:0:0:
320,288,196232,1,0,0:0:0:0:
160,288,196341,1,0,0:0:0:0:
320,320,196450,1,0,0:0:0:0:
160,320,196558,1,0,0:0:0:0:
320,352,196667,1,0,0:0:0:0:
160,352,196776,1,0,0:0:0:0:
288,320,196885,5,0,0:0:0:0:
288,256,196993,1,0,0:0:0:0:
224,192,197102,1,0,0:0:0:0:
224,128,197211,1,0,0:0:0:0:
160,64,197319,1,0,0:0:0:0:
224,64,197428,1,0,0:0:0:0:
288,128,197537,1,0,0:0:0:0:
352,128,197645,1,0,0:0:0:0:
416,64,197754,5,0,0:0:0:0:
416,128,197863,1,0,0:0:0:0:
352,192,197972,1,0,0:0:0:0:
352,256,198080,1,0,0:0:0:0:
416,320,198189,1,0,0:0:0:0:
352,320,198298,1,0,0:0:0:0:
288,256,198406,1,0,0:0:0:0:
224,256,198515,1,0,0:0:0:0:
160,96,198624,5,0,0:0:0:0:
352,288,198732,1,0,0:0:0:0:
192,96,198841,5,0,0:0:0:0:
320,288,198950,1,0,0:0:0:0:
224,64,199058,5,0,0:0:0:0:
288,320,199167,1,0,0:0:0:0:
256,64,199276,5,0,0:0:0:0:
256,320,199385,1,0,0:0:0:0:
256,64,199493,5,0,0:0:0:0:
256,320,199602,1,0,0:0:0:0:
288,64,199711,5,0,0:0:0:0:
224,320,199819,1,0,0:0:0:0:
320,64,199928,5,0,0:0:0:0:
192,320,200037,1,0,0:0:0:0:
352,96,200145,5,0,0:0:0:0:
160,288,200254,1,0,0:0:0:0:
384,128,200363,5,0,0:0:0:0:
128,256,200472,1,0,0:0:0:0:
416,160,200580,5,0,0:0:0:0:
96,224,200689,1,0,0:0:0:0:
416,192,200798,5,0,0:0:0:0:
96,192,200906,1,0,0:0:0:0:
416,224,201015,5,0,0:0:0:0:
96,160,201124,1,0,0:0:0:0:
384,256,201232,5,0,0:0:0:0:
128,128,201341,1,0,0:0:0:0:
352,288,201450,5,0,0:0:0:0:
160,96,201558,1,0,0:0:0:0:
320,320,201667,5,0,0:0:0:0:
192,64,201776,1,0,0:0:0:0:
320,320,201885,5,0,0:0:0:0:
192,64,201993,1,0,0:0:0:0:
288,320,202102,5,0,0:0:0:0:
224,64,202211,1,0,0:0:0:0:
256,320,202319,5,0,0:0:0:0:
256,64,202428,1,0,0:0:0:0:
224,320,202537,5,0,0:0:0:0:
288,64,202645,1,0,0:0:0:0:
192,320,202754,5,0,0:0:0:0:
320,64,202863,1,0,0:0:0:0:
160,288,202972,5,0,0:0:0:0:
352,96,203080,1,0,0:0:0:0:
128,256,203189,5,0,0:0:0:0:
384,128,203298,1,0,0:0:0:0:
128,224,203406,5,0,0:0:0:0:
384,160,203515,1,0,0:0:0:0:
128,192,203624,5,0,0:0:0:0:
384,192,203732,1,0,0:0:0:0:
96,192,203841,5,0,0:0:0:0:
416,192,203950,1,0,0:0:0:0:
96,192,204058,1,0,0:0:0:0:
416,192,204167,1,0,0:0:0:0:
96,192,204276,1,0,0:0:0:0:
416,192,204385,1,0,0:0:0:0:
96,192,204493,1,0,0:0:0:0:
416,192,204602,1,0,0:0:0:0:
32,352,204711,6,0,B|96:288|96:288|160:288|160:224|160:224|192:192|256:192|256:192|288:128|288:128|352:160|352:160|384:96|416:64|416:64|480:32,1,628.571428571429
192,128,205580,5,0,0:0:0:0:
192,256,205689,1,0,0:0:0:0:
320,256,205798,1,0,0:0:0:0:
320,128,205906,1,0,0:0:0:0:
192,192,206015,1,0,0:0:0:0:
256,256,206124,1,0,0:0:0:0:
320,192,206232,1,0,0:0:0:0:
256,128,206341,1,0,0:0:0:0:
224,160,206450,5,0,0:0:0:0:
224,224,206558,1,0,0:0:0:0:
288,224,206667,1,0,0:0:0:0:
288,160,206776,1,0,0:0:0:0:
224,192,206885,1,0,0:0:0:0:
256,224,206993,1,0,0:0:0:0:
288,192,207102,1,0,0:0:0:0:
256,160,207211,1,0,0:0:0:0:
256,192,207319,5,0,0:0:0:0:
256,192,207428,1,0,0:0:0:0:
256,192,207537,1,0,0:0:0:0:
256,192,207645,1,0,0:0:0:0:
224,160,207754,1,0,0:0:0:0:
224,224,207863,1,0,0:0:0:0:
288,224,207972,1,0,0:0:0:0:
288,160,208080,1,0,0:0:0:0:
192,128,208189,5,0,0:0:0:0:
192,256,208298,1,0,0:0:0:0:
320,256,208406,1,0,0:0:0:0:
320,128,208515,1,0,0:0:0:0:
160,96,208624,1,0,0:0:0:0:
160,288,208732,1,0,0:0:0:0:
352,288,208841,1,0,0:0:0:0:
352,96,208950,1,0,0:0:0:0:
50,255,209036,6,0,B|79:332|79:332|162:350,1,157.142857142857
221,277,209253,2,0,B|192:200|192:200|109:182,1,157.142857142857
462,129,209471,2,0,B|433:52|433:52|350:34,1,157.142857142857
291,107,209688,2,0,B|320:184|320:184|403:202,1,157.142857142857
128,224,209905,6,0,L|0:320,1,157.142857142857
64,384,210123,2,0,L|192:288,1,157.142857142857
384,160,210340,6,0,L|512:64,1,157.142857142857
448,0,210558,2,0,L|320:96,1,157.142857142857
452,331,210775,6,0,B|451:324|451:324|449:336|449:336|446:326|446:325|457:339|457:339|452:326|452:326|449:337|449:337|446:323|446:322|441:332|441:332|447:340|447:340|452:340|452:340|459:337|459:337|456:329|456:329|453:319|450:321|444:328|444:328|448:335|448:335|456:333|456:333|454:324|454:324,1,157.142857142857
60,53,210992,6,0,B|61:60|61:60|63:48|63:48|66:58|66:59|55:45|55:45|60:58|60:58|63:47|63:47|66:61|66:62|71:52|71:52|65:44|65:44|60:44|60:44|53:47|53:47|56:55|56:55|59:65|62:63|68:56|68:56|64:49|64:49|56:51|56:51|58:60|58:60,1,157.142857142857
395,0,211210,6,0,B|388:-3|388:-3|400:-1|400:-1|390:2|389:2|403:-9|403:-9|390:-4|390:-4|401:-1|401:-1|387:2|386:2|396:7|396:7|404:1|404:1|404:-4|404:-4|401:-11|401:-11|393:-8|393:-8|383:-5|385:-2|392:4|392:4|399:0|399:0|397:-8|397:-8|388:-6|388:-6,1,157.142857142857
117,388,211427,6,0,B|124:387|124:387|112:385|112:385|122:382|123:382|109:393|109:393|122:388|122:388|111:385|111:385|125:382|126:382|116:377|116:377|108:383|108:383|108:388|108:388|111:395|111:395|119:392|119:392|129:389|127:386|120:380|120:380|113:384|113:384|115:392|115:392|124:390|124:390,1,157.142857142857
438,186,211645,6,0,B|413:202|413:202|418:170|418:170|451:209|451:209|457:176|457:176|436:189|435:189,1,157.142857142857
74,198,211862,6,0,B|99:182|99:182|94:214|94:214|61:175|61:175|55:208|55:208|76:195|77:195,1,157.142857142857
262,374,212079,6,0,B|246:349|246:349|278:354|278:354|239:387|239:387|272:393|272:393|259:372|259:371,1,157.142857142857
250,10,212297,6,0,B|266:35|266:35|234:30|234:30|273:-3|273:-3|240:-9|240:-9|253:12|253:13,1,157.142857142857
188,212,212514,6,0,B|214:184|214:184|233:218|233:218|328:198|328:198,1,157.142857142857
99,132,212732,2,0,B|107:180|107:180|83:195|83:195|113:302,1,157.142857142857
276,260,212949,6,0,B|248:234|248:234|282:215|282:215|262:120|262:120,1,157.142857142857
196,349,213167,2,0,B|244:341|244:341|259:365|259:365|366:335,1,157.142857142857
324,172,213384,6,0,B|298:200|298:200|279:166|279:166|184:186|184:186,1,157.142857142857
413,252,213602,2,0,B|405:204|405:204|429:189|429:189|399:82,1,157.142857142857
236,124,213819,6,0,B|264:150|264:150|230:169|230:169|250:264|250:264,1,157.142857142857
316,35,214037,2,0,B|268:43|268:43|253:19|253:19|146:49,1,157.142857142857
94,243,214253,6,0,B|109:247|109:247|89:302|89:302|147:293|147:293|242:302,1,157.142857142857
418,141,214471,6,0,B|403:137|403:137|423:82|423:82|365:91|365:91|270:82,1,157.142857142857
127,147,214688,5,0,0:0:0:0:
344,247,214797,1,0,0:0:0:0:
151,338,214905,5,0,0:0:0:0:
365,284,215014,1,0,0:0:0:0:
213,123,215123,6,0,B|161:88|161:88|128:98|128:98|131:162|133:160,1,157.142857142857
299,261,215340,2,0,B|351:296|351:296|384:286|384:286|381:222|379:224,1,157.142857142857
196,99,215558,5,0,0:0:0:0:
414,86,215666,1,0,0:0:0:0:
227,204,215775,5,0,0:0:0:0:
389,131,215884,1,0,0:0:0:0:
171,148,215992,5,0,0:0:0:0:
371,239,216101,1,0,0:0:0:0:
150,236,216210,5,0,0:0:0:0:
342,132,216318,1,0,0:0:0:0:
128,186,216427,5,0,0:0:0:0:
348,189,216536,1,0,0:0:0:0:
132,142,216645,5,0,0:0:0:0:
329,235,216753,1,0,0:0:0:0:
121,160,216862,5,0,0:0:0:0:
372,142,216971,1,0,0:0:0:0:
129,202,217079,5,0,0:0:0:0:
357,94,217188,1,0,0:0:0:0:
109,144,217297,5,0,0:0:0:0:
356,175,217405,1,0,0:0:0:0:
104,197,217514,5,0,0:0:0:0:
355,210,217623,1,0,0:0:0:0:
73,244,217732,5,0,0:0:0:0:
353,255,217840,1,0,0:0:0:0:
84,163,217949,5,0,0:0:0:0:
366,136,218058,1,0,0:0:0:0:
93,67,218166,5,0,0:0:0:0:
356,172,218275,1,0,0:0:0:0:
72,171,218384,5,0,0:0:0:0:
342,95,218492,1,0,0:0:0:0:
59,235,218601,5,0,0:0:0:0:
366,302,218710,1,0,0:0:0:0:
72,171,218818,5,0,0:0:0:0:
384,208,218927,1,0,0:0:0:0:
78,131,219036,5,0,0:0:0:0:
391,99,219145,1,0,0:0:0:0:
79,82,219253,5,0,0:0:0:0:
383,2,219362,1,0,0:0:0:0:
199,92,219471,6,0,B|161:119|161:119|184:155|184:155|171:174|171:174|209:211,1,157.142857142857
313,92,219688,2,0,B|351:119|351:119|328:155|328:155|341:174|341:174|303:211,1,157.142857142857
134,312,219905,2,0,B|115:279|115:279|135:268|135:268|96:237|96:237|173:187,1,157.142857142857
378,312,220123,2,0,B|397:279|397:279|377:268|377:268|416:237|416:237|339:187,1,157.142857142857
101,58,220340,2,0,B|84:91|101:108|101:108|89:135|117:147|117:147|104:181|104:181|144:216,1,157.142857142857
411,58,220558,2,0,B|428:91|411:108|411:108|423:135|395:147|395:147|408:181|408:181|368:216,1,157.142857142857
31,331,220775,2,0,B|36:288|36:288|13:266|13:266|49:222|16:207|16:207|-4:162,1,157.142857142857
480,331,220992,2,0,B|475:288|475:288|498:266|498:266|462:222|495:207|495:207|515:162,1,157.142857142857
324,86,221210,5,0,0:0:0:0:
124,120,221318,1,0,0:0:0:0:
15,293,221427,1,0,0:0:0:0:
219,277,221536,1,0,0:0:0:0:
397,175,221645,1,0,0:0:0:0:
230,59,221753,1,0,0:0:0:0:
45,147,221862,1,0,0:0:0:0:
151,322,221971,1,0,0:0:0:0:
247,143,222079,5,0,0:0:0:0:
79,25,222188,1,0,0:0:0:0:
62,229,222297,1,0,0:0:0:0:
252,299,222405,1,0,0:0:0:0:
426,191,222514,1,0,0:0:0:0:
300,29,222623,1,0,0:0:0:0:
199,207,222732,1,0,0:0:0:0:
371,313,222840,1,0,0:0:0:0:
342,131,222949,6,0,B|386:85|416:90|446:48|475:38,2,157.142857142857
156,120,223275,1,0,0:0:0:0:
342,131,223384,6,0,B|386:85|416:90|446:48|475:38,2,157.142857142857
226,302,223710,1,0,0:0:0:0:
342,131,223818,6,0,B|386:85|416:90|446:48|475:38,2,157.142857142857
67,165,224145,1,0,0:0:0:0:
342,131,224253,6,0,B|386:85|416:90|446:48|475:38,2,157.142857142857
81,332,224579,1,0,0:0:0:0:
448,181,224688,6,0,B|343:112|343:112|369:133|369:133|288:49|276:38,1,275
64,203,224905,2,0,B|169:272|169:272|143:251|143:251|224:335|236:346,1,275
448,181,225123,2,0,B|411:122|411:122|393:110|393:110|385:83|385:83|367:74|367:74|366:54|366:54|344:42|344:42|320:49|320:49|300:25|300:25|264:34|264:34,1,275
64,203,225340,2,0,B|101:262|101:262|119:274|119:274|127:301|127:301|145:310|145:310|146:330|146:330|168:342|168:342|192:335|192:335|212:359|212:359|248:350|248:350,1,275
482,108,225558,2,0,B|435:73|435:73|397:87|397:87|369:57|288:55|263:32|263:32|205:43,1,275
30,276,225775,2,0,B|77:311|77:311|115:297|115:297|143:327|224:329|249:352|249:352|307:341,1,275
502,64,225992,2,0,P|395:47|218:81,1,275
10,320,226210,2,0,P|117:337|294:303,1,275
384,64,226427,5,0,0:0:0:0:
128,320,226536,1,0,0:0:0:0:
416,64,226645,5,0,0:0:0:0:
96,320,226753,1,0,0:0:0:0:
448,96,226862,5,0,0:0:0:0:
64,288,226971,1,0,0:0:0:0:
448,128,227079,5,0,0:0:0:0:
64,256,227188,1,0,0:0:0:0:
384,320,227297,5,0,0:0:0:0:
128,64,227406,1,0,0:0:0:0:
384,352,227515,5,0,0:0:0:0:
128,32,227623,1,0,0:0:0:0:
352,384,227732,5,0,0:0:0:0:
160,0,227841,1,0,0:0:0:0:
320,384,227949,5,0,0:0:0:0:
192,0,228058,1,0,0:0:0:0:
128,320,228166,5,0,0:0:0:0:
384,64,228275,1,0,0:0:0:0:
96,320,228384,5,0,0:0:0:0:
416,64,228492,1,0,0:0:0:0:
64,288,228601,5,0,0:0:0:0:
448,96,228710,1,0,0:0:0:0:
64,256,228818,5,0,0:0:0:0:
448,128,228927,1,0,0:0:0:0:
128,64,229036,5,0,0:0:0:0:
384,320,229145,1,0,0:0:0:0:
128,32,229254,5,0,0:0:0:0:
384,352,229362,1,0,0:0:0:0:
160,0,229471,5,0,0:0:0:0:
352,384,229580,1,0,0:0:0:0:
192,0,229688,5,0,0:0:0:0:
320,384,229797,1,0,0:0:0:0:
256,192,229905,5,0,0:0:0:0:
192,160,230014,1,0,0:0:0:0:
320,224,230123,5,0,0:0:0:0:
128,160,230232,1,0,0:0:0:0:
384,224,230340,5,0,0:0:0:0:
64,160,230449,1,0,0:0:0:0:
448,224,230558,5,0,0:0:0:0:
0,160,230666,1,0,0:0:0:0:
512,224,230775,5,0,0:0:0:0:
0,96,230884,1,0,0:0:0:0:
512,288,230992,5,0,0:0:0:0:
0,32,231101,1,0,0:0:0:0:
512,352,231210,5,0,0:0:0:0:
0,0,231330,1,0,0:0:0:0:
512,384,231439,5,0,0:0:0:0:
0,0,231548,1,0,0:0:0:0:
256,192,231656,5,0,0:0:0:0:
256,192,231765,1,0,0:0:0:0:
256,192,231874,1,0,0:0:0:0:
256,192,231982,1,0,0:0:0:0:
256,192,232091,1,0,0:0:0:0:
256,192,232200,1,0,0:0:0:0:
256,192,232308,1,0,0:0:0:0:
256,192,232417,1,0,0:0:0:0:
256,192,232526,1,0,0:0:0:0:
256,192,232635,1,0,0:0:0:0:
256,192,232743,1,0,0:0:0:0:
256,192,232852,1,0,0:0:0:0:
256,192,232961,1,0,0:0:0:0:
256,192,233069,1,0,0:0:0:0:
256,192,233178,1,0,0:0:0:0:
256,192,233287,1,0,0:0:0:0:
256,192,233358,6,0,B|320:192|320:160|320:128|320:128|352:128|352:128|352:96|352:96|384:96|384:96|384:64|384:64|416:64|416:64|416:32|416:32|448:32|448:32,1,330.000012588501
0,384,234662,1,0,0:0:0:0:
