osu file format v14

[General]
AudioFilename: audio.mp3
AudioLeadIn: 0
PreviewTime: 39046
Countdown: 0
SampleSet: Normal
StackLeniency: 0.2
Mode: 0
LetterboxInBreaks: 0
WidescreenStoryboard: 1

[Editor]
Bookmarks: 80333,177724,198376,205550,233376
DistanceSpacing: 1.9
BeatDivisor: 4
GridSize: 4
TimelineZoom: 2.7

[Metadata]
Title:A FOOL MOON NIGHT
TitleUnicode:A FOOL MOON NIGHT
Artist:The Koxx
ArtistUnicode:칵스
Creator:Astar
Version:ET (Piggey vs Astar)
Source:
Tags:piggey overjoy a_kochav [_emillia_] [ emillia ] friendofox naoka firedigger silverboxer
BeatmapID:1118614
BeatmapSetID:524026

[Difficulty]
HPDrainRate:5
CircleSize:4
OverallDifficulty:10
ApproachRate:10
SliderMultiplier:2.2
SliderTickRate:1

[Events]
//Background and Video events
0,0,"1474291154383.jpg",0,0
//Break Periods
2,108369,119887
//Storyboard Layer 0 (Background)
//Storyboard Layer 1 (Fail)
//Storyboard Layer 2 (Pass)
//Storyboard Layer 3 (Foreground)
//Storyboard Sound Samples

[TimingPoints]
321,434.782608695652,4,1,0,30,1,0
24667,-125,4,1,0,100,0,0
38612,434.782608695652,4,1,0,60,1,0
38612,-200,4,1,0,60,0,0
39264,-66.6666666666667,4,1,0,60,0,0
40351,-200,4,1,0,60,0,0
41003,-66.6666666666667,4,1,0,60,0,0
42090,-200,4,1,0,60,0,0
42742,-66.6666666666667,4,1,0,60,0,0
43829,-200,4,1,0,60,0,0
44481,-66.6666666666667,4,1,0,60,0,0
45567,434.782608695652,4,1,0,60,1,0
45567,-200,4,1,0,60,0,0
46189,-66.6666666666667,4,1,0,60,0,0
47306,-200,4,1,0,60,0,0
52958,-100,4,1,0,80,0,0
53387,434.782608695652,4,1,0,80,1,0
54256,434.782608695652,4,1,0,80,1,0
65777,-66.6666666666667,4,1,0,80,0,0
76864,-133.333333333333,4,1,0,80,0,0
80342,-66.6666666666667,4,1,0,100,0,1
108060,-100,4,1,0,100,0,0
120337,434.782608695652,4,1,0,100,1,0
134032,-200,4,1,0,100,0,0
135119,-100,4,1,0,100,0,0
135981,434.782608695652,4,1,0,100,1,0
149921,434.782608695652,4,1,0,100,1,0
149921,-200,4,1,0,75,0,0
150573,-66.6666666666667,4,1,0,75,0,0
151660,-200,4,1,0,75,0,0
152312,-66.6666666666667,4,1,0,75,0,0
153399,-200,4,1,0,75,0,0
154051,-66.6666666666667,4,1,0,75,0,0
155138,-200,4,1,0,75,0,0
155790,-66.6666666666667,4,1,0,75,0,0
156850,434.782608695652,4,1,0,75,1,0
156850,-200,4,1,0,75,0,0
157502,-66.6666666666667,4,1,0,75,0,0
158589,-200,4,1,0,75,0,0
163831,434.782608695652,4,1,0,75,1,0
163831,-66.6666666666667,4,1,0,75,0,0
177744,-66.6666666666667,4,1,0,100,0,1
231222,434.782608695652,4,1,0,100,1,1
233358,434.782608695652,4,1,0,100,1,0

[HitObjects]
255,122,3581,5,0,0:0:0:0:
256,157,3690,1,0,0:0:0:0:
256,192,3799,1,0,0:0:0:0:
256,192,3907,12,0,7168,0:0:0:0:
256,192,7277,5,0,0:0:0:0:
256,192,7386,12,0,10647,0:0:0:0:
256,192,10755,5,0,0:0:0:0:
384,308,11625,5,0,0:0:0:0:
96,280,12494,5,0,0:0:0:0:
400,52,13364,5,0,0:0:0:0:
144,256,14234,5,0,0:0:0:0:
360,200,14668,2,0,L|144:252,1,220
52,24,15973,5,0,0:0:0:0:
460,360,16842,5,0,0:0:0:0:
320,288,17277,2,0,B|496:300|496:300|456:332,1,220
156,288,17929,6,0,P|144:228|144:176,1,110
164,144,18255,1,0,0:0:0:0:
180,120,18364,1,0,0:0:0:0:
308,284,18581,1,0,0:0:0:0:
416,48,18799,6,0,P|436:116|432:172,1,110
424,184,19125,1,0,0:0:0:0:
404,208,19234,1,0,0:0:0:0:
312,24,19451,1,0,0:0:0:0:
272,212,19668,6,0,P|240:136|216:88,1,110
184,112,19994,1,0,0:0:0:0:
152,144,20103,1,0,0:0:0:0:
192,336,20320,5,0,0:0:0:0:
432,204,20538,1,0,0:0:0:0:
248,184,20755,1,0,0:0:0:0:
360,360,20973,5,0,0:0:0:0:
340,96,21190,1,0,0:0:0:0:
128,304,21407,1,0,0:0:0:0:
388,184,21625,1,0,0:0:0:0:
56,148,21842,1,0,0:0:0:0:
288,308,22060,5,0,0:0:0:0:
240,24,22277,1,0,0:0:0:0:
120,308,22494,5,0,0:0:0:0:
328,112,22712,1,0,0:0:0:0:
124,304,22929,1,0,0:0:0:0:
220,148,23799,5,0,0:0:0:0:
388,220,24016,1,0,0:0:0:0:
318,191,24125,1,0,0:0:0:0:
248,162,24234,1,0,0:0:0:0:
56,324,24668,6,0,P|112:340|152:336,1,88
272,248,25103,1,0,0:0:0:0:
76,224,25320,1,0,0:0:0:0:
356,108,25538,6,0,P|408:160|420:192,1,88
144,152,25973,1,0,0:0:0:0:
432,160,26190,1,0,0:0:0:0:
208,184,26407,6,0,L|220:80,1,88
288,52,26842,1,0,0:0:0:0:
272,312,27060,1,0,0:0:0:0:
168,96,27277,1,0,0:0:0:0:
392,116,27494,1,0,0:0:0:0:
60,208,27712,1,0,0:0:0:0:
280,40,27929,5,0,0:0:0:0:
286,88,28038,1,0,0:0:0:0:
303,134,28147,1,0,0:0:0:0:
388,276,28364,1,0,0:0:0:0:
388,276,28473,1,0,0:0:0:0:
388,276,28581,6,0,P|344:308|300:308,1,88
192,192,29016,1,0,0:0:0:0:
336,308,29234,1,0,0:0:0:0:
116,312,29451,2,0,L|112:212,1,88
440,56,29886,5,0,0:0:0:0:
386,76,29994,1,0,0:0:0:0:
328,68,30103,2,0,P|284:64|236:80,1,88
264,240,30538,1,0,0:0:0:0:
160,64,30755,2,0,L|120:24,1,44
64,128,30973,2,0,L|128:160,1,44
192,224,31190,2,0,L|128:256,1,44
32,320,31407,2,0,L|96:352,1,44
324,304,31625,6,0,L|328:196,1,88
176,88,32060,2,0,L|272:40,1,88
404,52,32494,1,0,0:0:0:0:
304,328,32712,1,0,0:0:0:0:
336,100,32929,2,0,L|432:168,1,88
220,240,33364,5,0,0:0:0:0:
84,104,33581,1,0,0:0:0:0:
212,236,33799,1,0,0:0:0:0:
264,36,34016,1,0,0:0:0:0:
220,232,34234,1,0,0:0:0:0:
120,8,34451,1,0,0:0:0:0:
236,240,34668,1,0,0:0:0:0:
56,200,34886,1,0,0:0:0:0:
56,200,34994,1,0,0:0:0:0:
56,200,35103,1,0,0:0:0:0:
260,92,35320,1,0,0:0:0:0:
176,316,35538,6,0,L|148:200,1,88
128,84,35973,1,0,0:0:0:0:
176,308,36190,1,0,0:0:0:0:
376,64,36407,6,0,L|348:168,1,88
264,320,36842,1,0,0:0:0:0:
248,56,37060,1,0,0:0:0:0:
206,42,37168,1,0,0:0:0:0:
163,50,37277,1,0,0:0:0:0:
128,68,37386,1,0,0:0:0:0:
192,120,37494,1,0,0:0:0:0:
233,133,37603,1,0,0:0:0:0:
276,125,37712,1,0,0:0:0:0:
312,104,37820,5,0,0:0:0:0:
390,83,37929,1,0,0:0:0:0:
409,122,38038,1,0,0:0:0:0:
402,165,38147,1,0,0:0:0:0:
367,195,38255,1,0,0:0:0:0:
312,211,38364,5,0,0:0:0:0:
268,247,38473,1,0,0:0:0:0:
244,300,38612,2,0,L|216:360,1,55
104,340,39046,5,0,0:0:0:0:
204,84,39264,2,0,L|408:100,1,165.000006294251
204,172,39698,2,0,P|128:116|132:40,1,165.000006294251
368,200,40133,1,0,0:0:0:0:
72,328,40351,6,0,L|100:216,1,110
432,252,41003,6,0,P|408:324|324:308,1,165.000006294251
372,268,41438,2,0,B|296:152|296:152|280:184,1,165.000006294251
256,296,41872,1,0,0:0:0:0:
448,112,42090,6,0,L|324:88,1,110
120,240,42742,6,0,L|120:44,1,165.000006294251
204,120,43177,2,0,L|32:120,1,165.000006294251
168,296,43612,1,0,0:0:0:0:
304,68,43829,6,0,B|324:64|324:64|272:152,1,110
188,292,44481,6,0,P|272:248|348:312,1,165.000006294251
388,348,44916,2,0,P|456:316|448:208,1,165.000006294251
392,264,45351,1,0,0:0:0:0:
440,64,45568,6,0,P|384:60|320:76,1,110
244,240,46219,6,0,L|216:52,1,165.000006294251
60,248,46653,2,0,B|136:348|136:348|168:308,1,165.000006294251
240,224,47088,1,0,0:0:0:0:
376,64,47306,6,0,L|408:172,1,110
396,320,47958,1,0,0:0:0:0:
368,323,48067,1,0,0:0:0:0:
342,316,48175,1,0,0:0:0:0:
300,184,48393,1,0,0:0:0:0:
216,164,48501,1,0,0:0:0:0:
136,194,48610,1,0,0:0:0:0:
184,344,48827,5,0,0:0:0:0:
187,316,48936,1,0,0:0:0:0:
192,296,49045,2,0,L|208:184,1,110
240,60,49697,5,0,0:0:0:0:
352,256,49914,1,0,0:0:0:0:
220,80,50132,1,0,0:0:0:0:
172,296,50349,1,0,0:0:0:0:
324,128,50567,1,0,0:0:0:0:
136,160,50784,6,0,L|24:176,1,110
136,256,51436,1,0,0:0:0:0:
360,152,51653,6,0,L|408:132,1,27.5
244,248,51871,1,0,0:0:0:0:
293,240,51980,1,0,0:0:0:0:
342,233,52088,1,0,0:0:0:0:
240,68,52523,6,0,P|192:56|152:64,1,82.5
192,132,52958,6,0,P|260:144|320:108,1,110
348,56,53387,1,0,0:0:0:0:
324,252,53604,1,0,0:0:0:0:
292,296,53713,1,0,0:0:0:0:
248,320,53821,2,0,P|184:332|132:328,1,110
124,148,54256,1,0,0:0:0:0:
124,148,54364,1,0,0:0:0:0:
124,148,54473,1,0,0:0:0:0:
124,148,54582,1,0,0:0:0:0:
124,148,54690,6,0,B|140:148|140:148|124:168|124:168|104:148|104:148|124:128|124:128|124:144,1,110
228,112,55125,2,0,L|348:132,1,110
324,252,55560,1,0,0:0:0:0:
128,280,55777,5,0,0:0:0:0:
137,225,55886,1,0,0:0:0:0:
148,168,55995,2,0,B|160:68|160:68|192:160,1,165
232,232,56429,2,0,B|252:262|252:262|264:190,1,110
268,60,56756,1,0,0:0:0:0:
220,33,56864,1,0,0:0:0:0:
166,38,56973,1,0,0:0:0:0:
124,73,57082,1,0,0:0:0:0:
109,125,57190,1,0,0:0:0:0:
126,176,57299,5,0,0:0:0:0:
320,144,57516,1,0,0:0:0:0:
104,352,57734,2,0,B|72:312|72:312|136:312,1,110
260,320,58169,1,0,0:0:0:0:
148,168,58386,1,0,0:0:0:0:
488,240,58603,6,0,L|432:216,1,55
396,280,58821,2,0,L|332:296,1,55
284,220,59038,2,0,L|216:204,1,55
184,304,59256,2,0,L|116:320,1,55
80,184,59473,6,0,P|104:120|156:104,1,110
308,208,59908,6,0,L|324:80,1,110
172,96,60342,1,0,0:0:0:0:
464,176,60560,1,0,0:0:0:0:
272,296,60777,6,0,L|288:168,1,110
296,60,61212,1,0,0:0:0:0:
396,232,61429,1,0,0:0:0:0:
332,228,61538,2,0,L|268:216,1,55
280,176,61864,1,0,0:0:0:0:
240,344,62082,1,0,0:0:0:0:
176,28,62516,1,0,0:0:0:0:
352,160,62951,6,0,L|248:232,1,110
272,172,63277,2,0,L|252:224,1,55
216,324,63603,1,0,0:0:0:0:
76,196,63821,2,0,L|140:168,1,55
240,88,64038,2,0,L|156:88,1,55
64,88,64256,1,0,0:0:0:0:
288,204,64473,1,0,0:0:0:0:
160,168,64690,5,0,0:0:0:0:
172,115,64799,1,0,0:0:0:0:
212,77,64908,1,0,0:0:0:0:
265,67,65016,1,0,0:0:0:0:
315,87,65125,1,0,0:0:0:0:
264,204,65342,5,0,0:0:0:0:
500,224,65560,1,0,0:0:0:0:
224,328,65777,5,0,0:0:0:0:
159,281,65886,1,0,0:0:0:0:
154,201,65995,1,0,0:0:0:0:
208,144,66103,1,0,0:0:0:0:
205,66,66212,1,0,0:0:0:0:
132,42,66321,1,0,0:0:0:0:
84,104,66429,6,0,P|164:168|224:100,1,165.000006294251
336,56,66864,6,0,B|416:20|416:20|400:128,1,165.000006294251
400,288,67299,2,0,B|344:352|272:264|228:336,1,165.000006294251
112,316,67734,2,0,B|84:344|84:344|84:196,1,165.000006294251
128,92,68169,6,0,L|36:100,1,82.5000031471254
360,288,68495,2,0,L|472:320,1,82.5000031471254
328,32,68821,5,0,0:0:0:0:
312,62,68929,1,0,0:0:0:0:
297,93,69038,1,0,0:0:0:0:
281,124,69147,1,0,0:0:0:0:
266,155,69256,1,0,0:0:0:0:
252,188,69364,1,0,0:0:0:0:
184,280,69473,6,0,L|164:108,1,165.000006294251
144,24,69908,5,0,0:0:0:0:
94,44,70016,1,0,0:0:0:0:
74,94,70125,1,0,0:0:0:0:
96,142,70234,1,0,0:0:0:0:
147,161,70342,1,0,0:0:0:0:
196,136,70451,1,0,0:0:0:0:
245,112,70560,1,0,0:0:0:0:
299,112,70669,1,0,0:0:0:0:
349,136,70777,1,0,0:0:0:0:
384,178,70886,1,0,0:0:0:0:
397,230,70995,1,0,0:0:0:0:
387,284,71103,1,0,0:0:0:0:
355,328,71212,1,0,0:0:0:0:
307,354,71321,1,0,0:0:0:0:
253,358,71429,1,0,0:0:0:0:
202,338,71538,1,0,0:0:0:0:
168,300,71647,5,0,0:0:0:0:
189,239,71756,1,0,0:0:0:0:
165,179,71864,1,0,0:0:0:0:
107,151,71973,1,0,0:0:0:0:
45,169,72082,1,0,0:0:0:0:
11,224,72190,1,0,0:0:0:0:
22,287,72299,1,0,0:0:0:0:
72,332,72408,1,0,0:0:0:0:
136,323,72516,1,0,0:0:0:0:
190,286,72625,1,0,0:0:0:0:
220,228,72734,1,0,0:0:0:0:
221,163,72842,1,0,0:0:0:0:
191,104,72951,1,0,0:0:0:0:
256,348,73169,1,0,0:0:0:0:
416,72,73386,6,0,B|392:260|392:260|364:192,1,247.500009441376
368,184,73821,2,0,P|320:168|272:196,1,82.5000031471254
356,116,74038,2,0,P|264:104|220:176,1,165.000006294251
248,320,74473,6,0,P|164:324|96:268,1,165.000006294251
184,176,74908,1,0,0:0:0:0:
440,324,75125,6,0,L|448:216,1,82.5000031471254
72,60,75451,2,0,L|64:168,1,82.5000031471254
268,324,75777,5,0,0:0:0:0:
341,301,75886,1,0,0:0:0:0:
341,225,75995,1,0,0:0:0:0:
264,204,76103,1,0,0:0:0:0:
189,174,76212,1,0,0:0:0:0:
162,98,76321,1,0,0:0:0:0:
201,28,76429,1,0,0:0:0:0:
279,11,76538,1,0,0:0:0:0:
344,58,76647,1,0,0:0:0:0:
444,268,76864,5,0,0:0:0:0:
404,278,76973,1,0,0:0:0:0:
364,288,77082,1,0,0:0:0:0:
324,298,77190,1,0,0:0:0:0:
284,308,77299,1,0,0:0:0:0:
244,318,77408,1,0,0:0:0:0:
200,328,77516,5,0,0:0:0:0:
235,307,77625,1,0,0:0:0:0:
271,286,77734,1,0,0:0:0:0:
306,265,77842,1,0,0:0:0:0:
342,244,77951,1,0,0:0:0:0:
376,220,78060,1,0,0:0:0:0:
408,200,78169,5,0,0:0:0:0:
168,96,78603,5,0,0:0:0:0:
128,256,78821,2,0,L|148:192,1,41.2500015735627
100,348,79256,1,0,0:0:0:0:
168,96,79473,1,0,0:0:0:0:
128,256,79908,2,0,L|148:192,1,41.2500015735627
192,144,80342,5,0,0:0:0:0:
104,268,80451,1,0,0:0:0:0:
320,144,80560,5,0,0:0:0:0:
408,268,80669,1,0,0:0:0:0:
144,52,80777,5,0,0:0:0:0:
73,216,80886,1,0,0:0:0:0:
368,52,80995,5,0,0:0:0:0:
439,216,81103,1,0,0:0:0:0:
348,120,81212,5,0,0:0:0:0:
312,248,81321,1,0,0:0:0:0:
228,116,81429,5,0,0:0:0:0:
280,280,81538,1,0,0:0:0:0:
300,88,81647,5,0,0:0:0:0:
228,292,81755,1,0,0:0:0:0:
339,116,81864,5,0,0:0:0:0:
188,270,81973,1,0,0:0:0:0:
363,158,82082,5,0,0:0:0:0:
161,234,82190,1,0,0:0:0:0:
367,207,82299,5,0,0:0:0:0:
152,190,82408,1,0,0:0:0:0:
350,253,82516,5,0,0:0:0:0:
162,147,82625,1,0,0:0:0:0:
432,200,82734,5,0,0:0:0:0:
88,192,82842,1,0,0:0:0:0:
80,44,82951,5,0,0:0:0:0:
348,64,83060,1,0,0:0:0:0:
80,148,83169,5,0,0:0:0:0:
348,144,83277,1,0,0:0:0:0:
84,248,83386,5,0,0:0:0:0:
351,221,83495,1,0,0:0:0:0:
84,344,83603,5,0,0:0:0:0:
352,300,83712,1,0,0:0:0:0:
432,52,83821,5,0,0:0:0:0:
412,320,83929,1,0,0:0:0:0:
328,52,84038,5,0,0:0:0:0:
332,320,84147,1,0,0:0:0:0:
228,56,84255,5,0,0:0:0:0:
255,323,84364,1,0,0:0:0:0:
132,56,84473,5,0,0:0:0:0:
176,324,84582,1,0,0:0:0:0:
194,130,84690,5,0,0:0:0:0:
194,253,84799,1,0,0:0:0:0:
317,253,84908,1,0,0:0:0:0:
317,130,85016,1,0,0:0:0:0:
133,147,85125,5,0,0:0:0:0:
211,314,85234,1,0,0:0:0:0:
378,236,85342,1,0,0:0:0:0:
300,69,85451,1,0,0:0:0:0:
402,138,85560,5,0,0:0:0:0:
309,338,85669,1,0,0:0:0:0:
109,245,85777,1,0,0:0:0:0:
202,45,85886,1,0,0:0:0:0:
329,118,85995,5,0,0:0:0:0:
329,265,86103,1,0,0:0:0:0:
182,265,86212,1,0,0:0:0:0:
182,118,86321,1,0,0:0:0:0:
256,166,86429,5,0,0:0:0:0:
281,192,86538,1,0,0:0:0:0:
255,217,86647,1,0,0:0:0:0:
230,191,86755,1,0,0:0:0:0:
256,140,86864,5,0,0:0:0:0:
204,192,86973,1,0,0:0:0:0:
256,243,87082,1,0,0:0:0:0:
307,191,87190,1,0,0:0:0:0:
348,84,87299,5,0,0:0:0:0:
404,180,87408,1,0,0:0:0:0:
316,156,87516,5,0,0:0:0:0:
264,308,87625,1,0,0:0:0:0:
264,224,87734,5,0,0:0:0:0:
120,324,87842,1,0,0:0:0:0:
168,248,87951,5,0,0:0:0:0:
64,92,88060,1,0,0:0:0:0:
152,136,88169,5,0,0:0:0:0:
368,56,88277,1,0,0:0:0:0:
288,104,88386,5,0,0:0:0:0:
336,272,88495,1,0,0:0:0:0:
272,168,88603,5,0,0:0:0:0:
212,348,88712,1,0,0:0:0:0:
216,104,88821,5,0,0:0:0:0:
324,368,88929,1,0,0:0:0:0:
348,128,89038,5,0,0:0:0:0:
172,208,89147,1,0,0:0:0:0:
396,180,89255,5,0,0:0:0:0:
120,236,89364,1,0,0:0:0:0:
416,240,89473,5,0,0:0:0:0:
64,236,89582,1,0,0:0:0:0:
380,156,89690,5,0,0:0:0:0:
147,158,89799,1,0,0:0:0:0:
405,89,89908,5,0,0:0:0:0:
76,155,90016,1,0,0:0:0:0:
396,26,90125,5,0,0:0:0:0:
15,179,90234,1,0,0:0:0:0:
444,184,90342,5,0,0:0:0:0:
68,184,90451,1,0,0:0:0:0:
412,260,90560,5,0,0:0:0:0:
100,260,90669,1,0,0:0:0:0:
195,272,90777,5,0,0:0:0:0:
350,162,90886,1,0,0:0:0:0:
160,159,90995,1,0,0:0:0:0:
311,273,91103,1,0,0:0:0:0:
256,91,91212,1,0,0:0:0:0:
148,216,91321,5,0,0:0:0:0:
327,108,91429,1,0,0:0:0:0:
163,277,91538,1,0,0:0:0:0:
163,277,91647,5,0,0:0:0:0:
378,176,91755,1,0,0:0:0:0:
145,130,91864,1,0,0:0:0:0:
307,304,91973,1,0,0:0:0:0:
278,69,92082,1,0,0:0:0:0:
117,198,92190,5,0,0:0:0:0:
362,104,92299,1,0,0:0:0:0:
123,276,92408,1,0,0:0:0:0:
123,276,92516,5,0,0:0:0:0:
410,198,92625,1,0,0:0:0:0:
133,92,92734,1,0,0:0:0:0:
294,341,92842,1,0,0:0:0:0:
310,45,92951,1,0,0:0:0:0:
84,170,93060,5,0,0:0:0:0:
405,107,93169,1,0,0:0:0:0:
97,293,93277,1,0,0:0:0:0:
97,293,93386,5,0,0:0:0:0:
441,200,93495,1,0,0:0:0:0:
109,73,93603,1,0,0:0:0:0:
302,371,93712,1,0,0:0:0:0:
321,16,93821,1,0,0:0:0:0:
256,192,93929,5,0,0:0:0:0:
260,196,94038,1,0,0:0:0:0:
264,200,94147,1,0,0:0:0:0:
268,200,94255,1,0,0:0:0:0:
372,188,94364,5,0,0:0:0:0:
272,300,94473,1,0,0:0:0:0:
404,248,94582,5,0,0:0:0:0:
208,276,94690,1,0,0:0:0:0:
400,312,94799,5,0,0:0:0:0:
144,256,94908,1,0,0:0:0:0:
372,372,95016,5,0,0:0:0:0:
80,208,95125,5,0,0:0:0:0:
80,67,95234,1,0,0:0:0:0:
201,138,95342,5,0,0:0:0:0:
332,188,95451,1,0,0:3:0:0:
445,272,95560,5,0,0:3:0:0:
315,325,95669,1,0,0:3:0:0:
432,208,95777,5,0,0:0:0:0:
432,67,95886,1,0,0:0:0:0:
311,138,95995,5,0,0:0:0:0:
180,188,96103,1,0,0:3:0:0:
67,272,96212,5,0,0:3:0:0:
197,325,96321,1,0,0:3:0:0:
200,56,96429,5,0,0:0:0:0:
304,280,96538,1,0,0:0:0:0:
312,56,96647,5,0,0:0:0:0:
208,280,96755,1,0,0:0:0:0:
256,40,96864,5,0,0:0:0:0:
229,335,96973,1,0,0:0:0:0:
372,107,97082,5,0,0:0:0:0:
129,277,97190,1,0,0:0:0:0:
256,40,97299,5,0,0:0:0:0:
283,335,97408,1,0,0:0:0:0:
140,107,97516,5,0,0:0:0:0:
383,277,97625,1,0,0:0:0:0:
56,88,97734,5,0,0:0:0:0:
220,112,97842,1,0,0:0:0:0:
152,192,97951,5,0,0:0:0:0:
368,172,98060,1,0,0:0:0:0:
84,292,98169,5,0,0:0:0:0:
448,296,98277,1,0,0:0:0:0:
56,172,98386,5,0,0:0:0:0:
332,68,98495,1,0,0:0:0:0:
456,296,98603,5,0,0:0:0:0:
292,272,98712,1,0,0:0:0:0:
360,192,98821,5,0,0:0:0:0:
144,212,98929,1,0,0:0:0:0:
428,92,99038,5,0,0:0:0:0:
64,88,99147,1,0,0:0:0:0:
456,212,99255,5,0,0:0:0:0:
180,316,99364,1,0,0:0:0:0:
360,12,99473,5,0,0:0:0:0:
336,159,99582,1,0,0:0:0:0:
256,98,99690,5,0,0:0:0:0:
276,292,99799,1,0,0:0:0:0:
156,37,99908,5,0,0:0:0:0:
152,364,100016,1,0,0:0:0:0:
276,12,100125,5,0,0:0:0:0:
380,260,100234,1,0,0:0:0:0:
360,371,100342,5,0,0:0:0:0:
336,224,100451,1,0,0:0:0:0:
256,285,100560,5,0,0:0:0:0:
276,91,100669,1,0,0:0:0:0:
156,346,100777,5,0,0:0:0:0:
152,19,100886,1,0,0:0:0:0:
97,293,100995,5,0,0:0:0:0:
441,200,101103,1,0,0:0:0:0:
109,73,101212,1,0,0:0:0:0:
302,371,101321,1,0,0:0:0:0:
321,16,101429,1,0,0:0:0:0:
67,183,101538,5,0,0:0:0:0:
402,304,101647,1,0,0:0:0:0:
203,10,101755,1,0,0:0:0:0:
191,365,101864,1,0,0:0:0:0:
410,85,101973,1,0,0:0:0:0:
106,77,102082,5,0,0:0:0:0:
311,368,102190,1,0,0:0:0:0:
317,13,102299,1,0,0:0:0:0:
103,296,102408,1,0,0:0:0:0:
443,192,102516,1,0,0:0:0:0:
199,12,102625,5,0,0:0:0:0:
200,368,102734,1,0,0:0:0:0:
408,80,102842,1,0,0:0:0:0:
71,190,102951,1,0,0:0:0:0:
409,300,103060,1,0,0:0:0:0:
312,12,103169,5,0,0:0:0:0:
109,304,103277,1,0,0:0:0:0:
444,188,103386,1,0,0:0:0:0:
105,84,103495,1,0,0:0:0:0:
319,368,103603,1,0,0:0:0:0:
227,102,103712,5,0,0:0:0:0:
228,280,103821,1,0,0:0:0:0:
332,136,103929,1,0,0:0:0:0:
163,191,104038,1,0,0:0:0:0:
332,246,104147,1,0,0:0:0:0:
270,147,104255,5,0,0:0:0:0:
219,220,104364,5,0,0:0:0:0:
303,191,104473,5,0,0:0:0:0:
218,165,104582,5,0,0:0:0:0:
271,236,104690,5,0,0:0:0:0:
227,102,104799,5,0,0:0:0:0:
228,280,104908,1,0,0:0:0:0:
332,136,105016,1,0,0:0:0:0:
163,191,105125,1,0,0:0:0:0:
332,246,105234,1,0,0:0:0:0:
312,12,105342,5,0,0:0:0:0:
109,304,105451,1,0,0:0:0:0:
444,188,105560,1,0,0:0:0:0:
105,84,105669,1,0,0:0:0:0:
319,368,105777,1,0,0:0:0:0:
199,12,105886,5,0,0:0:0:0:
200,368,105995,1,0,0:0:0:0:
407,80,106103,1,0,0:0:0:0:
71,190,106212,1,0,0:0:0:0:
409,300,106321,1,0,0:0:0:0:
325,56,106429,5,0,0:0:0:0:
124,258,106538,1,0,0:0:0:0:
405,212,106647,1,0,0:0:0:0:
152,84,106755,1,0,0:0:0:0:
281,338,106864,1,0,0:0:0:0:
282,80,106973,5,0,0:0:0:0:
300,294,107082,1,0,0:0:0:0:
160,132,107190,1,0,0:0:0:0:
367,180,107299,1,0,0:0:0:0:
171,264,107408,1,0,0:0:0:0:
225,132,107516,5,0,0:0:0:0:
313,220,107625,1,0,0:0:0:0:
191,200,107734,1,0,0:0:0:0:
301,144,107842,1,0,0:0:0:0:
244,254,107951,1,0,0:0:0:0:
256,192,108060,5,0,0:0:0:0:
256,192,108169,1,0,0:0:0:0:
336,156,120337,5,0,0:0:0:0:
104,200,121206,2,0,L|172:224,1,55
256,276,121423,1,0,0:0:0:0:
185,289,121532,1,0,0:0:0:0:
114,302,121641,1,0,0:0:0:0:
380,120,122076,6,0,P|396:200|384:260,1,110
208,32,122510,1,0,0:0:0:0:
152,336,122728,6,0,P|224:300|252:248,1,110
152,248,123163,2,0,L|92:264,1,55
44,276,123380,1,0,0:0:0:0:
312,92,123597,2,0,L|388:104,1,55
420,112,123815,1,0,0:0:0:0:
88,28,124032,6,0,L|140:84,1,55
160,112,124250,1,0,0:0:0:0:
328,296,124467,5,0,0:0:0:0:
328,296,124576,1,0,0:0:0:0:
328,296,124684,1,0,0:0:0:0:
84,244,124902,5,0,0:0:0:0:
84,244,125010,1,0,0:0:0:0:
84,244,125119,1,0,0:0:0:0:
360,104,125337,6,0,L|396:56,2,55
208,304,125771,2,0,L|184:368,2,55
180,76,126206,6,0,L|156:24,2,55
316,296,126641,2,0,L|352:360,2,55
104,184,127076,5,0,0:0:0:0:
112,152,127184,1,0,0:0:0:0:
136,176,127293,1,0,0:0:0:0:
408,184,127510,5,0,0:0:0:0:
400,152,127619,1,0,0:0:0:0:
376,176,127728,1,0,0:0:0:0:
256,344,127945,1,0,0:0:0:0:
256,289,128054,1,0,0:0:0:0:
256,234,128163,1,0,0:0:0:0:
256,40,128380,1,0,0:0:0:0:
256,95,128489,1,0,0:0:0:0:
256,150,128597,1,0,0:0:0:0:
76,32,128815,5,0,0:0:0:0:
84,52,128923,2,0,L|68:112,1,55
52,136,129141,1,0,0:0:0:0:
132,188,129250,2,0,L|8:272,1,110
176,336,129684,6,0,P|232:356|296:352,1,110
464,80,130119,2,0,P|408:60|344:64,1,110
16,124,130554,6,0,P|28:184|72:240,1,110
496,260,130989,2,0,P|484:200|440:144,1,110
152,96,131423,6,0,L|176:160,2,55
360,288,131858,2,0,L|336:224,2,55
168,252,132293,5,0,0:0:0:0:
168,252,132402,1,0,0:0:0:0:
168,252,132510,1,0,0:0:0:0:
344,108,132728,1,0,0:0:0:0:
344,108,132837,1,0,0:0:0:0:
344,108,132945,5,0,0:0:0:0:
288,348,133163,1,0,0:0:0:0:
288,348,133271,1,0,0:0:0:0:
288,348,133380,1,0,0:0:0:0:
208,60,133597,1,0,0:0:0:0:
208,60,133706,1,0,0:0:0:0:
208,60,133815,1,0,0:0:0:0:
256,176,134032,6,0,L|256:212,2,27.5
256,192,134358,12,0,135010,0:0:0:0:
420,268,135119,6,0,L|360:312,1,55
284,268,135337,1,0,0:0:0:0:
337,280,135445,1,0,0:0:0:0:
379,314,135554,1,0,0:0:0:0:
48,324,135981,5,0,0:0:0:0:
60,228,136089,1,0,0:0:0:0:
112,144,136198,1,0,0:0:0:0:
192,84,136307,1,0,0:0:0:0:
284,48,136415,2,0,L|356:32,1,55
404,112,136633,2,0,L|448:176,1,55
444,256,136850,5,0,0:0:0:0:
372,324,136959,1,0,0:0:0:0:
308,248,137067,1,0,0:0:0:0:
380,180,137176,1,0,0:0:0:0:
392,280,137285,2,0,L|372:344,1,55
276,336,137502,2,0,L|204:312,1,55
128,292,137720,5,0,0:0:0:0:
148,196,137828,1,0,0:0:0:0:
52,212,137937,1,0,0:0:0:0:
84,120,138046,2,0,L|112:68,1,55
204,36,138263,5,0,0:0:0:0:
304,36,138372,1,0,0:0:0:0:
392,84,138481,1,0,0:0:0:0:
452,164,138589,2,0,L|488:216,1,55
428,292,138807,1,0,0:0:0:0:
340,332,138915,1,0,0:0:0:0:
252,284,139024,2,0,L|176:240,1,55
224,160,139241,5,0,0:0:0:0:
156,88,139350,1,0,0:0:0:0:
60,120,139459,1,0,0:0:0:0:
68,220,139567,1,0,0:0:0:0:
164,244,139676,1,0,0:0:0:0:
156,144,139785,5,0,0:0:0:0:
228,76,139894,2,0,P|272:44|300:48,1,55
364,76,140111,2,0,P|389:65|406:44,1,55
460,128,140328,5,0,0:0:0:0:
400,204,140437,1,0,0:0:0:0:
448,292,140546,1,0,0:0:0:0:
384,368,140654,1,0,0:0:0:0:
316,296,140763,6,0,L|272:236,1,55
216,324,140981,2,0,L|176:376,1,55
100,296,141198,5,0,0:0:0:0:
88,188,141307,1,0,0:0:0:0:
156,104,141415,1,0,0:0:0:0:
264,92,141524,1,0,0:0:0:0:
332,180,141633,1,0,0:0:0:0:
444,176,141741,1,0,0:0:0:0:
468,68,141850,1,0,0:0:0:0:
368,16,141959,1,0,0:0:0:0:
280,80,142067,6,0,L|208:128,1,55
340,320,142285,2,0,L|412:344,1,55
80,16,142502,6,0,L|48:72,1,55
508,280,142720,2,0,L|528:216,1,55
256,192,142937,5,0,0:0:0:0:
256,304,143046,1,0,0:0:0:0:
360,264,143154,1,0,0:0:0:0:
372,156,143263,1,0,0:0:0:0:
292,80,143372,2,0,L|236:56,1,55
168,140,143589,2,0,L|164:52,1,55
184,0,143807,5,0,0:0:0:0:
264,76,143915,1,0,0:0:0:0:
156,52,144024,1,0,0:0:0:0:
256,4,144133,1,0,0:0:0:0:
192,96,144241,2,0,L|164:152,1,55
256,208,144459,6,0,L|292:284,1,55
348,344,144676,1,0,0:0:0:0:
364,236,144785,1,0,0:0:0:0:
260,276,144894,1,0,0:0:0:0:
236,384,145002,1,0,0:0:0:0:
300,296,145111,5,0,0:0:0:0:
200,252,145220,1,0,0:0:0:0:
152,352,145328,1,0,0:0:0:0:
264,384,145437,1,0,0:0:0:0:
280,276,145546,5,0,0:0:0:0:
228,180,145654,1,0,0:0:0:0:
280,108,145763,1,0,0:0:0:0:
200,40,145872,1,0,0:0:0:0:
304,16,145981,1,0,0:0:0:0:
292,120,146089,5,0,0:0:0:0:
232,204,146198,1,0,0:0:0:0:
148,268,146307,1,0,0:0:0:0:
72,340,146415,1,0,0:0:0:0:
172,312,146524,1,0,0:0:0:0:
272,348,146633,1,0,0:0:0:0:
320,256,146741,1,0,0:0:0:0:
428,256,146850,2,0,L|460:184,1,55
440,92,147067,2,0,L|368:48,1,55
204,80,147285,5,0,0:0:0:0:
188,188,147394,1,0,0:0:0:0:
184,296,147502,1,0,0:0:0:0:
84,340,147611,1,0,0:0:0:0:
8,260,147720,2,0,L|36:168,1,55
92,120,147937,2,0,L|168:76,1,55
248,60,148154,5,0,0:0:0:0:
248,60,148263,1,0,0:0:0:0:
248,60,148372,1,0,0:0:0:0:
248,60,148481,2,0,L|264:120,1,55
280,220,148698,1,0,0:0:0:0:
268,328,148807,2,0,L|276:256,1,55
164,128,149024,1,0,0:0:0:0:
110,117,149133,1,0,0:0:0:0:
60,137,149241,1,0,0:0:0:0:
29,181,149350,1,0,0:0:0:0:
27,236,149459,1,0,0:0:0:0:
56,282,149567,1,0,0:0:0:0:
105,305,149676,1,0,0:0:0:0:
160,304,149785,1,0,0:0:0:0:
200,280,149894,6,0,B|244:248|212:204|212:204|304:164,1,165
308,300,150573,6,0,L|104:284,1,165.000006294251
308,212,151007,2,0,P|384:268|380:344,1,165.000006294251
144,184,151442,1,0,0:0:0:0:
440,56,151660,6,0,L|412:168,1,110
80,132,152312,6,0,P|104:60|188:76,1,165.000006294251
140,116,152747,2,0,B|216:232|216:232|232:200,1,165.000006294251
256,88,153181,1,0,0:0:0:0:
64,272,153399,6,0,L|188:296,1,110
392,144,154051,6,0,L|392:340,1,165.000006294251
308,264,154486,2,0,L|480:264,1,165.000006294251
344,88,154921,1,0,0:0:0:0:
208,316,155138,6,0,B|188:320|188:320|240:232,1,110
324,92,155790,6,0,P|240:136|164:72,1,165.000006294251
124,36,156225,2,0,P|56:68|64:176,1,165.000006294251
120,120,156660,1,0,0:0:0:0:
72,320,156850,6,0,P|128:324|192:308,1,110
268,144,157502,6,0,L|296:332,1,165.000006294251
452,136,157936,2,0,B|376:36|376:36|344:76,1,165.000006294251
272,160,158371,1,0,0:0:0:0:
136,320,158589,6,0,L|104:212,1,110
116,64,159241,1,0,0:0:0:0:
144,61,159350,1,0,0:0:0:0:
170,68,159458,1,0,0:0:0:0:
212,200,159676,1,0,0:0:0:0:
296,220,159784,1,0,0:0:0:0:
376,190,159893,1,0,0:0:0:0:
328,40,160110,5,0,0:0:0:0:
324,64,160219,1,0,0:0:0:0:
320,88,160328,2,0,L|304:200,1,110
272,324,160980,5,0,0:0:0:0:
160,128,161197,1,0,0:0:0:0:
292,304,161415,1,0,0:0:0:0:
340,88,161632,1,0,0:0:0:0:
188,256,161850,1,0,0:0:0:0:
376,224,162067,6,0,L|488:208,1,110
376,128,162719,1,0,0:0:0:0:
152,232,162936,6,0,L|104:252,1,27.5
268,136,163154,1,0,0:0:0:0:
219,144,163263,1,0,0:0:0:0:
170,151,163371,1,0,0:0:0:0:
360,320,163831,6,0,P|436:288|328:156,1,247.500009441376
400,256,164265,2,0,P|424:160|480:116,1,165.000006294251
336,44,164700,2,0,P|244:44|184:96,1,165.000006294251
244,264,165135,2,0,L|100:112,1,165.000006294251
52,268,165570,6,0,L|60:368,1,82.5000031471254
200,360,165787,1,0,0:0:0:0:
460,116,165896,6,0,L|452:16,1,82.5000031471254
248,72,166222,6,0,L|128:68,1,82.5000031471254
276,152,166439,2,0,L|380:168,1,82.5000031471254
416,292,166657,2,0,L|356:360,1,82.5000031471254
244,328,166874,2,0,L|224:240,1,82.5000031471254
288,160,167091,2,0,L|380:192,1,82.5000031471254
144,320,167309,5,0,0:0:0:0:
80,224,167417,1,0,0:0:0:0:
180,164,167526,1,0,0:0:0:0:
240,264,167635,1,0,0:0:0:0:
124,268,167744,5,0,0:0:0:0:
192,176,167852,1,0,0:0:0:0:
284,248,167961,1,0,0:0:0:0:
208,336,168070,1,0,0:0:0:0:
160,232,168178,5,0,0:0:0:0:
120,124,168287,1,0,0:0:0:0:
76,20,168396,1,0,0:0:0:0:
172,20,168504,5,0,0:0:0:0:
288,24,168613,1,0,0:0:0:0:
396,68,168722,1,0,0:0:0:0:
464,160,168831,1,0,0:0:0:0:
500,268,168939,1,0,0:0:0:0:
376,332,169048,5,0,0:0:0:0:
372,192,169157,1,0,0:0:0:0:
244,252,169265,1,0,0:0:0:0:
380,288,169374,1,0,0:0:0:0:
272,196,169483,5,0,0:0:0:0:
292,336,169591,1,0,0:0:0:0:
384,232,169700,1,0,0:0:0:0:
256,288,169809,1,0,0:0:0:0:
116,312,169917,5,0,0:0:0:0:
44,192,170026,1,0,0:0:0:0:
68,52,170135,1,0,0:0:0:0:
204,20,170244,5,0,0:0:0:0:
140,144,170352,1,0,0:0:0:0:
276,176,170461,1,0,0:0:0:0:
324,44,170570,1,0,0:0:0:0:
184,68,170678,5,0,0:0:0:0:
152,64,170787,6,0,P|76:96|184:228,1,247.500009441376
112,128,171222,2,0,P|88:224|32:268,1,165.000006294251
176,340,171657,2,0,P|268:340|328:288,1,165.000006294251
268,120,172091,2,0,L|412:272,1,165.000006294251
460,116,172526,6,0,L|452:16,1,82.5000031471254
312,24,172744,1,0,0:0:0:0:
52,268,172852,6,0,L|60:368,1,82.5000031471254
264,312,173178,6,0,L|384:316,1,82.5000031471254
236,232,173396,2,0,L|132:216,1,82.5000031471254
96,92,173613,6,0,L|156:24,1,82.5000031471254
268,56,173831,2,0,L|288:144,1,82.5000031471254
224,224,174048,2,0,L|132:192,1,82.5000031471254
192,64,174265,5,0,0:0:0:0:
267,35,174374,1,0,0:0:0:0:
344,60,174483,1,0,0:0:0:0:
390,127,174591,1,0,0:0:0:0:
384,207,174700,1,0,0:0:0:0:
328,264,174809,5,0,0:0:0:0:
296,190,174917,1,0,0:0:0:0:
219,169,175026,1,0,0:0:0:0:
154,215,175135,1,0,0:0:0:0:
149,295,175244,1,0,0:0:0:0:
212,348,175352,5,0,0:0:0:0:
229,269,175461,1,0,0:0:0:0:
186,201,175570,1,0,0:0:0:0:
112,184,175678,1,0,0:0:0:0:
58,124,175787,1,0,0:0:0:0:
344,288,176004,5,0,0:0:0:0:
384,128,176222,2,0,L|364:192,1,41.2500015735627
412,36,176657,1,0,0:0:0:0:
344,288,176874,1,0,0:0:0:0:
384,128,177309,2,0,L|364:192,1,41.2500015735627
124,76,177744,6,0,L|208:80,1,82.5000031471254
388,308,177961,6,0,L|304:304,1,82.5000031471254
140,324,178178,6,0,L|144:236,1,82.5000031471254
372,60,178396,6,0,L|368:148,1,82.5000031471254
184,192,178613,5,0,0:0:0:0:
328,192,178722,1,0,0:0:0:0:
172,92,178831,5,0,0:0:0:0:
339,291,178939,1,0,0:0:0:0:
172,291,179048,5,0,0:0:0:0:
339,92,179157,1,0,0:0:0:0:
100,204,179265,5,0,0:0:0:0:
392,160,179374,1,0,0:0:0:0:
100,204,179483,5,0,0:0:0:0:
252,64,179591,1,0,0:0:0:0:
100,204,179700,5,0,0:0:0:0:
339,92,179809,1,0,0:0:0:0:
432,112,179917,6,0,L|404:32,1,82.5000031471254
304,232,180135,2,0,L|292:140,1,82.5000031471254
144,100,180352,5,0,0:0:0:0:
420,236,180461,1,0,0:0:0:0:
160,200,180570,5,0,0:0:0:0:
472,144,180678,1,0,0:0:0:0:
272,40,180787,5,0,0:0:0:0:
244,324,180896,1,0,0:0:0:0:
404,96,181004,5,0,0:0:0:0:
68,128,181113,1,0,0:0:0:0:
152,84,181222,6,0,L|152:176,1,82.5000031471254
372,156,181439,6,0,L|372:248,1,82.5000031471254
216,228,181657,6,0,L|216:320,1,82.5000031471254
300,44,181874,6,0,L|300:136,1,82.5000031471254
156,302,182091,5,0,0:0:0:0:
110,161,182200,1,0,0:0:0:0:
210,50,182309,1,0,0:0:0:0:
355,81,182417,1,0,0:0:0:0:
401,222,182526,1,0,0:0:0:0:
301,333,182635,1,0,0:0:0:0:
191,209,182744,5,0,0:0:0:0:
273,127,182852,1,0,0:0:0:0:
303,239,182961,1,0,0:0:0:0:
156,81,183070,5,0,0:0:0:0:
110,222,183178,1,0,0:0:0:0:
210,333,183287,1,0,0:0:0:0:
355,302,183396,1,0,0:0:0:0:
401,161,183504,1,0,0:0:0:0:
301,50,183613,1,0,0:0:0:0:
191,174,183722,5,0,0:0:0:0:
273,256,183831,1,0,0:0:0:0:
303,144,183939,1,0,0:0:0:0:
363,84,184048,5,0,0:0:0:0:
109,152,184157,1,0,0:0:0:0:
295,338,184265,1,0,0:0:0:0:
148,84,184374,5,0,0:0:0:0:
216,338,184483,1,0,0:0:0:0:
402,152,184591,1,0,0:0:0:0:
264,68,184700,6,0,L|184:100,1,82.5000031471254
152,200,184917,2,0,L|72:232,1,82.5000031471254
372,236,185135,6,0,L|452:268,1,82.5000031471254
212,48,185352,2,0,L|288:78,1,82.5000031471254
352,168,185570,5,0,0:0:0:0:
192,144,185678,1,0,0:0:0:0:
336,276,185787,5,0,0:0:0:0:
76,304,185896,1,0,0:0:0:0:
388,228,186004,5,0,0:0:0:0:
112,200,186113,1,0,0:0:0:0:
44,68,186222,5,0,0:0:0:0:
456,44,186331,1,0,0:0:0:0:
324,326,186439,5,0,0:0:0:0:
209,335,186548,1,0,0:0:0:0:
121,260,186657,5,0,0:0:0:0:
112,145,186765,1,0,0:0:0:0:
187,57,186874,5,0,0:0:0:0:
302,48,186983,1,0,0:0:0:0:
390,123,187091,5,0,0:0:0:0:
399,238,187200,1,0,0:0:0:0:
324,326,187309,5,0,0:0:0:0:
209,335,187417,1,0,0:0:0:0:
121,260,187526,5,0,0:0:0:0:
112,145,187635,1,0,0:0:0:0:
187,57,187744,5,0,0:0:0:0:
302,48,187852,1,0,0:0:0:0:
390,123,187961,5,0,0:0:0:0:
399,238,188070,1,0,0:0:0:0:
173,318,188178,5,0,0:0:0:0:
403,160,188287,1,0,0:0:0:0:
108,223,188396,5,0,0:0:0:0:
382,274,188504,1,0,0:0:0:0:
129,109,188613,5,0,0:0:0:0:
287,339,188722,1,0,0:0:0:0:
224,44,188831,5,0,0:0:0:0:
338,65,188939,1,0,0:0:0:0:
216,316,189048,6,0,L|144:260,1,82.5000031471254
336,252,189265,2,0,L|401:201,1,82.5000031471254
112,64,189483,6,0,L|40:120,1,82.5000031471254
232,128,189700,2,0,L|297:178,1,82.5000031471254
320,72,189917,5,0,0:0:0:0:
128,208,190026,1,0,0:0:0:0:
396,60,190135,5,0,0:0:0:0:
144,328,190244,1,0,0:0:0:0:
112,80,190352,5,0,0:0:0:0:
304,216,190461,1,0,0:0:0:0:
72,148,190570,5,0,0:0:0:0:
307,149,190678,1,0,0:0:0:0:
100,236,190787,5,0,0:0:0:0:
373,164,190896,1,0,0:0:0:0:
128,320,191004,5,0,0:0:0:0:
434,178,191113,1,0,0:0:0:0:
124,64,191222,5,0,0:0:0:0:
124,68,191331,5,0,0:0:0:0:
128,60,191439,5,0,0:0:0:0:
32,344,191548,1,0,0:0:0:0:
212,88,191657,5,0,0:0:0:0:
168,376,191765,1,0,0:0:0:0:
300,88,191874,5,0,0:0:0:0:
344,376,191983,1,0,0:0:0:0:
384,60,192091,5,0,0:0:0:0:
480,344,192200,1,0,0:0:0:0:
464,132,192309,5,0,0:0:0:0:
352,256,192417,1,0,0:0:0:0:
472,208,192526,5,0,0:0:0:0:
244,228,192635,1,0,0:0:0:0:
352,360,192744,5,0,0:0:0:0:
80,284,192852,1,0,0:0:0:0:
464,252,192961,5,0,0:0:0:0:
352,128,193070,1,0,0:0:0:0:
472,176,193178,5,0,0:0:0:0:
244,156,193287,1,0,0:0:0:0:
352,24,193396,5,0,0:0:0:0:
80,100,193504,1,0,0:0:0:0:
360,192,193613,5,0,0:0:0:0:
144,212,193722,1,0,0:0:0:0:
428,92,193831,5,0,0:0:0:0:
64,88,193939,1,0,0:0:0:0:
456,212,194048,5,0,0:0:0:0:
180,316,194157,1,0,0:0:0:0:
360,12,194265,5,0,0:0:0:0:
336,159,194374,1,0,0:0:0:0:
212,44,194483,5,0,0:0:0:0:
249,248,194591,1,0,0:0:0:0:
304,184,194700,5,0,0:0:0:0:
179,311,194809,1,0,0:0:0:0:
444,64,194917,5,0,0:0:0:0:
479,340,195026,1,0,0:0:0:0:
356,280,195135,5,0,0:0:0:0:
252,116,195244,1,0,0:0:0:0:
448,140,195352,5,0,0:0:0:0:
312,48,195461,1,0,0:0:0:0:
136,300,195570,5,0,0:0:0:0:
188,60,195678,1,0,0:0:0:0:
76,228,195787,5,0,0:0:0:0:
284,328,195896,1,0,0:0:0:0:
194,130,196004,5,0,0:0:0:0:
194,253,196113,1,0,0:0:0:0:
317,253,196222,1,0,0:0:0:0:
317,130,196331,1,0,0:0:0:0:
133,147,196439,5,0,0:0:0:0:
211,314,196548,1,0,0:0:0:0:
378,236,196657,1,0,0:0:0:0:
300,69,196765,1,0,0:0:0:0:
402,138,196874,5,0,0:0:0:0:
309,338,196983,1,0,0:0:0:0:
109,245,197091,1,0,0:0:0:0:
202,45,197200,1,0,0:0:0:0:
329,118,197309,5,0,0:0:0:0:
329,265,197417,1,0,0:0:0:0:
182,265,197526,1,0,0:0:0:0:
182,118,197635,1,0,0:0:0:0:
256,166,197744,5,0,0:0:0:0:
281,192,197852,1,0,0:0:0:0:
255,217,197961,1,0,0:0:0:0:
230,191,198070,1,0,0:0:0:0:
256,132,198178,5,0,0:0:0:0:
256,80,198287,5,0,0:0:0:0:
253,28,198396,5,0,0:0:0:0:
190,180,198504,1,0,0:0:0:0:
127,333,198613,1,0,0:0:0:0:
273,256,198722,1,0,0:0:0:0:
421,180,198831,1,0,0:0:0:0:
256,180,198939,1,0,0:0:0:0:
91,180,199048,1,0,0:0:0:0:
236,257,199157,1,0,0:0:0:0:
382,334,199265,1,0,0:0:0:0:
318,182,199374,1,0,0:0:0:0:
295,32,199483,5,0,0:0:0:0:
195,163,199591,1,0,0:0:0:0:
94,294,199700,1,0,0:0:0:0:
255,258,199809,1,0,0:0:0:0:
418,223,199917,1,0,0:0:0:0:
259,180,200026,1,0,0:0:0:0:
99,137,200135,1,0,0:0:0:0:
219,249,200244,1,0,0:0:0:0:
340,361,200352,1,0,0:0:0:0:
318,198,200461,1,0,0:0:0:0:
335,47,200570,5,0,0:0:0:0:
204,148,200678,1,0,0:0:0:0:
73,248,200787,1,0,0:0:0:0:
237,255,200896,1,0,0:0:0:0:
404,263,201004,1,0,0:0:0:0:
262,181,201113,1,0,0:0:0:0:
118,98,201222,1,0,0:0:0:0:
205,237,201331,1,0,0:0:0:0:
293,376,201439,1,0,0:0:0:0:
314,213,201548,1,0,0:0:0:0:
358,62,201657,5,0,0:0:0:0:
212,139,201765,1,0,0:0:0:0:
66,215,201874,1,0,0:0:0:0:
226,250,201983,1,0,0:0:0:0:
389,287,202091,1,0,0:0:0:0:
263,182,202200,1,0,0:0:0:0:
136,75,202309,1,0,0:0:0:0:
197,227,202417,1,0,0:0:0:0:
260,379,202526,1,0,0:0:0:0:
309,222,202635,1,0,0:0:0:0:
379,82,202744,5,0,0:0:0:0:
222,132,202852,1,0,0:0:0:0:
64,182,202961,1,0,0:0:0:0:
216,244,203070,1,0,0:0:0:0:
370,309,203178,1,0,0:0:0:0:
265,183,203287,1,0,0:0:0:0:
158,56,203396,1,0,0:0:0:0:
192,216,203504,1,0,0:0:0:0:
227,377,203613,1,0,0:0:0:0:
303,231,203722,1,0,0:0:0:0:
396,105,203831,5,0,0:0:0:0:
232,127,203939,1,0,0:0:0:0:
69,148,204048,1,0,0:0:0:0:
208,237,204157,1,0,0:0:0:0:
348,327,204265,1,0,0:0:0:0:
266,185,204374,1,0,0:0:0:0:
183,41,204483,1,0,0:0:0:0:
189,205,204591,1,0,0:0:0:0:
196,369,204700,1,0,0:0:0:0:
385,223,204809,5,0,0:0:0:0:
218,62,204917,1,0,0:0:0:0:
162,286,205026,1,0,0:0:0:0:
124,171,205135,5,0,0:0:0:0:
339,88,205244,1,0,0:0:0:0:
303,316,205352,1,0,0:0:0:0:
256,120,205461,5,0,0:0:0:0:
192,240,205570,5,0,0:0:0:0:
104,116,205678,1,0,0:0:0:0:
320,240,205787,5,0,0:0:0:0:
408,116,205896,1,0,0:0:0:0:
144,332,206004,5,0,0:0:0:0:
73,168,206113,1,0,0:0:0:0:
368,332,206222,5,0,0:0:0:0:
439,168,206331,1,0,0:0:0:0:
348,264,206439,5,0,0:0:0:0:
312,136,206548,1,0,0:0:0:0:
228,268,206657,5,0,0:0:0:0:
280,104,206765,1,0,0:0:0:0:
300,296,206874,5,0,0:0:0:0:
228,92,206983,1,0,0:0:0:0:
339,268,207091,5,0,0:0:0:0:
188,114,207200,1,0,0:0:0:0:
363,226,207309,5,0,0:0:0:0:
161,150,207417,1,0,0:0:0:0:
367,177,207526,5,0,0:0:0:0:
152,194,207635,1,0,0:0:0:0:
350,131,207744,5,0,0:0:0:0:
162,237,207852,1,0,0:0:0:0:
432,184,207961,5,0,0:0:0:0:
88,192,208070,1,0,0:0:0:0:
80,340,208178,5,0,0:0:0:0:
348,320,208287,1,0,0:0:0:0:
80,236,208396,5,0,0:0:0:0:
348,240,208504,1,0,0:0:0:0:
84,136,208613,5,0,0:0:0:0:
351,163,208722,1,0,0:0:0:0:
84,40,208831,5,0,0:0:0:0:
352,84,208939,1,0,0:0:0:0:
432,332,209048,5,0,0:0:0:0:
412,64,209157,1,0,0:0:0:0:
328,332,209265,5,0,0:0:0:0:
332,64,209374,1,0,0:0:0:0:
228,328,209483,5,0,0:0:0:0:
255,61,209591,1,0,0:0:0:0:
132,328,209700,5,0,0:0:0:0:
176,60,209809,1,0,0:0:0:0:
194,254,209917,5,0,0:0:0:0:
194,131,210026,1,0,0:0:0:0:
317,131,210135,1,0,0:0:0:0:
317,254,210244,1,0,0:0:0:0:
133,237,210352,5,0,0:0:0:0:
211,70,210461,1,0,0:0:0:0:
378,148,210570,1,0,0:0:0:0:
300,315,210678,1,0,0:0:0:0:
402,246,210787,5,0,0:0:0:0:
309,46,210896,1,0,0:0:0:0:
109,139,211004,1,0,0:0:0:0:
202,339,211113,1,0,0:0:0:0:
329,266,211222,5,0,0:0:0:0:
329,119,211331,1,0,0:0:0:0:
182,119,211439,1,0,0:0:0:0:
182,266,211548,1,0,0:0:0:0:
256,218,211657,5,0,0:0:0:0:
281,192,211765,1,0,0:0:0:0:
255,167,211874,1,0,0:0:0:0:
230,193,211983,1,0,0:0:0:0:
256,244,212091,5,0,0:0:0:0:
204,192,212200,1,0,0:0:0:0:
256,141,212309,1,0,0:0:0:0:
307,193,212417,1,0,0:0:0:0:
348,300,212526,5,0,0:0:0:0:
404,204,212635,1,0,0:0:0:0:
316,228,212744,5,0,0:0:0:0:
264,76,212852,1,0,0:0:0:0:
264,160,212961,5,0,0:0:0:0:
120,60,213070,1,0,0:0:0:0:
168,136,213178,5,0,0:0:0:0:
64,292,213287,1,0,0:0:0:0:
152,248,213396,5,0,0:0:0:0:
368,328,213504,1,0,0:0:0:0:
288,280,213613,5,0,0:0:0:0:
336,112,213722,1,0,0:0:0:0:
272,216,213831,5,0,0:0:0:0:
212,36,213939,1,0,0:0:0:0:
216,280,214048,5,0,0:0:0:0:
324,16,214157,1,0,0:0:0:0:
348,256,214265,5,0,0:0:0:0:
172,176,214374,1,0,0:0:0:0:
396,204,214483,5,0,0:0:0:0:
120,148,214591,1,0,0:0:0:0:
416,144,214700,5,0,0:0:0:0:
64,148,214809,1,0,0:0:0:0:
380,228,214917,5,0,0:0:0:0:
147,226,215026,1,0,0:0:0:0:
405,295,215135,5,0,0:0:0:0:
76,229,215244,1,0,0:0:0:0:
396,358,215352,5,0,0:0:0:0:
15,205,215461,1,0,0:0:0:0:
444,200,215570,5,0,0:0:0:0:
68,200,215678,1,0,0:0:0:0:
412,124,215787,5,0,0:0:0:0:
100,124,215896,1,0,0:0:0:0:
195,112,216004,5,0,0:0:0:0:
350,222,216113,1,0,0:0:0:0:
160,225,216222,1,0,0:0:0:0:
311,111,216330,1,0,0:0:0:0:
256,293,216439,1,0,0:0:0:0:
148,168,216548,5,0,0:0:0:0:
327,276,216657,1,0,0:0:0:0:
163,107,216765,1,0,0:0:0:0:
163,107,216874,5,0,0:0:0:0:
378,208,216983,1,0,0:0:0:0:
145,254,217091,1,0,0:0:0:0:
307,80,217200,1,0,0:0:0:0:
278,315,217309,1,0,0:0:0:0:
117,186,217417,5,0,0:0:0:0:
362,280,217526,1,0,0:0:0:0:
123,108,217635,1,0,0:0:0:0:
123,108,217744,5,0,0:0:0:0:
410,186,217852,1,0,0:0:0:0:
133,292,217961,1,0,0:0:0:0:
294,43,218070,1,0,0:0:0:0:
310,339,218178,1,0,0:0:0:0:
84,214,218287,5,0,0:0:0:0:
405,277,218396,1,0,0:0:0:0:
97,91,218504,1,0,0:0:0:0:
97,91,218613,5,0,0:0:0:0:
441,184,218722,1,0,0:0:0:0:
109,311,218830,1,0,0:0:0:0:
302,13,218939,1,0,0:0:0:0:
321,368,219048,1,0,0:0:0:0:
256,192,219157,5,0,0:0:0:0:
260,188,219265,1,0,0:0:0:0:
264,184,219374,1,0,0:0:0:0:
268,184,219483,1,0,0:0:0:0:
372,196,219591,5,0,0:0:0:0:
272,84,219700,1,0,0:0:0:0:
404,136,219809,5,0,0:0:0:0:
208,108,219917,1,0,0:0:0:0:
400,72,220026,5,0,0:0:0:0:
144,128,220135,1,0,0:0:0:0:
372,12,220244,5,0,0:0:0:0:
80,176,220352,5,0,0:0:0:0:
80,317,220461,1,0,0:0:0:0:
201,246,220570,5,0,0:0:0:0:
332,196,220678,1,0,0:3:0:0:
445,112,220787,5,0,0:3:0:0:
315,59,220896,1,0,0:3:0:0:
432,176,221004,5,0,0:0:0:0:
432,317,221113,1,0,0:0:0:0:
311,246,221222,5,0,0:0:0:0:
180,196,221330,1,0,0:3:0:0:
67,112,221439,5,0,0:3:0:0:
197,59,221548,1,0,0:3:0:0:
200,328,221657,5,0,0:0:0:0:
304,104,221765,1,0,0:0:0:0:
312,328,221874,5,0,0:0:0:0:
208,104,221983,1,0,0:0:0:0:
256,344,222091,5,0,0:0:0:0:
229,49,222200,1,0,0:0:0:0:
372,277,222309,5,0,0:0:0:0:
129,107,222417,1,0,0:0:0:0:
256,344,222526,5,0,0:0:0:0:
283,49,222635,1,0,0:0:0:0:
140,277,222744,5,0,0:0:0:0:
383,107,222852,1,0,0:0:0:0:
56,296,222961,5,0,0:0:0:0:
220,272,223070,1,0,0:0:0:0:
152,192,223178,5,0,0:0:0:0:
368,212,223287,1,0,0:0:0:0:
84,92,223396,5,0,0:0:0:0:
448,88,223504,1,0,0:0:0:0:
56,212,223613,5,0,0:0:0:0:
332,316,223722,1,0,0:0:0:0:
456,88,223830,5,0,0:0:0:0:
292,112,223939,1,0,0:0:0:0:
360,192,224048,5,0,0:0:0:0:
144,172,224157,1,0,0:0:0:0:
428,292,224265,5,0,0:0:0:0:
64,296,224374,1,0,0:0:0:0:
456,172,224483,5,0,0:0:0:0:
180,68,224591,1,0,0:0:0:0:
360,372,224700,5,0,0:0:0:0:
336,225,224809,1,0,0:0:0:0:
256,286,224917,5,0,0:0:0:0:
276,92,225026,1,0,0:0:0:0:
156,347,225135,5,0,0:0:0:0:
152,20,225244,1,0,0:0:0:0:
276,372,225352,5,0,0:0:0:0:
380,124,225461,1,0,0:0:0:0:
360,13,225570,5,0,0:0:0:0:
336,160,225678,1,0,0:0:0:0:
256,99,225787,5,0,0:0:0:0:
276,293,225896,1,0,0:0:0:0:
156,38,226004,5,0,0:0:0:0:
152,365,226113,1,0,0:0:0:0:
97,91,226222,5,0,0:0:0:0:
441,184,226330,1,0,0:0:0:0:
109,311,226439,1,0,0:0:0:0:
302,13,226548,1,0,0:0:0:0:
321,368,226657,1,0,0:0:0:0:
67,201,226765,5,0,0:0:0:0:
402,80,226874,1,0,0:0:0:0:
203,374,226983,1,0,0:0:0:0:
191,19,227091,1,0,0:0:0:0:
410,299,227200,1,0,0:0:0:0:
106,307,227309,5,0,0:0:0:0:
311,16,227417,1,0,0:0:0:0:
317,371,227526,1,0,0:0:0:0:
103,88,227635,1,0,0:0:0:0:
443,192,227744,1,0,0:0:0:0:
199,372,227852,5,0,0:0:0:0:
200,16,227961,1,0,0:0:0:0:
408,304,228070,1,0,0:0:0:0:
71,194,228178,1,0,0:0:0:0:
409,84,228287,1,0,0:0:0:0:
312,372,228396,5,0,0:0:0:0:
109,80,228504,1,0,0:0:0:0:
444,196,228613,1,0,0:0:0:0:
105,300,228722,1,0,0:0:0:0:
319,16,228830,1,0,0:0:0:0:
227,282,228939,5,0,0:0:0:0:
228,104,229048,1,0,0:0:0:0:
332,248,229157,1,0,0:0:0:0:
163,193,229265,1,0,0:0:0:0:
332,138,229374,1,0,0:0:0:0:
270,237,229483,5,0,0:0:0:0:
219,164,229591,5,0,0:0:0:0:
303,193,229700,5,0,0:0:0:0:
218,219,229809,5,0,0:0:0:0:
271,148,229917,5,0,0:0:0:0:
227,282,230026,5,0,0:0:0:0:
228,104,230135,1,0,0:0:0:0:
332,248,230244,1,0,0:0:0:0:
163,193,230352,1,0,0:0:0:0:
332,138,230461,1,0,0:0:0:0:
312,372,230570,5,0,0:0:0:0:
109,80,230678,1,0,0:0:0:0:
444,196,230787,1,0,0:0:0:0:
105,300,230896,1,0,0:0:0:0:
319,16,231004,1,0,0:0:0:0:
199,372,231113,5,0,0:0:0:0:
200,16,231222,1,0,0:0:0:0:
407,304,231330,1,0,0:0:0:0:
71,194,231439,1,0,0:0:0:0:
409,84,231548,1,0,0:0:0:0:
325,328,231656,5,0,0:0:0:0:
124,126,231765,1,0,0:0:0:0:
405,172,231874,1,0,0:0:0:0:
152,300,231982,1,0,0:0:0:0:
281,46,232091,1,0,0:0:0:0:
282,304,232200,5,0,0:0:0:0:
300,90,232308,1,0,0:0:0:0:
160,252,232417,1,0,0:0:0:0:
367,204,232526,1,0,0:0:0:0:
171,120,232635,1,0,0:0:0:0:
225,252,232743,5,0,0:0:0:0:
313,164,232852,1,0,0:0:0:0:
191,184,232961,1,0,0:0:0:0:
301,240,233069,1,0,0:0:0:0:
244,130,233178,1,0,0:0:0:0:
256,192,233287,5,0,0:0:0:0:
256,192,233358,12,0,234663,0:0:0:0:
