osu file format v14

[General]
AudioFilename: The Knocks - Classic feat. Powers (Official Video).mp3
AudioLeadIn: 800
PreviewTime: 43950
Countdown: 0
SampleSet: Normal
StackLeniency: 0.7
Mode: 0
LetterboxInBreaks: 0
CountdownOffset: 3
WidescreenStoryboard: 0

[Editor]
Bookmarks: 2480,11891,21303,30715,40127,44832,61303,63656,73068,82479,91891
DistanceSpacing: 0.8
BeatDivisor: 4
GridSize: 4
TimelineZoom: 1.3

[Metadata]
Title:Classic (feat. Powers)
TitleUnicode:Classic (feat. Powers)
Artist:The Knocks
ArtistUnicode:The Knocks
Creator:MkGuh
Version:MkLexia's Easy
Source:
Tags:Cut Short Ver The Sims Hoen LexiaLovesU
BeatmapID:765775
BeatmapSetID:322963

[Difficulty]
HPDrainRate:3
CircleSize:3
OverallDifficulty:3
ApproachRate:4
SliderMultiplier:1.2
SliderTickRate:1

[Events]
//Background and Video events
0,0,"guh1366.jpg",0,0
//Break Periods
2,45032,61303
//Storyboard Layer 0 (Background)
//Storyboard Layer 1 (Fail)
//Storyboard Layer 2 (Pass)
//Storyboard Layer 3 (Foreground)
//Storyboard Sound Samples

[TimingPoints]
2480,588.235294117647,4,1,0,55,1,0
44832,-100,4,2,0,55,0,0
63656,-100,4,1,0,55,0,0
73068,-100,4,1,0,70,0,1
91891,-100,4,1,0,70,0,0

[Colours]
Combo1 : 128,64,64
Combo2 : 255,128,64
Combo3 : 128,0,0

[HitObjects]
96,136,2480,6,0,P|132:88|200:76,1,120,4|8,0:0|0:0,0:0:0:0:
186,170,3656,2,0,P|206:218|182:298,1,120,0|8,0:0|0:0,0:0:0:0:
256,352,4832,2,0,P|312:372|376:348,1,120,0|8,0:0|0:0,0:0:0:0:
452,308,6009,1,0,0:0:0:0:
420,216,6597,1,8,0:0:0:0:
448,124,7185,5,0,0:0:0:0:
372,68,7774,2,0,P|300:48|252:72,1,120,8|0,0:0|0:0,0:0:0:0:
316,144,8950,1,8,0:0:0:0:
220,160,9538,1,0,0:0:0:0:
124,144,10127,2,0,B|132:216|84:252|84:252|132:284|120:368,1,240,8|8,0:0|0:0,0:0:0:0:
216,356,11891,6,0,P|245:360|275:355,2,60,0|0|8,0:0|0:0|0:0,0:0:0:0:
244,264,13068,2,0,B|304:248|304:248|364:260,1,120,0|8,0:0|0:0,0:0:0:0:
448,296,14244,2,0,P|452:244|420:184,1,120,0|8,0:0|0:0,0:0:0:0:
356,112,15421,2,0,P|384:96|424:88,2,60,0|0|8,0:0|0:0|0:0,0:0:0:0:
272,160,16597,6,0,P|208:168|144:144,1,120,0|8,0:0|0:0,0:0:0:0:
64,120,17774,2,0,L|96:68,2,60,0|0|8,0:0|0:0|0:0,0:0:0:0:
24,208,18950,2,0,P|52:296|72:312,1,120,0|8,0:0|0:0,0:0:0:0:
168,300,20127,2,0,B|224:276|224:276|292:296,1,120,0|8,0:0|0:0,0:0:0:0:
372,320,21303,6,0,P|432:312|476:256,2,120,0|8|0,0:0|0:0|0:0,0:0:0:0:
324,236,23068,2,0,P|316:192|372:116,1,120,8|0,0:0|0:0,0:0:0:0:
256,104,24244,1,8,0:0:0:0:
164,128,24832,2,0,P|196:177|191:236,1,120,0|8,0:0|0:0,0:0:0:0:
100,204,26009,1,0,0:0:0:0:
36,132,26597,6,0,L|108:16,2,120,8|0|8,0:0|0:0|0:0,0:0:0:0:
8,224,28362,2,0,P|36:288|200:280,1,240
272,248,30127,1,8,0:0:0:0:
340,316,30715,6,0,P|400:332|452:304,1,120,0|8,0:0|0:0,0:0:0:0:
492,220,31891,2,0,P|492:156|444:108,1,120,0|8,0:0|0:0,0:0:0:0:
364,96,33068,2,0,P|384:52|432:24,2,90,0|0|0,0:0|0:0|0:0,0:0:0:0:
316,180,34538,2,0,P|283:183|248:172,1,60,8|8,0:0|0:0,0:0:0:0:
184,112,35421,6,0,P|136:72|72:52,2,120,0|8|0,0:0|0:0|0:0,0:0:0:0:
228,196,37185,1,8,0:0:0:0:
264,284,37774,2,0,P|312:304|392:276,1,120,0|8,0:0|0:0,0:0:0:0:
460,244,38950,2,0,P|476:280|508:304,2,60,0|8|8,0:0|0:0|0:0,0:0:0:0:
456,148,40127,6,0,P|416:104|352:96,1,120,0|8,0:0|0:0,0:0:0:0:
372,188,41303,2,0,P|316:212|260:192,1,120,0|8,0:0|0:0,0:0:0:0:
316,116,42479,2,0,P|260:100|172:228,1,240,0|8,0:0|0:0,0:0:0:0:
244,288,44244,1,8,0:0:0:0:
262,193,44832,5,2,0:0:0:0:
84,172,63656,5,4,0:0:0:0:
116,264,64244,2,0,P|80:272|44:256,2,60,8|0|0,0:0|0:0|0:0,0:0:0:0:
200,216,65421,1,8,0:0:0:0:
253,135,66009,2,0,P|290:181|292:240,1,120,0|8,0:0|0:0,0:0:0:0:
264,332,67185,2,0,P|208:336|188:340,2,60,0|8|8,0:0|0:0|0:0,0:0:0:0:
360,336,68362,6,0,B|380:328|404:304|404:304|400:268|420:216,1,120,0|8,0:0|0:0,0:0:0:0:
432,144,69538,2,0,P|428:92|384:44,1,120,0|8,0:0|0:0,0:0:0:0:
336,128,70715,2,0,P|256:140|200:120,1,120,0|8,0:0|0:0,0:0:0:0:
140,76,71891,2,0,P|160:52|200:36,2,60,0|8|8,0:0|0:0|0:0,0:0:0:0:
76,148,73068,5,0,0:0:0:0:
132,228,73656,2,0,B|120:260|136:292|136:292|152:328|128:364,2,120,8|0|8,0:0|0:0|0:0,0:0:0:0:
228,244,75421,2,0,P|280:224|348:252,1,120,0|8,0:0|0:0,0:0:0:0:
360,152,76597,2,0,P|416:172|472:156,1,120,0|8,0:0|0:0,0:0:0:0:
420,76,77774,6,0,P|304:72|264:176,1,240,0|0,0:0|0:0,0:0:0:0:
324,248,79538,1,8,0:0:0:0:
256,316,80127,1,0,0:0:0:0:
192,244,80715,2,0,P|136:224|72:256,2,120,8|0|8,0:0|0:0|0:0,0:0:0:0:
256,316,82479,6,0,P|328:320|380:280,1,120,4|8,0:0|0:0,0:0:0:0:
436,228,83656,2,0,P|456:256|464:292,2,60,0|0|8,0:0|0:0|0:0,0:0:0:0:
396,140,84832,2,0,P|420:132|460:140,2,60,0|0|8,0:0|0:0|0:0,0:0:0:0:
300,148,86009,2,0,P|308:96|316:80,2,60,0|0|8,0:0|0:0|0:0,0:0:0:0:
288,244,87185,6,0,P|244:260|164:248,1,120,0|8,0:0|0:0,0:0:0:0:
76,244,88362,2,0,L|56:300,2,60,0|0|8,0:0|0:0|0:0,0:0:0:0:
112,156,89538,1,0,0:0:0:0:
172,80,90127,2,0,P|208:72|252:76,1,60,0|0,0:0|0:0,0:0:0:0:
316,116,91009,6,0,B|360:132|400:108|400:108|392:60|436:24,1,180,0|4,0:0|0:0,0:0:0:0:
