osu file format v14

[General]
AudioFilename: The Knocks - Classic feat. Powers (Official Video).mp3
AudioLeadIn: 800
PreviewTime: 43950
Countdown: 0
SampleSet: Normal
StackLeniency: 0.7
Mode: 0
LetterboxInBreaks: 0
CountdownOffset: 3
WidescreenStoryboard: 0

[Editor]
Bookmarks: 127,44832,60257
DistanceSpacing: 1
BeatDivisor: 4
GridSize: 4
TimelineZoom: 1.3

[Metadata]
Title:Classic (feat. Powers)
TitleUnicode:Classic (feat. Powers)
Artist:The Knocks
ArtistUnicode:The Knocks
Creator:MkGuh
Version:Hard
Source:
Tags:Cut Short Ver The Sims Hoen LexiaLovesU
BeatmapID:717959
BeatmapSetID:322963

[Difficulty]
HPDrainRate:5.5
CircleSize:4
OverallDifficulty:5.5
ApproachRate:8
SliderMultiplier:2
SliderTickRate:2

[Events]
//Background and Video events
0,0,"guh1366.jpg",0,0
//Break Periods
2,45032,60553
//Storyboard Layer 0 (Background)
//Storyboard Layer 1 (Fail)
//Storyboard Layer 2 (Pass)
//Storyboard Layer 3 (Foreground)
//Storyboard Sound Samples

[TimingPoints]
2480,588.235294117647,4,1,0,55,1,0
44832,-100,4,2,0,55,0,0
63656,-100,4,1,0,55,0,0
73068,-83.3333333333333,4,1,0,70,0,1
91891,-100,4,1,0,70,0,0

[Colours]
Combo1 : 128,64,64
Combo2 : 255,128,64
Combo3 : 128,0,0

[HitObjects]
320,328,2480,6,0,P|376:328|420:284,1,100,4|0,0:0|0:0,0:0:0:0:
311,140,3068,2,0,P|310:189|335:231,1,100,8|0,0:0|0:0,0:0:0:0:
412,164,3656,1,0,0:0:0:0:
412,164,3950,1,8,0:0:0:0:
376,72,4244,2,0,P|326:40|262:56,1,100,8|0,0:0|0:0,0:0:0:0:
287,42,4685,1,0,0:0:0:0:
287,42,4832,5,0,0:0:0:0:
224,120,5127,1,0,0:0:0:0:
224,120,5274,2,0,P|236:172|208:240,1,100
200,260,5715,2,0,P|248:244|296:264,1,100
248,348,6303,1,8,0:0:0:0:
347,327,6597,2,0,P|393:343|439:327,1,100,8|0,0:0|0:0,0:0:0:0:
440,327,7038,1,0,0:0:0:0:
440,327,7185,5,0,0:0:0:0:
496,244,7480,1,0,0:0:0:0:
476,196,7627,1,0,0:0:0:0:
456,152,7774,2,0,L|356:84,1,100,8|0,0:0|0:0,0:0:0:0:
373,95,8215,1,0,0:0:0:0:
373,95,8362,1,0,0:0:0:0:
280,56,8656,1,8,0:0:0:0:
188,100,8950,1,8,0:0:0:0:
92,68,9244,1,0,0:0:0:0:
92,68,9391,1,0,0:0:0:0:
92,68,9538,6,0,P|88:128|112:164,1,100
144,196,9980,2,0,P|196:192|236:240,1,100
260,260,10421,1,0,0:0:0:0:
288,300,10568,1,0,0:0:0:0:
316,340,10715,1,0,0:0:0:0:
416,352,11009,1,8,0:0:0:0:
460,264,11303,2,0,P|456:208|420:164,1,100,8|0,0:0|0:0,0:0:0:0:
360,84,11891,6,0,B|416:92|432:32|432:32|500:24|528:84,1,200,0|8,0:0|0:0,0:0:0:0:
484,164,12774,1,0,0:0:0:0:
484,164,12921,1,0,0:0:0:0:
484,164,13068,2,0,P|472:236|492:276,1,100,0|8,0:0|0:0,0:0:0:0:
416,336,13656,2,0,P|367:324|320:339,1,100,8|0,0:0|0:0,0:0:0:0:
224,360,14244,1,0,0:0:0:0:
176,272,14538,1,0,0:0:0:0:
176,272,14832,2,0,P|228:176|316:140,1,200,8|0,0:0|0:0,0:0:0:0:
408,136,15715,1,8,0:0:0:0:
408,36,16009,1,8,0:0:0:0:
308,40,16303,1,0,0:0:0:0:
308,40,16597,6,0,P|260:24|208:40,1,100
213,36,17038,1,0,0:0:0:0:
213,36,17185,1,8,0:0:0:0:
124,84,17479,1,0,0:0:0:0:
96,124,17627,1,0,0:0:0:0:
64,164,17774,2,0,P|36:208|40:264,1,100,0|8,0:0|0:0,0:0:0:0:
88,348,18362,1,8,0:0:0:0:
184,316,18656,1,0,0:0:0:0:
184,316,18803,1,0,0:0:0:0:
184,316,18950,5,0,0:0:0:0:
276,360,19244,1,0,0:0:0:0:
276,360,19391,2,0,P|296:304|276:252,1,100
308,220,19832,2,0,L|335:170,2,50
208,216,20421,1,8,0:0:0:0:
128,156,20715,1,8,0:0:0:0:
152,60,21009,1,0,0:0:0:0:
152,60,21156,1,0,0:0:0:0:
152,60,21303,6,0,P|64:80|32:128,2,150
236,112,22479,2,0,P|284:128|340:104,1,100,0|8,0:0|0:0,0:0:0:0:
284,24,23068,2,0,L|284:244,1,200,8|0,0:0|0:0,0:0:0:0:
364,284,23950,5,0,0:0:0:0:
448,228,24244,2,0,L|480:124,1,100,8|0,0:0|0:0,0:0:0:0:
460,84,24685,1,0,0:0:0:0:
432,44,24832,1,0,0:0:0:0:
340,84,25127,1,8,0:0:0:0:
252,36,25421,2,0,P|240:88|256:140,1,100,8|0,0:0|0:0,0:0:0:0:
180,204,26009,5,0,0:0:0:0:
100,264,26303,1,0,0:0:0:0:
100,264,26597,2,0,P|144:300|200:300,1,100,8|0,0:0|0:0,0:0:0:0:
264,244,27185,2,0,B|316:268|360:256|360:256|344:196|396:152,1,200,0|8,0:0|0:0,0:0:0:0:
336,76,28068,2,0,P|424:72|484:180,1,200
500,204,28803,1,0,0:0:0:0:
512,256,28950,1,8,0:0:0:0:
488,352,29244,1,0,0:0:0:0:
440,344,29391,1,0,0:0:0:0:
392,332,29538,1,0,0:0:0:0:
292,324,29832,5,8,0:0:0:0:
260,228,30127,1,8,0:0:0:0:
160,236,30421,1,0,0:0:0:0:
136,332,30715,6,0,B|64:352|12:340|12:340|0:260,1,200,0|8,0:0|0:0,0:0:0:0:
44,176,31597,1,0,0:0:0:0:
84,148,31744,1,0,0:0:0:0:
128,124,31891,2,0,B|172:80|252:80|252:80|308:128,1,200,0|8,0:0|0:0,0:0:0:0:
400,120,32774,1,0,0:0:0:0:
424,216,33068,6,0,B|380:244|380:308|380:308|332:332,2,150
396,120,34244,2,0,L|296:120,1,100,0|8,0:0|0:0,0:0:0:0:
204,76,34832,2,0,P|196:128|212:176,1,100,8|0,0:0|0:0,0:0:0:0:
244,268,35421,6,0,L|204:368,1,100
308,372,36009,2,0,L|352:268,1,100,8|0,0:0|0:0,0:0:0:0:
408,200,36597,2,0,P|460:212|524:188,1,100
460,112,37185,1,8,0:0:0:0:
460,112,37479,1,0,0:0:0:0:
408,28,37774,6,0,P|356:16|284:28,1,100
244,96,38362,1,8,0:0:0:0:
148,64,38656,1,0,0:0:0:0:
148,64,38803,1,0,0:0:0:0:
148,64,38950,1,0,0:0:0:0:
60,108,39244,1,8,0:0:0:0:
24,200,39538,1,8,0:0:0:0:
60,292,39832,1,0,0:0:0:0:
156,272,40127,6,0,P|208:288|256:272,1,100
320,204,40715,2,0,P|348:248|348:300,1,100,8|0,0:0|0:0,0:0:0:0:
448,308,41303,2,0,P|440:200|384:124,1,200,0|8,0:0|0:0,0:0:0:0:
292,96,42185,1,0,0:0:0:0:
292,96,42479,1,0,0:0:0:0:
92,36,43068,6,0,P|84:84|104:140,1,100,8|0,0:0|0:0,0:0:0:0:
124,176,43509,1,0,0:0:0:0:
156,212,43656,1,8,0:0:0:0:
180,324,43950,1,8,0:0:0:0:
276,348,44244,1,8,0:0:0:0:
340,272,44538,1,2,0:0:0:0:
268,172,44832,5,2,0:0:0:0:
256,192,61303,12,4,63656,0:0:0:0:
184,160,64244,6,0,B|232:148|256:96|256:96|280:148|328:160,1,200,8|0,0:0|0:0,0:0:0:0:
408,96,65127,1,8,0:0:0:0:
488,160,65421,1,8,0:0:0:0:
408,220,65715,1,0,0:0:0:0:
376,260,65862,1,0,0:0:0:0:
348,300,66009,5,0,0:0:0:0:
276,232,66303,2,0,L|232:272,1,50
204,300,66597,2,0,B|144:344|88:292|88:292|100:244|64:208,1,200,8|0,0:0|0:0,0:0:0:0:
20,144,67479,1,8,0:0:0:0:
76,60,67774,1,8,0:0:0:0:
132,144,68068,1,0,0:0:0:0:
172,116,68215,1,0,0:0:0:0:
216,92,68362,6,0,B|260:120|312:92|312:92|296:156|340:188,1,200,0|8,0:0|0:0,0:0:0:0:
412,124,69244,1,0,0:0:0:0:
420,172,69391,1,0,0:0:0:0:
428,220,69538,2,0,L|472:320,1,100,0|8,0:0|0:0,0:0:0:0:
372,344,70127,2,0,B|324:320|276:352|276:352|228:384|180:364,1,200,8|0,0:0|0:0,0:0:0:0:
216,272,71009,5,0,0:0:0:0:
132,216,71303,1,8,0:0:0:0:
132,216,71597,1,0,0:0:0:0:
176,112,71891,5,0,0:0:0:0:
244,68,72185,1,8,0:0:0:0:
268,112,72332,1,0,0:0:0:0:
248,148,72479,1,8,0:0:0:0:
316,32,72774,1,0,0:0:0:0:
316,196,73068,5,0,0:0:0:0:
392,256,73362,2,0,L|364:312,2,59.9999981689454,0|0|8,0:0|0:0|0:0,0:0:0:0:
316,196,73950,1,0,0:0:0:0:
408,172,74244,2,0,B|432:132|384:84|424:40,2,119.999996337891,0|0|8,0:0|0:0|0:0,0:0:0:0:
344,244,75127,1,0,0:0:0:0:
300,260,75274,1,0,0:0:0:0:
256,276,75421,6,0,P|200:292|140:272,2,119.999996337891,0|0|8,0:0|0:0|0:0,0:0:0:0:
200,196,76303,1,0,0:0:0:0:
156,176,76450,1,0,0:0:0:0:
116,152,76597,2,0,B|116:108|116:108|112:96|112:96|120:96|120:96|116:88|116:88|116:36,2,119.999996337891,0|0|8,0:0|0:0|0:0,0:0:0:0:
200,196,77479,1,0,0:0:0:0:
256,116,77774,6,0,B|320:88|376:128,1,119.999996337891
388,168,78215,1,0,0:0:0:0:
404,212,78362,1,8,0:0:0:0:
348,288,78656,1,0,0:0:0:0:
252,292,78950,2,0,P|192:300|136:272,1,119.999996337891
208,208,79538,1,8,0:0:0:0:
304,208,79832,1,0,0:0:0:0:
304,208,79979,1,0,0:0:0:0:
304,208,80127,1,0,0:0:0:0:
448,80,80715,6,0,L|324:32,1,119.999996337891,8|0,0:0|0:0,0:0:0:0:
332,132,81303,2,0,L|452:180,1,119.999996337891
464,272,81891,1,8,0:0:0:0:
368,284,82185,1,0,0:0:0:0:
320,288,82332,1,0,0:0:0:0:
272,288,82479,6,0,P|216:244|212:196,1,119.999996337891,4|0,0:0|0:0,0:0:0:0:
224,152,82921,1,0,0:0:0:0:
244,108,83068,1,8,0:0:0:0:
300,32,83362,1,0,0:0:0:0:
344,116,83656,2,0,P|360:176|336:236,1,119.999996337891
256,184,84244,1,8,0:0:0:0:
256,96,84538,1,0,0:0:0:0:
256,96,84685,1,0,0:0:0:0:
256,96,84832,5,0,0:0:0:0:
176,40,85127,1,0,0:0:0:0:
96,96,85421,1,8,0:0:0:0:
176,148,85715,1,0,0:0:0:0:
132,168,85862,1,0,0:0:0:0:
92,196,86009,2,0,P|72:256|92:312,1,119.999996337891
168,252,86597,1,8,0:0:0:0:
504,112,87185,6,0,P|452:76|392:88,1,119.999996337891
398,84,87627,1,0,0:0:0:0:
398,84,87774,1,8,0:0:0:0:
340,160,88068,2,0,B|340:204|340:204|332:220|332:220|340:236|340:236|340:264|340:288,1,119.999996337891
244,256,88656,1,0,0:0:0:0:
152,276,88950,1,8,0:0:0:0:
112,64,89538,6,0,P|92:120|112:184,1,119.999996337891
188,124,90127,1,0,0:0:0:0:
268,176,90421,1,0,0:0:0:0:
348,120,90715,2,0,P|404:100|468:132,2,119.999996337891
368,200,91597,1,0,0:0:0:0:
336,236,91744,1,0,0:0:0:0:
304,272,91891,5,4,0:0:0:0:
