osu file format v14

[General]
AudioFilename: audio.mp3
AudioLeadIn: 0
PreviewTime: -1
Countdown: 1
SampleSet: Normal
StackLeniency: 0.7
Mode: 0
LetterboxInBreaks: 0
WidescreenStoryboard: 0

[Editor]
Bookmarks: 93152,101880
DistanceSpacing: 1
BeatDivisor: 2
GridSize: 8
TimelineZoom: 1.3

[Metadata]
Title:Run For Cover
TitleUnicode:Run For Cover
Artist:The Killers
ArtistUnicode:The Killers
Creator:MatheuZiz
Version:Uncovered
Source:
Tags:
BeatmapID:1745931
BeatmapSetID:833503

[Difficulty]
HPDrainRate:7
CircleSize:4.2
OverallDifficulty:9
ApproachRate:9.3
SliderMultiplier:2
SliderTickRate:1

[Events]
//Background and Video events
0,0,"bg.jpg",0,0
//Break Periods
//Storyboard Layer 0 (Background)
//Storyboard Layer 1 (Fail)
//Storyboard Layer 2 (Pass)
//Storyboard Layer 3 (Foreground)
//Storyboard Sound Samples

[TimingPoints]
62,363.636363636364,4,2,0,45,1,0
62,-200,4,2,0,45,0,0
2971,-166.666666666667,4,2,0,45,0,0
4425,-142.857142857143,4,2,0,45,0,0
10243,-111.111111111111,4,2,0,45,0,0
10971,-500,4,2,0,45,0,0
11698,-100,4,3,0,45,0,0
16062,-83.3333333333333,4,3,0,45,0,0
17516,-100,4,3,0,45,0,0
23334,-100,4,1,0,45,0,0
34789,-200,4,1,0,45,0,0
34971,-83.3333333333333,4,1,0,45,0,0
56425,-71.4285714285714,4,1,0,65,0,0
58425,-66.6666666666667,4,3,0,45,0,1
80425,-100,4,3,0,60,0,1
81698,-83.3333333333333,4,1,0,45,0,0
100789,-76.9230769230769,4,1,0,45,0,0
101152,-71.4285714285714,4,1,0,45,0,0
101516,-66.6666666666667,4,1,0,45,0,0

[HitObjects]
183,76,62,6,0,P|152:78|119:76,1,50
61,80,425,2,0,P|74:107|93:135,1,50
152,140,789,1,0,0:0:0:0:
141,178,971,1,0,0:0:0:0:
101,183,1152,1,0,0:0:0:0:
113,220,1334,1,0,0:0:0:0:
163,341,1516,6,0,P|194:339|227:341,1,50
278,369,1880,2,0,P|280:338|278:304,1,50
226,273,2243,1,0,0:0:0:0:
259,241,2425,1,0,0:0:0:0:
294,262,2606,1,0,0:0:0:0:
303,218,2788,1,0,0:0:0:0:
286,106,2971,6,0,P|343:101|372:95,1,59.9999981689454
239,56,3334,2,0,P|199:67|161:69,1,59.9999981689454
76,90,3698,1,0,0:0:0:0:
41,139,3880,1,0,0:0:0:0:
41,199,4062,1,0,0:0:0:0:
76,247,4243,2,0,L|103:275,1,29.9999990844727
81,324,4425,6,0,B|119:333|119:333|159:328,1,69.9999978637696
172,256,4789,2,0,B|209:267|209:267|242:291,1,69.9999978637696
296,337,5152,1,0,0:0:0:0:
345,287,5334,1,0,0:0:0:0:
433,312,5516,2,0,L|469:284,1,34.9999989318848
433,312,5698,2,0,L|473:288,1,34.9999989318848
434,219,5880,6,0,B|409:185|398:149,1,69.9999978637696
492,110,6243,2,0,B|453:91|416:88,1,69.9999978637696
356,20,6607,1,0,0:0:0:0:
356,20,6789,1,0,0:0:0:0:
290,97,6971,1,0,0:3:0:0:
290,97,7153,1,0,0:3:0:0:
362,178,7334,6,0,P|335:206|288:224,1,69.9999978637696
246,279,7698,2,0,P|223:247|214:197,1,69.9999978637696
189,121,8062,1,0,0:0:0:0:
212,83,8243,1,0,0:0:0:0:
251,104,8425,1,0,0:0:0:0:
228,142,8607,2,0,P|223:166|212:177,1,34.9999989318848
112,173,8789,6,0,P|69:172|41:154,1,69.9999978637696
0,69,9152,6,0,P|43:70|71:88,1,69.9999978637696
142,186,9516,1,0,0:0:0:0:
121,239,9698,1,0,0:0:0:0:
40,327,9880,1,0,0:0:0:0:
4,282,10062,1,0,0:0:0:0:
10,169,10243,6,0,B|27:125|27:125|67:88,1,89.9999972534181
190,31,10607,1,0,0:0:0:0:
174,114,10789,1,0,0:0:0:0:
158,197,10971,6,0,L|196:264,1,60
274,341,11698,2,0,P|315:309|359:165,1,200
244,217,12425,1,0,0:0:0:0:
461,44,12789,1,0,0:0:0:0:
335,46,13152,2,0,P|277:111|139:87,1,200
82,42,13879,1,0,0:0:0:0:
73,187,14062,2,0,P|97:246|155:292,1,100
303,330,14607,6,0,P|286:262|168:198,1,200
44,237,15334,1,0,0:0:0:0:
165,188,15516,2,0,P|230:183|272:145,1,100
203,43,16062,2,0,P|323:40|419:135,1,239.999992675781
455,280,16789,1,0,0:0:0:0:
366,238,16971,2,0,P|407:205|483:210,1,119.999996337891
366,142,17516,6,0,P|280:118|154:173,1,200
107,227,18243,1,0,0:0:0:0:
277,8,18607,1,0,0:0:0:0:
215,58,18971,2,0,P|188:128|214:249,1,200
164,299,19698,1,0,0:0:0:0:
306,227,19880,2,0,P|290:304|306:344,1,100
477,322,20425,6,0,P|426:213|435:128,1,200
492,44,21152,1,0,0:0:0:0:
309,248,21516,1,0,0:0:0:0:
382,294,21880,2,0,P|352:315|284:327,1,100
230,265,22243,1,0,0:0:0:0:
230,265,22425,1,0,0:0:0:0:
310,155,22607,2,0,P|351:174|420:167,1,100
234,80,22971,1,0,0:0:0:0:
234,80,23152,1,0,0:0:0:0:
236,166,23334,6,0,P|238:219|227:272,1,100
70,314,23698,1,0,0:0:0:0:
144,185,23880,1,0,0:0:0:0:
142,266,24062,1,0,0:0:0:0:
62,138,24244,1,0,0:0:0:0:
280,116,24425,2,0,P|297:157|292:224,1,100
216,322,24789,5,0,0:0:0:0:
409,219,24971,1,0,0:0:0:0:
383,309,25152,1,0,0:0:0:0:
280,116,25334,1,0,0:0:0:0:
280,226,25516,1,0,0:0:0:0:
474,123,25698,1,0,0:0:0:0:
391,24,25880,2,0,P|358:73|360:133,1,100
361,307,26243,5,0,0:0:0:0:
472,232,26425,1,0,0:0:0:0:
317,217,26607,1,0,0:0:0:0:
405,116,26789,1,0,0:0:0:0:
294,118,26971,1,0,0:0:0:0:
395,205,27153,1,0,0:0:0:0:
205,11,27334,2,0,P|145:19|122:69,1,100
58,257,27698,5,0,0:0:0:0:
163,114,27880,1,0,0:0:0:0:
159,334,28062,1,0,0:0:0:0:
223,168,28244,1,0,0:0:0:0:
66,144,28425,1,0,0:0:0:0:
209,249,28607,1,0,0:0:0:0:
19,292,28789,2,0,P|64:248|132:236,1,100
366,153,29152,5,0,0:0:0:0:
300,306,29334,1,0,0:0:0:0:
283,162,29516,1,0,0:0:0:0:
382,296,29698,1,0,0:0:0:0:
244,237,29880,1,0,0:0:0:0:
409,217,30062,1,0,0:0:0:0:
325,227,30243,1,0,0:0:0:0:
490,207,30425,1,0,0:0:0:0:
327,85,30607,1,0,0:0:0:0:
421,231,30789,1,0,0:0:0:0:
272,166,30971,1,0,0:0:0:0:
389,9,31153,1,0,0:0:0:0:
251,22,31334,1,0,0:0:0:0:
408,139,31516,1,0,0:0:0:0:
228,208,31698,1,0,0:0:0:0:
421,231,31880,1,0,0:0:0:0:
275,50,32062,5,0,0:0:0:0:
330,344,32243,1,0,0:0:0:0:
104,194,32425,1,0,0:0:0:0:
398,139,32606,1,0,0:0:0:0:
127,45,32789,1,0,0:0:0:0:
182,339,32970,1,0,0:0:0:0:
303,86,33152,1,0,0:0:0:0:
75,280,33333,1,0,0:0:0:0:
357,242,33516,1,0,3:0:0:0:
31,126,33697,1,0,3:0:0:0:
376,154,33880,1,0,3:0:0:0:
31,126,34061,1,0,3:0:0:0:
376,154,34243,1,0,3:0:0:0:
50,38,34424,1,0,3:0:0:0:
275,302,34607,1,0,3:0:0:0:
50,38,34789,2,0,P|60:74|69:90,1,50
159,106,35152,6,0,P|150:171|120:222,1,119.999996337891
72,313,35516,1,0,0:0:0:0:
34,119,35698,1,0,0:0:0:0:
188,274,35880,2,0,P|236:311|300:307,1,119.999996337891
413,287,36243,1,0,0:0:0:0:
311,108,36425,1,0,0:0:0:0:
248,159,36607,6,0,P|293:200|346:188,1,119.999996337891
456,172,36971,1,0,0:0:0:0:
453,163,37152,1,0,0:0:0:0:
311,108,37334,1,0,0:0:0:0:
311,108,37515,1,0,0:0:0:0:
123,33,37698,2,0,P|112:88|145:156,1,119.999996337891
248,159,38062,6,0,P|216:210|168:249,1,119.999996337891
59,325,38425,1,0,0:0:0:0:
115,146,38607,1,0,0:0:0:0:
257,348,38789,2,0,P|198:331|147:288,1,119.999996337891
45,213,39152,1,0,0:0:0:0:
181,72,39334,1,0,0:0:0:0:
28,13,39516,6,0,P|17:62|38:129,1,119.999996337891
173,316,39880,1,0,0:0:0:0:
173,316,40062,1,0,0:0:0:0:
115,146,40243,1,0,0:0:0:0:
115,146,40425,1,0,0:0:0:0:
147,231,40607,2,0,P|220:242|267:295,1,119.999996337891
348,384,40971,6,0,P|400:358|414:281,1,119.999996337891
400,163,41334,1,0,0:0:0:0:
494,322,41516,1,0,0:0:0:0:
465,100,41698,2,0,P|395:81|346:79,1,119.999996337891
222,103,42062,1,0,0:0:0:0:
179,198,42243,1,0,0:0:0:0:
141,288,42425,6,0,P|104:243|96:176,1,119.999996337891
225,290,42789,1,0,0:0:0:0:
225,290,42971,1,0,0:0:0:0:
140,103,43152,1,0,0:0:0:0:
140,103,43334,1,0,0:0:0:0:
191,25,43516,2,0,P|127:14|65:33,1,119.999996337891
259,78,43880,5,0,0:0:0:0:
258,325,44062,1,0,0:0:0:0:
472,202,44243,1,0,0:0:0:0:
229,100,44425,1,0,0:0:0:0:
206,129,44607,2,0,P|217:170|286:193,1,119.999996337891
331,116,44971,2,0,B|377:99|377:99|365:193,1,119.999996337891
365,266,45334,6,0,B|415:328|415:328|428:268,1,119.999996337891
445,163,45698,1,0,0:0:0:0:
310,335,45880,1,0,0:0:0:0:
270,343,46062,2,0,B|261:280|261:280|194:262,1,119.999996337891
132,337,46425,2,0,P|89:283|83:206,1,119.999996337891
98,71,46789,5,0,0:0:0:0:
249,203,46971,1,0,0:0:0:0:
165,26,47152,5,0,0:0:0:0:
157,231,47334,1,0,0:0:0:0:
157,231,47516,1,0,0:0:0:0:
235,317,47698,2,0,P|310:275|365:272,1,119.999996337891
512,290,48062,5,0,0:0:0:0:
435,135,48243,1,0,0:0:0:0:
342,270,48425,2,0,P|340:203|283:118,1,119.999996337891
199,75,48789,2,0,B|263:15|263:14|263:14|261:58,1,119.999996337891
199,240,49152,1,0,0:0:0:0:
72,171,49334,1,0,0:0:0:0:
82,25,49516,6,0,P|124:60|137:133,1,119.999996337891
83,308,49880,1,0,0:0:0:0:
269,222,50062,1,0,0:0:0:0:
220,162,50243,2,0,P|196:243|225:282,1,119.999996337891
356,346,50607,1,0,0:0:0:0:
414,189,50789,1,0,0:0:0:0:
326,102,50971,6,0,P|322:180|341:229,1,119.999996337891
483,360,51334,1,0,0:0:0:0:
394,250,51516,1,0,0:0:0:0:
488,91,51698,2,0,B|425:112|425:112|386:68,1,119.999996337891
328,6,52061,1,0,0:0:0:0:
193,149,52243,1,0,0:0:0:0:
216,22,52425,6,0,P|242:50|282:124,1,119.999996337891
301,275,52789,1,0,0:0:0:0:
139,87,52971,1,0,0:0:0:0:
100,308,53152,2,0,P|57:304|-3:251,1,119.999996337891
0,156,53516,2,0,B|21:66|21:66|-6:94,1,119.999996337891
71,216,53880,2,0,B|92:306|92:306|65:278,1,119.999996337891
177,292,54243,5,0,0:0:0:0:
244,88,54425,1,0,0:0:0:0:
374,206,54607,1,0,0:0:0:0:
230,214,54789,1,0,0:0:0:0:
314,137,54971,2,0,B|294:191|294:191|314:269,1,119.999996337891
369,320,55334,2,0,B|389:266|389:266|369:188,1,119.999996337891
294,50,55698,5,0,0:0:0:0:
294,50,55880,1,0,0:0:0:0:
186,71,56062,1,0,0:0:0:0:
186,71,56244,1,0,0:0:0:0:
77,88,56425,2,0,P|84:146|75:248,1,139.999995727539
22,332,56789,5,0,0:0:0:0:
257,121,56971,1,0,0:0:0:0:
343,304,57152,1,0,0:0:0:0:
48,106,57334,5,0,0:0:0:0:
287,372,57516,1,0,0:0:0:0:
369,134,57697,1,0,0:0:0:0:
164,333,57880,1,0,0:0:0:0:
442,124,58062,6,0,P|356:147|299:136,1,139.999995727539
254,36,58425,2,0,P|209:114|234:176,1,150.000005722046
477,254,58789,5,0,0:0:0:0:
339,72,58971,1,0,0:0:0:0:
353,235,59152,1,0,0:0:0:0:
441,23,59334,1,0,0:0:0:0:
413,357,59516,6,0,P|405:282|343:231,1,150.000005722046
80,171,59880,1,0,0:0:0:0:
158,337,60062,2,0,P|199:241|187:186,1,150.000005722046
80,171,60425,1,0,0:0:0:0:
226,280,60607,2,0,P|217:175|180:133,1,150.000005722046
52,42,60971,5,0,0:0:0:0:
73,248,61152,1,0,0:0:0:0:
193,55,61334,2,0,P|239:40|341:68,1,150.000005722046
491,206,61698,1,0,0:0:0:0:
191,276,61880,2,0,P|223:240|325:213,1,150.000005722046
491,206,62243,5,0,0:0:0:0:
272,53,62425,1,0,0:0:0:0:
490,131,62607,1,0,0:0:0:0:
223,107,62789,1,0,0:0:0:0:
433,44,62971,2,0,P|420:104|359:185,1,150.000005722046
154,323,63334,5,0,0:0:0:0:
316,122,63516,1,0,0:0:0:0:
246,207,63698,2,0,B|266:281|266:281|352:291,1,150.000005722046
476,296,64062,1,0,0:0:0:0:
399,69,64243,1,0,0:0:0:0:
261,239,64425,2,0,B|281:313|281:313|367:323,1,150.000005722046
399,69,64789,5,0,0:3:0:0:
226,43,64971,1,0,0:3:0:0:
145,200,65153,1,0,0:0:0:0:
202,365,65334,2,0,B|286:353|286:353|231:316,1,150.000005722046
67,244,65698,5,0,0:0:0:0:
281,320,65880,1,0,0:0:0:0:
201,138,66062,1,0,0:0:0:0:
202,365,66244,1,0,0:0:0:0:
302,173,66425,2,0,P|257:213|159:220,1,150.000005722046
43,166,66789,5,0,0:0:0:0:
259,32,66971,1,0,0:0:0:0:
40,57,67152,2,0,P|80:98|172:137,1,150.000005722046
320,103,67516,1,0,0:0:0:0:
66,54,67697,2,0,P|80:109|140:189,1,150.000005722046
363,244,68062,5,0,0:0:0:0:
141,258,68243,1,0,0:0:0:0:
312,172,68425,1,0,0:0:0:0:
122,354,68607,1,0,0:0:0:0:
400,319,68789,2,0,B|484:307|484:307|463:243,1,150.000005722046
438,27,69152,5,0,0:0:0:0:
355,264,69334,1,0,0:0:0:0:
512,95,69516,1,0,0:0:0:0:
266,57,69698,1,0,0:0:0:0:
439,169,69880,6,0,B|374:129|286:144,1,150.000005722046
76,185,70243,2,0,B|96:115|96:115|56:48,1,150.000005722046
158,197,70607,1,0,0:0:0:0:
108,364,70789,1,0,0:0:0:0:
246,316,70971,2,0,B|298:255|243:179,1,150.000005722046
108,30,71335,5,0,0:0:0:0:
158,197,71516,1,0,0:0:0:0:
278,116,71699,2,0,B|347:155|389:216,1,150.000005722046,0|0,0:3|0:3,0:3:0:0:
434,361,72062,1,0,0:0:0:0:
439,169,72244,1,0,0:0:0:0:
478,262,72426,2,0,P|381:290|312:282,1,150.000005722046
128,235,72789,5,0,0:0:0:0:
30,150,72971,1,0,0:0:0:0:
195,337,73153,2,0,P|249:265|255:191,1,150.000005722046
177,26,73516,1,0,0:0:0:0:
33,157,73698,1,0,0:0:0:0:
229,90,73880,2,0,B|165:127|127:201,1,150.000005722046
85,322,74244,5,0,0:0:0:0:
233,231,74426,1,0,0:0:0:0:
46,228,74607,2,0,P|121:206|174:147,1,150.000005722046
97,124,74971,5,0,0:0:0:0:
291,7,75153,1,0,0:0:0:0:
149,28,75335,1,0,0:0:0:0:
368,82,75517,1,0,0:0:0:0:
263,189,75698,6,2,B|303:261|373:286,1,150.000005722046
458,285,76062,2,0,B|423:210|423:210|451:118,1,150.000005722046
355,151,76425,1,0,0:0:0:0:
276,327,76607,1,0,0:0:0:0:
291,61,76789,2,0,P|250:102|232:193,1,150.000005722046
367,13,77152,1,0,0:0:0:0:
367,13,77334,1,0,0:0:0:0:
172,61,77516,2,0,P|212:102|230:193,1,150.000005722046
98,17,77880,1,0,0:0:0:0:
98,17,78062,1,0,0:0:0:0:
237,92,78243,6,0,L|241:266,1,150.000005722046
343,39,78607,5,0,0:0:0:0:
343,39,78789,1,0,0:0:0:0:
372,340,78971,1,0,0:0:0:0:
192,178,79152,5,0,0:0:0:0:
192,178,79334,1,0,0:0:0:0:
372,340,79516,1,0,0:0:0:0:
41,331,79698,1,0,0:0:0:0:
269,209,79880,5,0,0:0:0:0:
194,65,80062,1,0,0:0:0:0:
190,336,80243,1,0,0:0:0:0:
362,45,80425,2,0,B|388:-18|388:-18|399:27,1,100
214,307,80789,1,0,0:0:0:0:
438,196,80971,5,0,0:0:0:0:
78,188,81152,1,0,0:0:0:0:
379,129,81334,1,0,0:0:0:0:
52,314,81516,2,0,P|108:328|150:293,1,100
235,329,81880,6,0,P|231:262|195:207,1,119.999996337891
74,173,82243,1,0,0:0:0:0:
74,173,82425,1,0,0:0:0:0:
190,44,82607,1,0,0:0:0:0:
190,44,82789,1,0,0:0:0:0:
323,82,82971,6,0,P|307:134|329:216,1,119.999996337891
413,313,83334,1,0,0:0:0:0:
266,250,83516,1,0,0:0:0:0:
222,346,83698,2,0,P|294:343|334:293,1,119.999996337891
167,281,84062,2,0,P|128:271|80:204,1,119.999996337891
43,89,84425,5,0,0:0:0:0:
182,137,84607,1,0,0:0:0:0:
264,28,84789,2,0,P|198:34|124:70,1,119.999996337891
230,139,85152,1,0,0:0:0:0:
293,257,85334,1,0,0:0:0:0:
394,350,85516,6,0,P|431:289|429:217,1,119.999996337891
443,82,85880,1,0,0:0:0:0:
436,169,86062,1,0,0:0:0:0:
320,70,86243,1,0,0:0:0:0:
302,156,86425,1,0,0:0:0:0:
180,40,86607,2,0,P|188:109|165:176,1,119.999996337891
178,279,86971,6,0,P|120:255|78:184,1,119.999996337891
58,53,87334,1,0,0:0:0:0:
143,173,87516,1,0,0:0:0:0:
210,57,87698,2,0,P|204:113|249:191,1,119.999996337891
333,289,88062,1,0,0:0:0:0:
474,309,88243,1,0,0:0:0:0:
444,167,88425,6,0,P|388:164|329:201,1,119.999996337891
241,280,88789,1,0,0:0:0:0:
261,246,88971,1,0,0:0:0:0:
170,114,89152,1,0,0:0:0:0:
197,144,89334,1,0,0:0:0:0:
307,60,89516,2,0,P|227:27|165:38,1,119.999996337891
95,6,89880,6,0,P|74:46|80:137,1,119.999996337891
151,266,90243,1,0,0:0:0:0:
147,103,90425,1,0,0:0:0:0:
23,196,90607,2,0,P|29:261|66:317,1,119.999996337891
168,367,90971,1,0,0:0:0:0:
132,167,91152,1,0,0:0:0:0:
76,313,91334,6,0,P|128:291|236:289,1,119.999996337891
354,317,91698,1,0,0:0:0:0:
354,317,91880,1,0,0:0:0:0:
261,127,92062,1,0,0:0:0:0:
261,127,92243,1,0,0:0:0:0:
421,113,92425,2,0,P|424:219|395:251,1,119.999996337891
431,317,92789,6,0,B|354:291|354:291|339:232,1,119.999996337891
308,86,93152,2,0,P|285:147|238:193,1,119.999996337891
405,142,93516,1,0,0:0:0:0:
467,32,93698,1,0,0:0:0:0:
314,232,93880,2,0,P|262:240|194:222,1,119.999996337891
365,317,94243,1,0,0:0:0:0:
471,351,94425,1,0,0:0:0:0:
457,238,94607,6,0,P|437:171|368:114,1,119.999996337891
265,22,94971,1,0,0:0:0:0:
282,202,95152,1,0,0:0:0:0:
330,0,95334,1,0,0:0:0:0:
234,216,95516,1,0,0:0:0:0:
357,33,95698,2,0,P|352:84|301:129,1,119.999996337891
121,122,96062,5,0,0:0:0:0:
227,292,96243,1,0,0:0:0:0:
300,109,96425,1,0,0:0:0:0:
134,146,96607,1,0,0:0:0:0:
252,279,96789,2,0,P|273:320|355:374,1,119.999996337891
458,365,97152,5,0,0:0:0:0:
408,163,97334,1,0,0:0:0:0:
251,241,97516,2,0,P|277:298|340:337,1,119.999996337891
143,212,97880,1,0,0:0:0:0:
99,83,98062,1,0,0:0:0:0:
249,102,98243,2,0,P|226:152|158:184,1,119.999996337891
403,53,98607,5,0,0:0:0:0:
403,53,98789,1,0,0:0:0:0:
371,292,98971,2,0,P|336:207|336:155,1,119.999996337891
472,356,99334,1,0,0:0:0:0:
472,356,99516,1,0,0:0:0:0:
371,200,99698,6,0,P|317:228|288:303,1,119.999996337891
138,162,100062,2,0,P|195:126|194:62,1,119.999996337891
264,194,100425,1,0,0:0:0:0:
264,194,100607,1,0,0:0:0:0:
167,316,100789,6,0,P|219:348|287:346,1,129.999994049073
472,231,101152,2,0,P|413:214|335:238,1,139.999995727539
81,346,101516,2,0,P|83:284|147:208,1,150.000005722046
434,87,101880,5,0,0:0:0:0:
158,167,102062,1,0,0:0:0:0:
305,328,102243,1,0,0:0:0:0:
40,82,102425,5,0,0:0:0:0:
316,162,102607,1,0,0:0:0:0:
169,323,102788,1,0,0:0:0:0:
179,42,102971,5,0,0:0:0:0:
252,369,103152,1,0,0:0:0:0:
172,19,103334,1,0,0:0:0:0:
406,333,103516,5,0,0:0:0:0:
44,142,103697,1,0,0:0:0:0:
430,59,103880,1,0,0:0:0:0:
57,285,104061,1,0,0:0:0:0:
364,127,104243,5,0,0:0:0:0:
219,359,104424,1,0,0:0:0:0:
100,100,104607,5,0,0:0:0:0:
421,286,104789,2,0,P|488:274|510:191,1,150.000005722046
348,10,105152,2,0,P|281:50|219:169,1,150.000005722046
195,296,105516,5,0,0:0:0:0:
388,163,105698,1,0,0:0:0:0:
54,169,105880,2,0,P|118:159|199:197,1,150.000005722046
332,333,106243,5,0,0:0:0:0:
449,81,106425,1,0,0:0:0:0:
171,109,106607,5,0,0:0:0:0:
371,35,106789,1,0,0:0:0:0:
340,213,106971,1,0,0:0:0:0:
362,12,107152,5,0,0:0:0:0:
239,247,107334,1,0,0:0:0:0:
154,41,107516,2,0,P|171:88|162:191,1,150.000005722046
65,356,107880,1,0,0:0:0:0:
336,94,108062,2,0,P|288:182|241:225,1,150.000005722046
79,268,108425,5,0,0:0:0:0:
359,182,108607,1,0,0:0:0:0:
189,77,108789,2,0,P|183:168|212:251,1,150.000005722046
384,355,109152,5,0,0:0:0:0:
467,57,109334,1,0,0:0:0:0:
141,170,109516,2,0,P|140:279|116:342,1,150.000005722046
321,137,109880,1,0,0:0:0:0:
86,228,110062,1,0,0:0:0:0:
395,183,110243,2,0,B|469:178|469:178|430:246,1,150.000005722046
326,369,110607,5,0,0:0:0:0:
475,102,110789,1,0,0:0:0:0:
439,343,110971,2,0,P|388:280|322:226,1,150.000005722046
73,102,111334,5,0,0:0:0:0:
333,134,111516,1,0,0:0:0:0:
37,213,111698,1,0,0:0:0:0:
399,35,111880,2,0,B|465:26|465:26|361:79,1,150.000005722046
203,83,112243,2,0,P|174:160|245:240,1,150.000005722046
