osu file format v14

[General]
AudioFilename: audio.mp3
AudioLeadIn: 0
PreviewTime: -1
Countdown: 0
SampleSet: Normal
StackLeniency: 0.3
Mode: 0
LetterboxInBreaks: 0
WidescreenStoryboard: 0

[Editor]
Bookmarks: 38294,67483,68294,88361,91199
DistanceSpacing: 0.8
BeatDivisor: 4
GridSize: 8
TimelineZoom: 2.899999

[Metadata]
Title:Mr.Brightside (Two Friends Remix)
TitleUnicode:Mr.Brightside (Two Friends Remix)
Artist:The Killers
ArtistUnicode:The Killers
Creator:Tacto
Version:Insane
Source:
Tags:
BeatmapID:1298999
BeatmapSetID:615871

[Difficulty]
HPDrainRate:5
CircleSize:4
OverallDifficulty:7
ApproachRate:9
SliderMultiplier:1.6
SliderTickRate:1

[Events]
//Background and Video events
//Break Periods
//Storyboard Layer 0 (Background)
//Storyboard Layer 1 (Fail)
//Storyboard Layer 2 (Pass)
//Storyboard Layer 3 (Foreground)
//Storyboard Layer 4 (Overlay)
//Storyboard Sound Samples

[TimingPoints]
188,405.405405405405,4,1,0,12,1,0
6674,-133.333333333333,4,1,0,11,0,0
19647,-133.333333333333,4,1,0,11,0,0
32628,-100,4,1,0,20,0,0
56952,-133.333333333333,4,1,0,11,0,0
84512,-25,4,1,0,50,0,1
85323,-157,4,1,0,50,0,1
86133,-25,4,1,0,50,0,1
86944,-100,4,1,0,50,0,1
87755,-25,4,1,0,50,0,1
91809,-157,4,1,0,50,0,1
92620,-25,4,1,0,50,0,1
93431,-100,4,1,0,50,0,1
94242,-25,4,1,0,50,0,1
94647,-157,4,1,0,50,0,1
95052,-25,4,1,0,50,0,1
95458,-157,4,1,0,50,0,1
95863,-25,4,1,0,50,0,1
96269,-157,4,1,0,50,0,1
96674,-25,4,1,0,50,0,1
97485,-25,4,1,0,50,0,1
98296,-157,4,1,0,50,0,1
99106,-25,4,1,0,50,0,1
99917,-100,4,1,0,50,0,1
100728,-25,4,1,0,50,0,1
104782,-157,4,1,0,50,0,1
105593,-25,4,1,0,50,0,1
106606,-100,4,1,0,50,0,1
107215,-25,4,1,0,50,0,1
110458,-100,4,1,0,20,0,0

[HitObjects]
57,192,188,6,0,P|100:180|145:191,1,80
228,294,593,2,0,P|267:299|305:287,1,80
375,198,998,1,0,0:0:0:0:
295,28,1201,1,0,0:0:0:0:
264,223,1404,1,0,0:0:0:0:
378,98,1606,1,0,0:0:0:0:
429,259,1809,6,0,P|387:266|343:239,1,80
229,136,2215,2,0,P|271:129|314:155,1,80
80,274,2620,1,0,0:0:0:0:
250,209,2823,1,0,0:0:0:0:
143,350,3025,1,0,0:0:0:0:
35,195,3228,1,0,0:0:0:0:
143,350,3431,6,0,L|245:311,1,80
355,253,3836,2,0,P|309:239|280:215,1,80
243,54,4242,1,0,0:0:0:0:
355,173,4444,1,0,0:0:0:0:
175,94,4647,1,0,0:0:0:0:
389,81,4850,1,0,0:0:0:0:
201,226,5052,6,0,P|163:246|122:238,1,80
249,58,5458,2,0,P|287:38|328:46,1,80
181,209,5863,1,0,0:0:0:0:
289,117,6066,1,0,0:0:0:0:
326,304,6269,1,0,0:0:0:0:
146,86,6471,1,0,0:0:0:0:
108,273,6674,6,0,B|125:358|213:352|213:352|268:190|430:222,1,420.000016021729
421,220,8296,2,0,P|420:146|139:115,1,420.000016021729
148,98,9917,2,0,B|197:313|197:313|209:364|105:398|47:308,1,420.000016021729
47,308,11539,2,0,B|258:150|258:150|292:251|387:225,1,420.000016021729
374,227,13160,6,0,B|524:355|254:400|286:293|90:358,1,420.000016021729
106,352,14782,2,0,B|171:277|112:52|112:52|187:62,1,360.000013732911
166,56,16404,2,0,B|264:125|419:63|419:63|377:170|385:225,1,420.000016021729
383,213,18025,2,0,P|341:306|81:254,1,420.000016021729
80,253,19647,6,0,L|106:188,1,60.0000022888184
165,101,20052,1,0,0:0:0:0:
206,269,20255,1,0,0:0:0:0:
29,106,20458,1,0,0:0:0:0:
280,157,20660,1,0,0:0:0:0:
102,197,20863,1,0,0:0:0:0:
102,197,21066,2,0,P|93:245|125:310,1,120.000004577637
224,319,21674,5,0,0:0:0:0:
322,261,21877,1,0,0:0:0:0:
206,183,22079,1,0,0:0:0:0:
305,344,22282,1,0,0:0:0:0:
402,195,22485,2,0,L|366:207,1,30.0000011444092
182,273,22687,1,0,0:0:0:0:
415,295,22890,6,0,P|444:294|473:285,1,60.0000022888184
362,154,23296,1,0,0:0:0:0:
332,352,23498,1,0,0:0:0:0:
442,207,23701,1,0,0:0:0:0:
263,208,23904,1,0,0:0:0:0:
473,284,24106,1,0,0:0:0:0:
303,124,24309,2,0,P|242:115|190:153,1,120.000004577637
138,309,24917,5,0,0:0:0:0:
333,307,25120,1,0,0:0:0:0:
226,256,25323,1,0,0:0:0:0:
247,362,25525,1,0,0:0:0:0:
380,217,25728,1,0,0:0:0:0:
195,145,25931,1,0,0:0:0:0:
117,324,26133,6,0,L|191:306,1,60.0000022888184
314,270,26539,1,0,0:0:0:0:
219,214,26742,1,0,0:0:0:0:
344,349,26944,1,0,0:0:0:0:
367,156,27147,1,0,0:0:0:0:
249,361,27350,1,0,0:0:0:0:
458,103,27552,2,0,P|406:86|326:90,1,120.000004577637
204,165,28160,5,0,0:0:0:0:
299,271,28363,1,0,0:0:0:0:
338,169,28566,1,0,0:0:0:0:
204,258,28769,1,0,0:0:0:0:
423,334,28971,1,0,0:0:0:0:
268,120,29174,1,0,0:0:0:0:
173,350,29377,6,0,L|240:320,1,60.0000022888184
367,267,29782,2,0,L|300:237,1,60.0000022888184
165,182,30187,2,0,L|232:152,1,60.0000022888184
273,69,30796,6,0,L|235:61,1,30.0000011444092
33,113,31404,1,0,0:0:0:0:
86,177,31606,1,0,0:0:0:0:
139,241,31809,1,0,0:0:0:0:
191,307,32012,1,0,0:0:0:0:
191,307,32215,2,0,B|201:308|201:308|208:304|208:304|216:308|216:308|223:303|223:303|231:309|231:309|237:303|237:303|244:309|244:309|252:303|252:303|261:305,1,60.0000022888184
362,292,32620,5,0,0:0:0:0:
442,165,32823,1,0,0:0:0:0:
368,40,33025,1,0,0:0:0:0:
288,165,33228,1,0,0:0:0:0:
362,292,33431,2,0,P|242:308|157:220,1,240
163,77,34242,6,0,P|206:81|256:117,1,80
280,245,34647,2,0,P|255:280|198:305,1,80
74,263,35052,2,0,P|55:223|62:162,1,80
163,77,35458,2,0,L|274:77,1,80
359,174,35863,5,0,0:0:0:0:
265,294,36066,1,0,0:0:0:0:
207,153,36269,1,0,0:0:0:0:
299,32,36471,1,0,0:0:0:0:
359,174,36674,2,0,L|416:335,1,160
433,78,37485,6,0,P|336:64|256:88,1,160
147,225,38296,2,0,P|244:239|324:215,1,160
213,102,39106,2,0,P|201:236|321:367,1,320
319,366,40728,6,0,P|371:282|368:205,1,160
281,63,41539,1,0,0:0:0:0:
133,138,41742,1,0,0:0:0:0:
254,224,41944,1,0,0:0:0:0:
202,45,42147,1,0,0:0:0:0:
71,195,42350,6,0,P|119:274|191:297,1,160
178,296,43160,1,0,0:0:0:0:
178,296,43971,2,0,P|254:259|338:266,1,160
434,300,44782,1,0,0:0:0:0:
268,350,44985,1,0,0:0:0:0:
414,173,45187,1,0,0:0:0:0:
374,354,45390,1,0,0:0:0:0:
257,220,45593,6,0,L|200:156,1,80
88,107,45998,2,0,P|51:118|29:162,1,80
163,85,46404,2,0,P|171:47|144:6,1,80
144,160,46809,2,0,P|172:186|221:183,1,80
126,351,47215,6,0,P|215:358|284:327,1,160
280,330,48025,2,0,P|248:282|247:170,1,160
242,182,48836,6,0,P|322:230|415:219,1,160
386,229,49647,2,0,P|321:173|465:147,1,320
380,337,50863,1,0,0:0:0:0:
241,255,51269,1,0,0:0:0:0:
391,138,51471,1,0,0:0:0:0:
333,263,51674,1,0,0:0:0:0:
178,164,51877,1,0,0:0:0:0:
475,80,52079,6,0,P|470:159|432:229,1,160
240,85,52687,2,0,P|124:99|91:127,1,160
70,158,53296,2,0,P|147:212|173:278,1,160
186,300,53904,2,0,P|302:352|384:47,1,560
292,194,56133,2,0,L|150:89,1,160
36,252,56944,6,0,L|155:291,1,120.000004577637
249,319,57755,1,0,0:0:0:0:
461,87,58160,1,0,0:0:0:0:
184,350,58566,6,0,P|108:348|45:264,1,180.000006866455
326,121,59377,2,0,P|311:207|236:251,1,180.000006866455
367,23,60187,6,0,P|392:35|416:56,1,60.0000022888184
465,145,60593,2,0,P|467:172|461:204,1,60.0000022888184
405,289,60998,2,0,P|382:304|351:315,1,60.0000022888184
249,304,61404,2,0,P|224:291|199:270,1,60.0000022888184
155,178,61809,6,0,P|161:97|248:39,1,180.000006866455
365,245,62620,2,0,P|281:219|248:139,1,180.000006866455
339,92,63431,2,0,P|322:67|296:51,1,60.0000022888184
197,28,63836,2,0,P|167:29|139:44,1,60.0000022888184
70,118,64242,2,0,P|56:144|55:175,1,60.0000022888184
85,273,64647,2,0,P|101:297|128:314,1,60.0000022888184
227,328,65052,2,0,P|281:322|362:217,1,180.000006866455
170,260,65863,2,0,P|116:254|35:149,1,180.000006866455
76,69,66674,6,0,L|142:68,1,60.0000022888184
220,126,67079,2,0,L|279:126,1,60.0000022888184
425,188,67485,2,0,L|359:187,1,60.0000022888184
281,245,67890,2,0,L|221:245,1,60.0000022888184
122,323,68296,6,0,L|318:323,1,180.000006866455
425,188,69106,2,0,L|229:188,1,180.000006866455
438,335,69917,6,0,L|503:329,1,60.0000022888184
386,234,70323,2,0,L|427:183,1,60.0000022888184
277,199,70728,1,0,0:0:0:0:
196,296,70931,1,0,0:0:0:0:
196,296,71032,1,0,0:0:0:0:
196,296,71133,2,0,L|202:356,1,60.0000022888184
90,200,71437,1,0,0:0:0:0:
90,200,71539,2,0,L|84:140,1,60.0000022888184
271,139,71944,5,0,0:0:0:0:
356,301,72147,1,0,0:0:0:0:
354,80,72350,1,0,0:0:0:0:
269,242,72553,1,0,0:0:0:0:
451,40,72755,2,0,L|448:104,1,60.0000022888184
373,250,73160,5,0,0:0:0:0:
128,118,73363,1,0,0:0:0:0:
128,118,73566,1,0,0:0:0:0:
82,346,73769,5,0,0:0:0:0:
214,101,73972,1,0,0:0:0:0:
214,101,74175,1,0,0:0:0:0:
243,299,74377,1,0,0:0:0:0:
57,225,74579,1,0,0:0:0:0:
301,68,74782,6,0,L|434:69,1,120.000004577637
169,206,75390,1,0,0:0:0:0:
407,146,75593,2,0,L|471:148,1,60.0000022888184
351,274,75998,2,0,L|394:320,1,60.0000022888184
226,146,76404,6,0,P|227:105|215:145,1,120.000004577637
289,283,77012,1,0,0:0:0:0:
303,83,77215,2,0,P|242:38|191:45,1,120.000004577637
192,253,77823,1,0,0:0:0:0:
368,150,78025,5,0,0:0:0:0:
104,177,78228,1,0,0:0:0:0:
104,177,78431,1,0,0:0:0:0:
303,83,78633,5,0,0:0:0:0:
330,347,78836,1,0,0:0:0:0:
330,347,79039,1,0,0:0:0:0:
210,167,79242,1,0,0:0:0:0:
447,159,79444,1,0,0:0:0:0:
174,255,79647,5,0,0:0:0:0:
172,35,79850,1,0,0:0:0:0:
338,255,80052,1,0,0:0:0:0:
340,35,80255,1,0,0:0:0:0:
174,255,80458,1,0,0:0:0:0:
28,171,80660,1,0,0:0:0:0:
338,255,80863,1,0,0:0:0:0:
483,170,81065,1,0,0:0:0:0:
174,255,81269,6,0,L|205:279,1,30.0000011444092
237,201,81471,2,0,L|275:196,1,30.0000011444092
243,118,81674,2,0,L|267:87,1,30.0000011444092
188,55,81877,2,0,L|183:16,1,30.0000011444092
174,255,82079,6,0,L|160:291,1,30.0000011444092
294,295,82281,2,0,L|310:330,1,30.0000011444092
389,248,82484,2,0,L|425:261,1,30.0000011444092
437,146,82687,2,0,L|472:129,1,30.0000011444092
100,209,82890,6,0,P|48:240|38:357,1,180.000006866455
218,206,83701,2,0,P|269:175|280:58,1,180.000006866455
64,83,84512,6,0,P|80:162|157:224,1,160
135,215,84715,2,0,P|119:136|42:74,1,160
64,83,84917,2,0,P|80:162|157:224,1,160
135,215,85120,2,0,P|119:136|42:74,1,160
63,82,85323,6,0,L|139:222,1,152.866242038217
271,352,86032,2,0,B|274:371,1,12.7388535031847
322,281,86133,6,0,L|299:115,1,160
261,63,86336,2,0,L|282:221,1,160
322,281,86539,2,0,L|299:115,1,160
261,63,86742,2,0,L|282:221,1,160
322,281,86944,6,0,P|362:326|410:331,1,80
261,63,87350,2,0,P|221:18|173:13,1,80
121,313,87755,6,0,P|181:271|207:164,1,160
91,106,87958,2,0,P|31:148|5:255,1,160
121,313,88160,2,0,P|181:271|207:164,1,160
91,106,88363,6,0,P|31:148|5:255,1,160
121,313,88566,2,0,L|282:327,1,160
442,291,88769,2,0,L|281:277,1,160
177,209,88971,2,0,L|338:223,1,160
460,192,89174,2,0,L|299:178,1,160
168,77,89377,6,0,P|249:45|336:60,1,160
433,111,89579,2,0,P|465:192|450:279,1,160
373,361,89782,2,0,P|292:393|205:378,1,160
108,327,89985,2,0,P|76:246|91:159,1,160
168,77,90187,6,0,L|260:208,1,160
377,298,90390,2,0,L|285:167,1,160
110,54,90593,2,0,L|202:185,1,160
438,315,90796,2,0,L|346:184,1,160
51,41,90998,6,0,P|64:132|113:228,1,160
162,300,91201,2,0,P|191:226|201:146,1,160
266,35,91404,2,0,P|279:126|328:222,1,160
377,294,91606,2,0,P|406:220|416:140,1,160
266,35,91809,2,0,P|189:60|240:99,1,178.343949044586
315,128,92620,6,0,P|415:109|464:64,1,160
188,174,92823,2,0,P|88:193|39:238,1,160
347,248,93025,2,0,P|447:229|496:184,1,160
356,84,93228,2,0,P|256:103|207:148,1,160
297,347,93431,1,0,0:0:0:0:
438,62,93633,2,0,L|423:25,1,40
142,161,93836,2,0,L|174:235,1,80
346,295,94242,6,0,P|410:168|303:47,1,320
66,195,94647,6,0,L|111:170,1,50.9554140127388
306,47,95052,2,0,P|409:157|346:295,1,320
66,195,95458,6,0,L|115:213,1,50.9554140127388
346,294,95863,2,0,P|409:157|306:47,1,320
66,195,96269,6,0,L|111:170,1,50.9554140127388
306,47,96674,2,0,P|409:157|346:295,1,320
66,195,97079,6,0,L|232:255,1,160
320,346,97282,2,0,L|154:286,1,160
306,47,97485,6,0,P|406:44|485:87,1,160
437,217,97687,2,0,P|337:220|258:177,1,160
324,54,97890,2,0,P|424:51|503:94,1,160
421,230,98092,2,0,P|321:233|242:190,1,160
342,61,98296,6,0,P|442:58|497:80,1,152.866242038217
246,212,99005,2,0,L|225:211,1,12.7388535031847
180,63,99106,6,0,L|319:150,1,160
231,295,99309,2,0,L|92:208,1,160
151,56,99512,2,0,L|290:143,1,160
202,288,99715,2,0,L|63:201,1,160
330,202,99917,6,0,P|368:199|407:216,1,80
51,129,100323,2,0,P|48:91|65:52,1,80
303,345,100728,6,0,P|207:354|152:308,1,160
268,124,100931,2,0,P|364:115|419:161,1,160
326,354,101133,2,0,P|230:363|175:317,1,160
291,133,101336,2,0,P|387:124|442:170,1,160
159,318,101539,6,0,L|49:183,1,160
83,121,101742,2,0,L|218:11,1,160
280,45,101944,2,0,L|390:180,1,160
356,242,102147,2,0,L|231:343,1,160
27,364,102350,2,0,L|153:258,1,160
126,129,102552,2,0,L|2:231,1,160
264,161,102755,2,0,L|387:59,1,160
412,192,102958,2,0,L|287:293,1,160
27,364,103160,6,0,P|19:285|54:214,1,160
208,211,103363,2,0,P|242:281|235:360,1,160
168,141,103566,2,0,P|218:80|293:54,1,160
404,160,103769,2,0,P|378:234|317:285,1,160
22,68,103971,6,0,P|101:28|184:49,1,160
404,160,104174,2,0,P|325:200|242:179,1,160
39,167,104377,2,0,P|118:127|201:148,1,160
421,259,104579,2,0,P|342:299|259:278,1,160
257,132,104782,6,0,P|336:92|336:146,1,178.343949044586
322,261,105593,6,0,P|254:255|178:194,1,160
457,91,105796,2,0,P|451:159|390:235,1,160
229,72,105998,2,0,P|297:78|373:139,1,160
94,242,106201,2,0,P|100:174|161:98,1,160
246,348,106404,1,0,0:0:0:0:
473,215,106606,2,0,L|421:214,1,40
503,185,107215,6,0,L|343:186,1,160
178,187,107417,2,0,L|18:188,1,160
0,159,108025,6,0,L|159:157,1,160
325,157,108227,2,0,L|484:155,1,160
510,121,108836,6,0,L|350:122,1,160
185,123,109038,2,0,L|25:124,1,160
5,94,109647,6,0,L|164:92,1,160
330,92,109849,2,0,L|489:90,1,160
466,22,110458,6,0,P|434:75|311:96,1,160
257,49,111066,2,0,P|180:68|135:131,1,160
286,217,111674,2,0,P|351:227|342:148,1,160
252,291,112282,2,0,P|318:317|415:272,1,160
124,143,112890,1,0,0:0:0:0:
124,143,113498,1,0,0:0:0:0:
248,268,113701,6,0,P|171:318|88:279,1,160
274,158,114309,2,0,P|355:199|363:290,1,160
165,190,114917,2,0,P|160:98|234:46,1,160
213,217,116133,1,0,0:0:0:0:
213,217,116742,1,0,0:0:0:0:
213,217,116944,1,0,0:0:0:0:
246,227,117552,1,0,0:0:0:0:
226,223,118160,1,0,0:0:0:0:
226,223,118769,1,0,0:0:0:0:
111,167,119377,1,0,0:0:0:0:
111,167,119985,1,0,0:0:0:0:
111,167,120187,1,0,0:0:0:0:
111,167,120796,1,0,0:0:0:0:
111,167,121404,1,0,0:0:0:0:
111,167,122012,1,0,0:0:0:0:
111,167,122620,1,0,0:0:0:0:
