osu file format v14

[General]
AudioFilename: audio.mp3
AudioLeadIn: 0
PreviewTime: 149012
Countdown: 0
SampleSet: Soft
StackLeniency: 0.5
Mode: 0
LetterboxInBreaks: 0
WidescreenStoryboard: 1

[Editor]
Bookmarks: 6491,58382,149215,188167
DistanceSpacing: 0.4
BeatDivisor: 4
GridSize: 8
TimelineZoom: 1.8

[Metadata]
Title:Mr. Brightside
TitleUnicode:Mr. Brightside
Artist:The Killers
ArtistUnicode:The Killers
Creator:banter
Version:Infidelity
Source:
Tags:an all time classic 8)
BeatmapID:2310127
BeatmapSetID:627472

[Difficulty]
HPDrainRate:4
CircleSize:3.8
OverallDifficulty:8
ApproachRate:9
SliderMultiplier:1.8
SliderTickRate:1

[Events]
//Background and Video events
0,0,"197394 - Copy (2).jpg",0,0
//Break Periods
//Storyboard Layer 0 (Background)
//Storyboard Layer 1 (Fail)
//Storyboard Layer 2 (Pass)
//Storyboard Layer 3 (Foreground)
//Storyboard Layer 4 (Overlay)
//Storyboard Sound Samples

[TimingPoints]
46,405.405405405405,4,2,0,50,1,0
2883,377.358490566038,4,2,0,50,1,0
3260,405.405405405405,4,2,0,50,1,0
4476,422.535211267606,4,2,0,50,1,0
4898,405.405405405405,4,2,0,50,1,0
6114,377.358490566038,4,2,0,50,1,0
6491,405.405405405405,4,2,0,50,1,0
19463,-90.9090909090909,4,2,0,50,0,0
32436,-86.9565217391304,4,2,0,50,0,0
32740,-86.9565217391304,4,2,0,5,0,0
32842,-86.9565217391304,4,2,0,50,0,0
34362,-86.9565217391304,4,2,0,5,0,0
34464,-86.9565217391304,4,2,0,50,0,0
34768,-86.9565217391304,4,2,0,5,0,0
34870,-86.9565217391304,4,2,0,50,0,0
35173,-86.9565217391304,4,2,0,5,0,0
35275,-86.9565217391304,4,2,0,50,0,0
37605,-86.9565217391304,4,2,0,5,0,0
37707,-86.9565217391304,4,2,0,50,0,0
38923,-100,4,2,0,50,0,0
45409,-86.9565217391304,4,2,0,50,0,0
45713,-86.9565217391304,4,2,0,5,0,0
45815,-86.9565217391304,4,2,0,50,0,0
47842,-71.5307582260372,4,2,0,50,0,0
48653,-86.9565217391304,4,2,0,50,0,0
51896,-100,4,2,0,50,0,0
56761,-100,4,2,0,50,0,0
58382,-79.9999999999999,4,2,0,50,0,1
60004,-68.9655172413793,4,2,0,50,0,1
60815,-80,4,2,0,50,0,1
64869,-68.9655172413793,4,2,0,50,0,1
65680,-80,4,2,0,50,0,1
66490,-80,4,2,0,50,0,1
71355,-68.9655172413793,4,2,0,50,0,1
72166,-80,4,2,0,50,0,1
72977,-68.9655172413793,4,2,0,50,0,1
73382,-74.0740740740741,4,2,0,50,0,1
73788,-80,4,2,0,50,0,1
76220,-80,4,2,0,50,0,1
84328,-83.3333333333333,4,2,0,50,0,0
85950,-74.0740740740741,4,2,0,50,0,0
87572,-83.3333333333333,4,2,0,50,0,0
89193,-76.9230769230769,4,2,0,50,0,0
89599,-83.3333333333333,4,2,0,50,0,0
90004,-90.9090909090909,4,2,0,50,0,0
90815,-80,4,2,0,50,0,0
92436,-74.0740740740741,4,2,0,50,0,0
94058,-80,4,2,0,50,0,0
95680,-86.9565217391304,4,2,0,50,0,0
97301,428.571428571429,4,2,0,50,1,0
97729,405.405405405405,4,2,0,50,1,0
97729,-90.9090909090909,4,2,0,50,0,0
108472,-142.857142857143,4,2,0,50,0,0
110296,-86.9565217391304,4,2,0,50,0,0
123269,-86.9565217391304,4,2,0,50,0,0
123573,-86.9565217391304,4,2,0,5,0,0
123674,-86.9565217391304,4,2,0,50,0,0
125195,-86.9565217391304,4,2,0,5,0,0
125296,-86.9565217391304,4,2,0,50,0,0
125600,-86.9565217391304,4,2,0,5,0,0
125701,-86.9565217391304,4,2,0,50,0,0
126006,-86.9565217391304,4,2,0,5,0,0
126107,-86.9565217391304,4,2,0,50,0,0
126816,-86.9565217391304,4,2,0,5,0,0
126917,-86.9565217391304,4,2,0,50,0,0
128438,-86.9565217391304,4,2,0,5,0,0
128539,-86.9565217391304,4,2,0,50,0,0
136242,-86.9565217391303,4,2,0,50,0,0
138674,-71.4285714285714,4,2,0,50,0,0
139485,-86.9565217391303,4,2,0,50,0,0
142728,-95.2380952380952,4,2,0,50,0,0
149215,-76.9230769230769,4,2,0,50,0,1
150837,-66.6666666666667,4,2,0,50,0,1
151647,-76.9230769230769,4,2,0,50,0,1
155701,-66.6666666666667,4,2,0,50,0,1
156512,-76.9230769230769,4,2,0,50,0,1
157323,-76.9230769230769,4,2,0,50,0,1
162188,-66.6666666666667,4,2,0,50,0,1
162999,-76.9230769230769,4,2,0,50,0,1
163810,-66.6666666666667,4,2,0,50,0,1
164215,-71.4285714285714,4,2,0,50,0,1
164620,-76.9230769230769,4,2,0,50,0,1
167053,-76.9230769230769,4,2,0,50,0,1
173539,422.535211267606,4,2,0,50,1,1
173539,-76.9230769230769,4,2,0,50,0,1
174384,405.405405405405,4,2,0,50,1,1
175194,-117.647058823529,4,2,0,50,0,0
186546,-86.9565217391302,4,2,0,50,0,0
188167,425.531914893617,4,2,0,50,1,0
188167,-76.9230769230769,4,2,0,50,0,0
188592,400,4,2,0,50,1,0
188592,-76.9230769230769,4,2,0,50,0,0
189792,-68.9655172413793,4,2,0,50,0,0
190192,405.405405405405,4,2,0,50,1,0
190192,-68.9655172413793,4,2,0,50,0,0
191408,397.350993377483,4,2,0,50,1,0
191408,-76.9230769230769,4,2,0,50,0,0
191805,405.405405405405,4,2,0,50,1,0
191805,-76.9230769230769,4,2,0,50,0,0
193021,-71.4285714285714,4,2,0,50,0,0
193426,-76.9230769230769,4,2,0,50,0,0
193832,-83.3333333333333,4,2,0,50,0,0
194642,-68.9655172413793,4,2,0,50,0,0
196264,-74.0740740740741,4,2,0,50,0,0
201129,-69.3481276005549,4,2,0,50,0,0
201534,422.535211267606,4,2,0,50,1,0
201534,-69.4444444444444,4,2,0,50,0,0
202379,405.405405405405,4,2,0,50,1,0
202379,-69.4444444444444,4,2,0,50,0,0
204406,-72.463768115942,4,2,0,50,0,0
206027,-74.0740740740741,4,2,0,50,0,0
206433,-80,4,2,0,50,0,0
210892,397.350993377483,4,2,0,50,1,0
211289,387.096774193548,4,2,0,50,1,0
211676,405.405405405405,4,2,0,50,1,0
212486,437.956204379562,4,2,0,50,1,0
217741,-133.333333333333,4,2,0,50,0,0
221245,-133.333333333333,4,2,0,5,0,0

[HitObjects]
50,90,46,5,0,0:0:0:0:
244,127,451,1,0,0:0:0:0:
156,60,856,1,0,0:0:0:0:
137,157,1059,1,0,0:0:0:0:
156,60,1262,1,0,0:0:0:0:
499,269,1667,5,0,0:0:0:0:
305,232,2072,1,0,0:0:0:0:
412,202,2477,1,0,0:0:0:0:
393,299,2680,1,0,0:0:0:0:
411,202,2883,1,0,0:0:0:0:
73,375,3260,5,0,0:0:0:0:
36,182,3665,1,0,0:0:0:0:
6,288,4070,1,0,0:0:0:0:
103,269,4273,1,0,0:0:0:0:
6,288,4476,1,0,0:0:0:0:
314,6,4898,5,0,0:0:0:0:
277,199,5303,1,0,0:0:0:0:
344,112,5708,1,0,0:0:0:0:
247,93,5911,1,0,0:0:0:0:
344,112,6114,1,0,0:0:0:0:
263,348,6491,5,0,0:0:0:0:
190,280,6693,1,0,0:0:0:0:
184,270,6795,1,0,0:0:0:0:
178,260,6896,2,0,L|167:165,1,90
262,198,7301,1,0,0:0:0:0:
84,219,7504,2,0,L|36:224,1,45
247,93,7707,1,0,0:0:0:0:
74,245,7909,2,0,L|26:250,1,45
156,78,8112,5,0,0:0:0:0:
156,78,8315,1,0,0:0:0:0:
279,179,8518,2,0,P|325:182|387:163,1,90
305,22,8923,1,0,0:0:0:0:
190,165,9126,2,0,L|156:206,1,45
367,172,9328,1,0,0:0:0:0:
160,161,9531,2,0,L|126:202,1,45
438,256,9734,6,0,P|463:217|478:154,1,90
329,275,10139,1,0,0:0:0:0:
508,340,10342,1,0,0:0:0:0:
303,373,10545,1,0,0:0:0:0:
484,347,10747,2,0,L|527:359,1,45
305,264,10950,1,0,0:0:0:0:
208,367,11153,6,0,P|164:376|120:366,1,90
0,276,11558,1,0,0:0:0:0:
22,381,11761,1,0,0:0:0:0:
170,275,11963,1,0,0:0:0:0:
77,211,12166,5,0,0:0:0:0:
79,223,12267,1,0,0:0:0:0:
80,234,12369,2,0,L|87:305,1,45
166,186,12572,1,0,0:0:0:0:
166,175,12673,1,0,0:0:0:0:
165,163,12775,1,0,0:0:0:0:
164,152,12876,1,0,0:0:0:0:
163,140,12977,6,0,L|157:50,1,90
58,101,13382,1,0,0:0:0:0:
77,211,13585,1,0,0:0:0:0:
268,179,13788,1,0,0:0:0:0:
249,69,13990,2,0,L|190:61,1,45
373,218,14193,1,0,0:0:0:0:
241,43,14396,2,0,L|196:36,1,45
459,146,14599,5,0,0:0:0:0:
287,290,14801,1,0,0:0:0:0:
268,179,15004,1,0,0:0:0:0:
478,257,15207,1,0,0:0:0:0:
459,146,15409,1,0,0:0:0:0:
391,329,15612,2,0,L|386:379,1,45
356,118,15815,1,0,0:0:0:0:
366,337,16018,2,0,L|360:386,1,45
188,259,16220,6,0,P|144:252|99:253,1,90
201,362,16626,1,0,0:0:0:0:
287,290,16828,1,0,0:0:0:0:
170,150,17031,1,0,0:0:0:0:
189,260,17233,1,0,0:0:0:0:
275,188,17436,1,0,0:0:0:0:
88,118,17639,1,0,0:0:0:0:
88,118,17842,6,0,L|0:103,1,90
162,19,18247,1,0,0:0:0:0:
190,135,18450,1,0,0:0:0:0:
305,22,18653,1,0,0:0:0:0:
127,198,18855,5,0,0:0:0:0:
404,123,19058,1,0,0:0:0:0:
215,109,19261,1,0,0:0:0:0:
437,252,19463,6,0,P|445:304|445:370,1,99.0000030212403
282,275,19869,2,0,P|274:327|274:393,1,99.0000030212403
351,206,20274,1,0,0:0:0:0:
201,230,20477,1,0,0:0:0:0:
360,314,20680,1,0,0:0:0:0:
185,335,20882,1,0,0:0:0:0:
141,154,21085,6,0,P|89:146|23:146,1,99.0000030212403
201,230,21490,1,0,0:0:0:0:
184,73,21693,1,0,0:0:0:0:
109,242,21896,1,0,0:0:0:0:
293,218,22099,2,0,L|299:152,1,49.5000015106202
166,319,22301,1,0,0:0:0:0:
320,212,22504,2,0,L|326:146,1,49.5000015106202
144,338,22707,6,0,P|92:346|26:346,1,99.0000030212403
201,230,23112,1,0,0:0:0:0:
272,373,23315,1,0,0:0:0:0:
437,252,23518,1,0,0:0:0:0:
312,295,23720,2,0,L|246:289,1,49.5000015106202
448,338,23923,1,0,0:0:0:0:
328,276,24126,2,0,L|262:270,1,49.5000015106202
492,160,24328,6,0,P|499:111|501:61,1,99.0000030212403
294,81,24734,1,0,0:0:0:0:
395,42,24936,1,0,0:0:0:0:
207,23,25139,1,0,0:0:0:0:
275,176,25342,2,0,L|267:240,1,49.5000015106202
376,137,25545,1,0,0:0:0:0:
198,115,25747,2,0,L|190:179,1,49.5000015106202
109,254,25950,6,0,P|54:262|3:258,1,99.0000030212403
99,148,26355,1,0,0:0:0:0:
190,222,26558,1,0,0:0:0:0:
198,115,26761,1,0,0:0:0:0:
199,249,26963,1,0,0:0:0:0:
336,155,27166,1,0,0:0:0:0:
199,249,27369,1,0,0:0:0:0:
336,155,27572,6,0,P|385:152|434:160,1,99.0000030212403
483,341,27977,1,0,0:0:0:0:
392,267,28180,1,0,0:0:0:0:
384,374,28383,1,0,0:0:0:0:
383,240,28585,1,0,0:0:0:0:
246,334,28788,1,0,0:0:0:0:
383,240,28991,1,0,0:0:0:0:
190,222,29193,6,0,P|187:172|195:123,1,99.0000030212403
294,50,29599,1,0,0:0:0:0:
109,89,29801,1,0,0:0:0:0:
295,74,30004,1,0,0:0:0:0:
107,64,30207,2,0,L|48:51,1,49.5000015106202
292,171,30409,1,0,0:0:0:0:
197,10,30612,2,0,L|138:-3,1,49.5000015106202
190,222,30815,5,0,0:0:0:0:
292,171,31018,1,0,0:0:0:0:
109,89,31220,1,0,0:0:0:0:
105,279,31423,1,0,0:0:0:0:
385,251,31626,5,0,0:0:0:0:
56,197,31828,1,0,0:0:0:0:
413,255,32031,1,0,0:0:0:0:
112,376,32234,1,0,0:0:0:0:
355,182,32436,6,0,P|364:105|352:28,1,155.250002961159
329,15,32842,2,0,L|225:5,1,103.500001974106
138,133,33247,2,0,L|241:123,1,103.500001974106
455,105,33653,1,0,0:0:0:0:
295,262,33855,1,0,0:0:0:0:
163,55,34058,6,0,B|129:39|129:39|68:62|51:122,1,155.250002961159
60,152,34463,2,0,B|63:187|63:187|113:228|174:213,1,155.250002961159
196,193,34869,2,0,B|225:170|225:170|236:106|191:61,1,155.250002961159
138,133,35274,1,0,0:0:0:0:
380,257,35680,5,0,0:0:0:0:
84,292,36085,1,0,0:0:0:0:
387,232,36490,1,0,0:0:0:0:
77,317,36896,1,0,0:0:0:0:
232,275,37099,1,0,0:0:0:0:
15,214,37301,6,0,P|-3:140|2:63,1,155.250002961159
35,40,37707,2,0,P|22:90|22:141,1,103.500001974106
299,170,38112,2,0,P|311:120|312:69,1,103.500001974106
168,106,38518,1,0,0:0:0:0:
146,261,38720,1,0,0:0:0:0:
386,226,38923,6,0,P|406:138|406:48,1,180
214,196,39734,1,0,0:0:0:0:
407,48,39936,1,0,0:0:0:0:
214,196,40139,1,0,0:0:0:0:
445,139,40342,1,0,0:0:0:0:
241,51,40545,6,0,P|187:49|141:59,1,90
485,216,40950,1,0,0:0:0:0:
296,172,41153,1,0,0:0:0:0:
430,297,41355,1,0,0:0:0:0:
490,67,41558,1,0,0:0:0:0:
430,297,41761,1,0,0:0:0:0:
364,121,41963,1,0,0:0:0:0:
192,281,42166,6,0,P|104:301|14:301,1,180
77,216,42774,1,0,0:0:0:0:
275,323,42977,1,0,0:0:0:0:
15,302,43180,1,0,0:0:0:0:
275,323,43382,1,0,0:0:0:0:
15,302,43585,1,0,0:0:0:0:
273,231,43788,6,0,P|282:188|284:143,1,90
146,15,44193,1,0,0:0:0:0:
171,171,44396,1,0,0:0:0:0:
240,60,44599,1,0,0:0:0:0:
16,137,44801,1,0,0:0:0:0:
306,189,45004,1,0,0:0:0:0:
257,30,45207,1,0,0:0:0:0:
213,253,45409,6,0,B|195:381|195:381|216:366,1,155.250002961159
287,323,45815,2,0,B|301:220,1,103.500001974106
123,282,46220,2,0,B|108:384,1,103.500001974106
375,290,46626,2,0,B|389:187,1,103.500001974106
258,118,47031,6,0,B|286:322,1,207.000003948212
216,366,47842,2,0,B|258:117,1,251.639987712891
356,379,48450,1,0,0:0:0:0:
258,118,48653,6,0,P|332:100|409:105,1,155.250002961159
432,138,49059,2,0,P|382:125|331:125,1,103.500001974106
48,217,49463,2,0,P|99:217|149:204,1,103.500001974106
99,9,49869,2,0,L|88:111,1,103.500001974106
382,333,50274,6,0,L|371:230,1,103.500001974106
186,316,50680,1,0,0:0:0:0:
464,271,50882,1,0,0:0:0:0:
172,347,51085,1,0,0:0:0:0:
266,51,51288,1,0,0:0:0:0:
318,384,51490,1,0,0:0:0:0:
371,230,51693,1,0,0:0:0:0:
112,238,51896,6,0,P|68:237|24:230,1,90
168,151,52301,1,0,0:0:0:0:
203,287,52504,1,0,0:0:0:0:
267,158,52707,2,0,P|311:150|356:150,1,90
455,300,53112,2,0,P|447:255|447:210,1,90
434,25,53518,6,0,P|441:69|441:114,1,90
354,257,53923,1,0,0:0:0:0:
334,51,54126,1,0,0:0:0:0:
267,158,54328,1,0,0:0:0:0:
381,164,54531,1,0,0:0:0:0:
221,52,54734,1,0,0:0:0:0:
178,200,54936,1,0,0:0:0:0:
119,44,55139,6,0,P|75:36|30:36,1,90
84,241,55545,1,0,0:0:0:0:
68,133,55747,1,0,0:0:0:0:
33,330,55950,2,0,P|77:338|122:338,1,90
313,329,56355,1,0,0:0:0:0:
222,278,56558,1,0,0:0:0:0:
415,303,56761,5,0,0:0:0:0:
280,74,56963,1,0,0:0:0:0:
232,373,57166,1,0,0:0:0:0:
351,139,57369,1,0,0:0:0:0:
71,205,57572,1,0,0:0:0:0:
393,217,57774,1,0,0:0:0:0:
118,129,57977,1,0,0:0:0:0:
149,384,58180,1,0,0:0:0:0:
481,237,58382,6,0,P|494:160|488:51,1,168.75
462,52,58788,2,0,P|469:98|466:164,1,112.5
186,85,59193,2,0,P|270:81|353:95,1,168.75
376,113,59599,1,0,0:0:0:0:
266,263,59801,1,0,0:0:0:0:
7,232,60004,6,0,P|1:109|19:30,1,195.750005973816
118,0,60409,2,0,P|93:72|85:144,1,130.500003982544
353,95,60815,2,0,P|270:81|186:85,1,168.75
172,124,61220,2,0,P|218:116|284:119,1,112.5
184,296,61626,6,0,P|139:368|135:283,1,225
172,124,62234,1,0,0:0:0:0:
232,308,62436,2,0,P|187:380|183:295,1,225
232,308,63247,6,0,P|309:321|418:315,1,168.75
429,305,63653,2,0,P|437:249|433:193,1,112.5
332,32,64058,2,0,P|318:115|321:199,1,168.75
336,235,64463,1,0,0:0:0:0:
428,93,64666,1,0,0:0:0:0:
140,165,64869,6,0,B|63:182|5:156|5:156|2:116|28:81|28:81|39:100|36:123,1,261.000007965088
192,20,65477,1,0,0:0:0:0:
229,201,65680,2,0,B|163:216|113:194|113:194|110:159|133:129|133:129|142:145|139:165,1,225
393,366,66490,6,0,P|412:284|414:200,1,168.75
381,166,66896,2,0,P|389:221|387:276,1,112.5
116,314,67301,2,0,P|198:294|282:292,1,168.75
316,326,67707,2,0,P|260:317|205:319,1,112.5
0,145,68112,6,0,P|109:173|222:173,1,225
357,101,68720,1,0,0:0:0:0:
37,68,68923,2,0,P|118:89|203:90,1,168.75
219,58,69328,1,0,0:0:0:0:
194,262,69531,1,0,0:0:0:0:
356,100,69734,6,0,P|374:31|429:76,1,168.75
448,101,70139,2,0,P|442:154|449:216,1,112.5
490,343,70545,1,0,0:0:0:0:
217,236,70747,1,0,0:0:0:0:
508,317,70950,1,0,0:0:0:0:
333,381,71153,1,0,0:0:0:0:
292,70,71355,6,0,B|191:49|202:114|100:96,1,195.750005973816
137,13,71761,1,0,0:0:0:0:
252,153,71963,2,0,P|256:191|253:227,1,65.250001991272
29,149,72166,2,0,P|15:94|30:39,1,112.5
254,217,72572,1,0,0:0:0:0:
350,152,72774,1,0,0:0:0:0:
163,191,72977,6,0,P|154:281|172:401,1,195.750005973816
202,367,73382,2,0,P|261:380|321:379,1,121.500000463486
502,302,73788,2,0,P|421:277|337:271,1,168.75
306,280,74193,1,0,0:0:0:0:
431,381,74396,1,0,0:0:0:0:
433,105,74599,6,0,P|388:32|384:117,1,225
421,277,75207,1,0,0:0:0:0:
481,93,75409,2,0,P|436:20|432:105,1,225
9,226,76220,6,0,P|67:245|156:241,1,112.5
191,350,76626,2,0,P|246:346|300:328,1,112.5
247,135,77031,1,0,0:0:0:0:
219,250,77234,1,0,0:0:0:0:
408,290,77436,1,0,0:0:0:0:
436,175,77639,1,0,0:0:0:0:
208,25,77842,6,0,L|219:253,1,225
346,87,78450,2,0,L|315:328,1,225
450,280,79058,2,0,L|404:387,1,112.5
123,203,79463,6,0,P|61:190|-1:197,1,112.5
119,341,79869,1,0,0:0:0:0:
122,365,80072,1,0,0:0:0:0:
219,165,80274,2,0,P|232:103|225:41,1,112.5
205,270,80680,1,0,0:0:0:0:
402,297,80882,1,0,0:0:0:0:
327,113,81085,5,0,0:0:0:0:
311,226,81288,1,0,0:0:0:0:
416,183,81490,2,0,P|423:94|406:9,1,168.75
377,24,81896,2,0,P|324:3|268:0,1,112.5
116,119,82301,2,0,P|171:114|224:94,1,112.5
53,25,82707,5,0,0:0:0:0:
26,210,82909,1,0,0:0:0:0:
301,184,83112,1,0,0:0:0:0:
182,144,83315,1,0,0:0:0:0:
212,273,83518,1,0,0:0:0:0:
269,0,83720,1,0,0:0:0:0:
333,368,83923,1,0,0:0:0:0:
420,224,84126,1,0,0:0:0:0:
176,359,84328,6,0,P|123:373|70:371,1,107.999996704102
101,168,84734,2,0,L|112:275,1,107.999996704102
352,270,85139,2,0,P|404:284|457:282,1,107.999996704102
260,112,85545,1,0,0:0:0:0:
212,273,85747,1,0,0:0:0:0:
150,76,85950,6,0,P|89:74|30:90,1,121.500000463486
413,199,86355,2,0,L|425:78,1,121.500000463486
101,168,86761,2,0,L|114:294,1,121.500000463486
344,276,87166,2,0,P|402:291|462:290,1,121.500000463486
253,345,87572,6,0,P|234:285|246:179,1,161.999995056153
261,168,87977,2,0,L|372:158,1,107.999996704102
113,288,88382,2,0,L|2:278,1,107.999996704102
170,103,88788,1,0,0:0:0:0:
205,269,88990,1,0,0:0:0:0:
462,218,89193,6,0,P|469:158|454:82,1,116.999994644165
276,104,89599,2,0,P|324:140|397:165,1,107.999996704102
459,10,90004,2,0,P|404:33|348:83,1,99.0000030212403
378,270,90409,1,0,0:0:0:0:
461,103,90612,1,0,0:0:0:0:
447,350,90815,6,0,P|394:365|338:367,1,112.5
88,235,91220,2,0,P|153:233|215:249,1,112.5
368,158,91626,2,0,L|378:271,1,112.5
136,330,92031,1,0,0:0:0:0:
286,290,92234,1,0,0:0:0:0:
136,149,92436,6,0,P|121:82|126:6,1,121.500000463486
368,158,92842,2,0,P|383:91|378:15,1,121.500000463486
34,45,93247,2,0,P|33:105|48:164,1,121.500000463486
209,227,93653,1,0,0:0:0:0:
248,79,93856,1,0,0:0:0:0:
15,246,94058,6,0,B|-17:312|7:376|7:376|25:376|39:364,1,168.75
113,327,94463,2,0,P|172:316|242:321,1,112.5
401,375,94869,2,0,P|456:385|512:384,1,112.5
363,180,95274,1,0,0:0:0:0:
323,317,95477,1,0,0:0:0:0:
473,235,95680,6,0,P|481:145|470:69,1,155.250002961159
453,57,96085,2,0,L|338:47,1,103.500001974106
207,35,96490,1,0,0:0:0:0:
363,180,96693,1,0,0:0:0:0:
100,154,96896,1,0,0:0:0:0:
281,94,97099,1,0,0:0:0:0:
173,244,97301,6,0,P|166:310|168:362,1,90
366,273,97729,1,0,0:0:0:0:
401,182,97931,1,0,0:0:0:0:
242,174,98134,1,0,0:0:0:0:
268,268,98337,1,0,0:0:0:0:
324,120,98539,1,0,0:0:0:0:
173,244,98742,1,0,0:0:0:0:
237,76,98945,5,0,0:0:0:0:
317,206,99147,1,0,0:0:0:0:
123,127,99350,2,0,P|74:125|26:136,1,99.0000030212403
317,39,99756,2,0,P|365:49|414:47,1,99.0000030212403
155,3,100161,1,0,0:0:0:0:
324,120,100364,1,0,0:0:0:0:
82,225,100566,6,0,P|71:273|73:322,1,99.0000030212403
344,202,100972,1,0,0:0:0:0:
169,280,101174,1,0,0:0:0:0:
378,312,101377,1,0,0:0:0:0:
197,276,101580,1,0,0:0:0:0:
374,199,101783,1,0,0:0:0:0:
408,318,101985,6,0,P|458:343|511:351,1,99.0000030212403
451,136,102391,1,0,0:0:0:0:
309,206,102593,1,0,0:0:0:0:
464,240,102796,1,0,0:0:0:0:
349,124,102999,1,0,0:0:0:0:
327,119,103100,1,0,0:0:0:0:
305,114,103201,2,0,L|295:41,1,49.5000015106202
378,0,103404,2,0,L|384:49,1,49.5000015106202
220,96,103607,1,0,0:0:0:0:
198,101,103708,1,0,0:0:0:0:
176,106,103810,6,0,L|77:92,1,99.0000030212403
83,238,104215,1,0,0:0:0:0:
227,180,104418,1,0,0:0:0:0:
252,384,104620,1,0,0:0:0:0:
297,236,104823,2,0,L|316:177,1,49.5000015106202
122,353,105026,1,0,0:0:0:0:
324,233,105229,2,0,L|343:174,1,49.5000015106202
19,325,105431,5,0,0:0:0:0:
191,181,105633,1,0,0:0:0:0:
210,292,105836,1,0,0:0:0:0:
0,214,106039,1,0,0:0:0:0:
19,325,106241,1,0,0:0:0:0:
87,142,106444,2,0,L|92:92,1,49.5000015106202
122,353,106647,1,0,0:0:0:0:
112,134,106850,2,0,L|118:85,1,49.5000015106202
298,318,107053,6,0,P|346:328|395:326,1,99.0000030212403
378,194,107458,1,0,0:0:0:0:
353,188,107661,1,0,0:0:0:0:
341,209,107864,1,0,0:0:0:0:
357,228,108067,1,0,0:0:0:0:
380,219,108269,1,0,0:0:0:0:
403,210,108472,2,0,L|414:142,1,62.9999980773926
118,84,108877,5,0,0:0:0:0:
433,59,109080,1,0,0:0:0:0:
433,59,109283,1,0,0:0:0:0:
168,196,109485,1,0,0:0:0:0:
501,127,109688,1,0,0:0:0:0:
198,0,109891,1,0,0:0:0:0:
198,0,110094,1,0,0:0:0:0:
269,244,110296,6,0,P|280:296|277:347,1,103.500001974106
33,270,110701,1,0,0:0:0:0:
186,304,110904,1,0,0:0:0:0:
69,182,111107,1,0,0:0:0:0:
249,159,111310,2,0,L|317:148,1,51.7500009870529
121,250,111512,1,0,0:0:0:0:
259,132,111715,2,0,L|327:121,1,51.7500009870529
17,114,111918,6,0,P|6:63|8:12,1,103.500001974106
33,4,112222,1,0,0:0:0:0:
33,4,112323,1,0,0:0:0:0:
134,116,112526,1,0,0:0:0:0:
266,30,112728,1,0,0:0:0:0:
289,19,112829,1,0,0:0:0:0:
315,16,112930,1,0,0:0:0:0:
340,18,113032,1,0,0:0:0:0:
365,27,113134,2,0,L|374:92,1,51.7500009870529
498,242,113337,2,0,L|490:190,1,51.7500009870529
470,0,113539,6,0,L|455:102,1,103.500001974106
423,304,113945,1,0,0:0:0:0:
369,141,114147,1,0,0:0:0:0:
498,242,114350,1,0,0:0:0:0:
289,220,114553,2,0,L|226:215,1,51.7500009870529
506,330,114756,1,0,0:0:0:0:
277,192,114958,2,0,L|214:187,1,51.7500009870529
498,242,115161,6,0,P|508:191|506:140,1,103.500001974106
445,80,115465,1,0,0:0:0:0:
445,80,115566,1,0,0:0:0:0:
386,257,115769,2,0,L|357:319,1,51.7500009870529
506,140,115972,1,0,0:0:0:0:
360,253,116174,2,0,L|331:315,1,51.7500009870529
384,20,116377,1,0,0:0:0:0:
427,186,116580,1,0,0:0:0:0:
260,49,116783,6,0,P|209:38|158:40,1,103.500001974106
68,190,117188,1,0,0:0:0:0:
223,118,117391,1,0,0:0:0:0:
188,282,117593,1,0,0:0:0:0:
246,99,117796,2,0,L|265:26,1,51.7500009870529
329,289,117999,1,0,0:0:0:0:
276,89,118201,2,0,L|295:16,1,51.7500009870529
101,267,118404,6,0,P|50:277|0:275,1,103.500001974106
255,360,118810,1,0,0:0:0:0:
165,192,119012,1,0,0:0:0:0:
343,273,119215,1,0,0:0:0:0:
150,167,119418,1,0,0:0:0:0:
375,153,119620,1,0,0:0:0:0:
135,142,119823,1,0,0:0:0:0:
464,212,120026,6,0,P|474:161|472:110,1,103.500001974106
294,99,120431,1,0,0:0:0:0:
507,36,120634,1,0,0:0:0:0:
305,125,120837,1,0,0:0:0:0:
495,9,121040,1,0,0:0:0:0:
342,230,121242,1,0,0:0:0:0:
385,27,121445,1,0,0:0:0:0:
458,349,121647,1,0,0:0:0:0:
317,151,121850,5,0,0:0:0:0:
356,148,121951,1,0,0:0:0:0:
392,162,122053,1,0,0:0:0:0:
417,191,122154,1,0,0:0:0:0:
426,228,122256,1,0,0:0:0:0:
419,265,122357,1,0,0:0:0:0:
396,295,122458,1,0,0:0:0:0:
361,311,122560,1,0,0:0:0:0:
323,311,122661,1,0,0:0:0:0:
289,294,122762,1,0,0:0:0:0:
267,262,122864,1,0,0:0:0:0:
245,230,122965,1,0,0:0:0:0:
213,210,123066,1,0,0:0:0:0:
175,205,123168,1,0,0:0:0:0:
139,216,123269,6,0,P|122:291|125:369,1,155.250002961159
151,380,123674,2,0,L|254:384,1,103.500001974106
342,230,124080,2,0,L|238:234,1,103.500001974106
358,384,124485,1,0,0:0:0:0:
482,225,124688,1,0,0:0:0:0:
368,1,124891,6,0,B|341:39|341:39|374:80|378:146,1,155.250002961159
375,162,125296,2,0,B|421:166|421:166|440:117|495:80,1,155.250002961159
512,75,125701,2,0,B|492:32|492:32|440:40|381:11,1,155.250002961159
368,1,126107,1,0,0:0:0:0:
274,123,126310,1,0,0:0:0:0:
152,21,126512,6,0,P|76:4|-1:7,1,155.250002961159
8,39,126918,1,0,0:0:0:0:
262,27,127323,1,0,0:0:0:0:
18,69,127728,1,0,0:0:0:0:
311,198,128134,6,0,P|329:272|324:349,1,155.250002961159
291,372,128540,2,0,P|304:322|304:271,1,103.500001974106
175,98,128945,1,0,0:0:0:0:
207,307,129147,1,0,0:0:0:0:
289,69,129350,1,0,0:0:0:0:
226,178,129553,1,0,0:0:0:0:
85,11,129756,6,0,B|42:68|42:68|59:218,1,207.000003948212
80,320,130364,1,0,0:0:0:0:
310,262,130566,1,0,0:0:0:0:
57,202,130769,1,0,0:0:0:0:
310,262,130972,1,0,0:0:0:0:
57,202,131174,1,0,0:0:0:0:
319,173,131377,6,0,P|330:119|326:58,1,103.500001974106
205,14,131783,1,0,0:0:0:0:
225,110,131985,1,0,0:0:0:0:
383,0,132188,1,0,0:0:0:0:
139,82,132391,1,0,0:0:0:0:
383,0,132593,1,0,0:0:0:0:
139,82,132796,1,0,0:0:0:0:
419,83,132999,6,0,P|440:184|437:287,1,207.000003948212
344,268,133607,1,0,0:0:0:0:
456,384,133810,1,0,0:0:0:0:
477,181,134012,1,0,0:0:0:0:
456,384,134215,1,0,0:0:0:0:
477,181,134417,1,0,0:0:0:0:
312,357,134620,6,0,P|260:358|209:347,1,103.500001974106
97,220,135026,1,0,0:0:0:0:
212,183,135229,1,0,0:0:0:0:
72,321,135432,1,0,0:0:0:0:
138,69,135634,1,0,0:0:0:0:
210,348,135837,1,0,0:0:0:0:
39,315,136040,1,0,0:0:0:0:
294,251,136242,5,0,0:0:0:0:
70,137,136445,1,0,0:0:0:0:
249,80,136647,2,0,P|326:75|404:95,1,155.250002961159
431,112,137053,2,0,P|446:161|446:212,1,103.500001974106
154,115,137458,2,0,P|154:63|169:14,1,103.500001974106
348,176,137864,6,0,P|347:279|317:377,1,207.000003948212
117,267,138674,2,0,P|239:238|348:175,1,251.999992309571
73,168,139283,1,0,0:0:0:0:
348,176,139485,6,0,P|366:102|361:25,1,155.250002961159
328,2,139891,2,0,P|341:52|341:103,1,103.500001974106
227,340,140296,2,0,P|226:288|239:238,1,103.500001974106
452,322,140701,2,0,L|350:305,1,103.500001974106
115,85,141107,5,0,0:0:0:0:
217,67,141309,1,0,0:0:0:0:
78,181,141512,1,0,0:0:0:0:
49,5,141715,1,0,0:0:0:0:
191,172,141918,1,0,0:0:0:0:
13,103,142120,1,0,0:0:0:0:
134,282,142323,1,0,0:0:0:0:
158,0,142526,1,0,0:0:0:0:
37,270,142728,6,0,P|25:326|26:380,1,94.499997116089
78,181,143134,1,0,0:0:0:0:
134,282,143337,1,0,0:0:0:0:
191,180,143539,2,0,P|238:181|284:192,1,94.499997116089
481,226,143945,2,0,P|435:236|387:238,1,94.499997116089
405,36,144350,6,0,P|415:81|417:129,1,94.499997116089
305,284,144756,1,0,0:0:0:0:
417,129,144959,1,0,0:0:0:0:
262,54,145161,1,0,0:0:0:0:
284,192,145364,1,0,0:0:0:0:
448,133,145567,1,0,0:0:0:0:
258,201,145769,1,0,0:0:0:0:
143,56,145972,6,0,P|97:45|49:43,1,94.499997116089
176,213,146378,1,0,0:0:0:0:
262,54,146580,1,0,0:0:0:0:
98,229,146783,2,0,P|87:274|85:322,1,94.499997116089
297,359,147188,1,0,0:0:0:0:
171,297,147391,1,0,0:0:0:0:
417,302,147594,5,0,0:0:0:0:
238,31,147796,1,0,0:0:0:0:
297,359,147999,1,0,0:0:0:0:
366,25,148202,1,0,0:0:0:0:
179,335,148405,1,0,0:0:0:0:
459,116,148607,1,0,0:0:0:0:
116,146,148810,1,0,0:0:0:0:
417,302,149013,1,0,0:0:0:0:
42,251,149215,6,0,P|27:164|32:66,1,175.499991966248
133,30,149621,2,0,P|120:78|116:149,1,116.999994644165
411,142,150026,2,0,P|326:118|239:112,1,175.499991966248
211,155,150431,2,0,P|223:106|227:35,1,116.999994644165
126,308,150837,6,0,P|226:291|328:294,1,202.500007724762
433,374,151242,2,0,P|435:306|451:241,1,135.000005149842
332,23,151647,2,0,P|355:107|361:194,1,175.499991966248
350,216,152053,1,0,0:0:0:0:
484,109,152256,1,0,0:0:0:0:
187,162,152458,6,0,B|98:180|37:125|37:125|75:116|107:137,1,233.999989288331
247,24,153066,1,0,0:0:0:0:
316,267,153269,2,0,B|230:279|167:237|167:237|165:193|188:160,1,233.999989288331
493,384,154080,6,0,P|507:297|503:199,1,175.499991966248
470,172,154485,2,0,P|481:225|482:286,1,116.999994644165
280,180,154891,2,0,P|277:92|291:5,1,175.499991966248
325,0,155296,1,0,0:0:0:0:
385,239,155499,1,0,0:0:0:0:
113,100,155701,6,0,P|19:132|117:146,1,270.000010299683
374,85,156310,1,0,0:0:0:0:
109,60,156512,2,0,P|28:88|112:100,1,233.999989288331
291,5,157120,1,0,0:0:0:0:
161,174,157323,6,0,P|140:260|138:348,1,175.499991966248
171,384,157729,2,0,P|164:325|168:268,1,116.999994644165
452,228,158134,2,0,P|365:249|277:251,1,175.499991966248
241,219,158540,2,0,P|300:226|358:222,1,116.999994644165
387,5,158945,6,0,B|340:69|340:69|360:241,1,233.999989288331
218,310,159553,1,0,0:0:0:0:
440,106,159756,2,0,L|460:280,1,175.499991966248
467,317,160161,1,0,0:0:0:0:
353,180,160364,1,0,0:0:0:0:
218,310,160566,6,0,B|181:332|167:378|167:378|165:327|137:296,1,175.499991966248
143,262,160972,2,0,P|99:230|42:204,1,116.999994644165
65,369,161377,1,0,0:0:0:0:
299,252,161580,1,0,0:0:0:0:
38,384,161783,1,0,0:0:0:0:
338,375,161985,1,0,0:0:0:0:
267,19,162188,6,0,B|261:91|261:91|227:135|227:135|222:213,1,202.500007724762
310,170,162593,1,0,0:0:0:0:
179,58,162796,2,0,L|105:52,1,67.5000025749208
299,252,162999,2,0,L|421:243,1,116.999994644165
137,144,163404,2,0,L|14:135,1,116.999994644165
415,242,163810,6,0,P|440:145|435:44,1,202.500007724762
351,72,164215,2,0,P|353:134|337:195,1,125.999996154785
157,316,164620,2,0,P|134:230|137:141,1,175.499991966248
154,119,165026,1,0,0:0:0:0:
248,321,165228,1,0,0:0:0:0:
39,178,165431,6,0,B|19:147|17:107|17:107|2:264,1,233.999989288331
202,384,166039,1,0,0:0:0:0:
75,90,166242,2,0,B|55:59|53:19|53:19|38:176,1,233.999989288331
147,27,166850,1,0,0:0:0:0:
307,263,167053,6,0,P|367:281|448:276,1,116.999994644165
443,93,167458,2,0,P|383:75|302:80,1,116.999994644165
148,379,167864,1,0,0:0:0:0:
278,354,168067,1,0,0:0:0:0:
233,141,168269,1,0,0:0:0:0:
101,166,168472,1,0,0:0:0:0:
411,325,168674,5,0,0:0:0:0:
411,325,168877,1,0,0:0:0:0:
411,325,169080,1,0,0:0:0:0:
362,20,169283,5,0,0:0:0:0:
362,20,169486,1,0,0:0:0:0:
362,20,169689,1,0,0:0:0:0:
224,298,169891,5,0,0:0:0:0:
224,298,170094,1,0,0:0:0:0:
224,298,170297,1,0,0:0:0:0:
497,154,170499,5,0,0:0:0:0:
497,154,170702,1,0,0:0:0:0:
497,154,170905,1,0,0:0:0:0:
192,107,171107,5,0,0:0:0:0:
411,325,171310,1,0,0:0:0:0:
362,20,171512,1,0,0:0:0:0:
341,188,171715,1,0,0:0:0:0:
108,64,171918,5,0,0:0:0:0:
130,269,172120,1,0,0:0:0:0:
192,107,172323,2,0,P|271:92|373:98,1,175.499991966248
389,117,172728,2,0,L|400:264,1,116.999994644165
99,180,173134,2,0,L|107:63,1,116.999994644165
463,309,173539,6,0,P|415:326|345:319,1,116.999994644165
199,198,173961,1,0,0:0:0:0:
257,371,174172,1,0,0:0:0:0:
492,220,174384,1,0,0:0:0:0:
99,180,174586,1,0,0:0:0:0:
398,233,174789,1,0,0:0:0:0:
265,275,174992,1,0,0:0:0:0:
124,95,175194,5,0,0:0:0:0:
153,348,175600,1,0,0:0:0:0:
407,316,176005,1,0,0:0:0:0:
377,63,176411,2,0,L|263:77,1,114.750002188683
188,32,176816,5,0,0:0:0:0:
343,379,177221,1,0,0:0:0:0:
90,284,177627,1,0,0:0:0:0:
440,127,178032,1,0,0:0:0:0:
265,205,178235,1,0,0:0:0:0:
124,95,178438,5,0,0:0:0:0:
407,316,178843,1,0,0:0:0:0:
377,63,179248,1,0,0:0:0:0:
153,348,179654,1,0,0:0:0:0:
90,284,180059,5,2,0:0:0:0:
343,379,180465,1,0,0:0:0:0:
440,127,180870,1,0,0:0:0:0:
124,95,181275,1,0,0:0:0:0:
265,205,181478,1,0,0:0:0:0:
377,63,181681,5,0,0:0:0:0:
377,63,181783,1,0,0:0:0:0:
377,63,181884,1,0,0:0:0:0:
392,189,182086,1,0,0:0:0:0:
392,189,182188,1,0,0:0:0:0:
392,189,182289,1,0,0:0:0:0:
407,316,182492,5,0,0:0:0:0:
407,316,182593,1,0,0:0:0:0:
407,316,182694,1,0,0:0:0:0:
280,331,182897,1,0,0:0:0:0:
280,331,182998,1,0,0:0:0:0:
280,331,183100,1,0,0:0:0:0:
250,81,183302,5,0,0:0:0:0:
250,81,183404,1,0,0:0:0:0:
250,81,183505,2,0,L|257:149,1,38.2500007295609
124,95,183708,1,0,0:0:0:0:
124,95,183809,1,0,0:0:0:0:
124,94,183911,2,0,L|178:138,1,38.2500007295609
138,221,184113,5,0,0:0:0:0:
138,221,184215,1,0,0:0:0:0:
138,221,184316,2,0,L|206:213,1,38.2500007295609
153,348,184519,1,0,0:0:0:0:
153,348,184620,1,0,0:0:0:0:
153,348,184721,2,0,L|196:293,1,38.2500007295609
350,380,184924,5,0,0:0:0:0:
387,382,185025,1,0,0:0:0:0:
424,371,185127,1,0,0:0:0:0:
451,344,185228,1,0,0:0:0:0:
486,356,185329,1,0,0:0:0:0:
500,322,185430,1,0,0:0:0:0:
500,283,185532,1,0,0:0:0:0:
483,249,185633,1,0,0:0:0:0:
448,224,185735,5,0,0:0:0:0:
401,249,185836,1,0,0:0:0:0:
347,245,185938,1,0,0:0:0:0:
303,214,186039,1,0,0:0:0:0:
272,170,186140,1,0,0:0:0:0:
228,139,186241,1,0,0:0:0:0:
174,135,186343,1,0,0:0:0:0:
127,160,186444,1,0,0:0:0:0:
103,208,186546,6,0,L|108:275,3,51.7500009870529
380,147,186951,2,0,L|383:95,3,51.7500009870529
193,236,187356,2,0,L|198:314,1,69.0000013160706
200,324,187559,1,0,0:0:0:0:
202,344,187661,1,0,0:0:0:0:
204,364,187762,2,0,L|321:376,1,103.500001974106
19,260,188167,6,0,P|6:316|10:375,1,116.999994644165
116,94,188592,2,0,L|0:83,1,116.999994644165
301,175,188992,2,0,P|313:118|309:59,1,116.999994644165
141,211,189392,1,0,0:0:0:0:
306,374,189592,1,0,0:0:0:0:
402,129,189792,6,0,P|399:63|378:2,1,130.500003982544
141,211,190192,2,0,P|120:272|117:337,1,130.500003982544
273,85,190597,2,0,L|112:66,1,130.500003982544
246,293,191002,2,0,L|375:277,1,130.500003982544
505,29,191408,6,0,P|478:164|483:217,1,175.499991966248
495,200,191805,2,0,P|508:258|506:316,1,116.999994644165
369,190,192210,2,0,P|366:131|379:74,1,116.999994644165
414,269,192615,1,0,0:0:0:0:
251,209,192818,1,0,0:0:0:0:
97,332,193021,6,0,L|239:311,1,125.999996154785
174,121,193426,2,0,L|121:254,1,116.999994644165
318,293,193832,1,0,0:0:0:0:
250,208,194034,1,0,0:0:0:0:
97,332,194237,1,0,0:0:0:0:
424,276,194440,1,0,0:0:0:0:
49,178,194642,6,0,P|32:108|40:21,1,130.500003982544
478,49,195048,2,0,P|479:115|463:178,1,130.500003982544
158,249,195453,2,0,P|156:183|173:120,1,130.500003982544
338,120,195859,2,0,P|355:183|354:249,1,130.500003982544
186,359,196264,6,0,L|47:328,1,121.500000463486
326,359,196669,2,0,L|444:332,1,121.500000463486
158,249,197075,2,0,L|147:127,1,121.500000463486
364,127,197480,1,0,0:0:0:0:
354,249,197682,1,0,0:0:0:0:
207,47,197886,6,0,P|112:23|16:35,1,182.250000695229
5,48,198291,2,0,L|-3:184,1,121.500000463486
214,168,198696,2,0,L|206:46,1,121.500000463486
33,118,199102,2,0,L|21:321,1,182.250000695229
45,324,199507,6,0,P|135:331|222:308,1,182.250000695229
241,285,199913,1,0,0:0:0:0:
379,370,200115,1,0,0:0:0:0:
194,361,200318,1,0,0:0:0:0:
351,81,200521,1,0,0:0:0:0:
309,329,200723,1,0,0:0:0:0:
172,238,200926,1,0,0:0:0:0:
451,195,201129,6,0,P|469:61|446:-34,1,194.669995306723
432,0,201534,2,0,P|356:-4|281:12,1,129.600003164063
58,106,201956,2,0,P|121:115|186:110,1,129.600003164063
370,97,202379,1,0,0:0:0:0:
128,13,202581,1,0,0:0:0:0:
328,213,202784,6,0,B|393:221|393:221|452:193,1,129.600003164063
116,256,203189,2,0,L|96:401,1,129.600003164063
203,117,203595,2,0,B|145:89|145:89|80:98,1,129.600003164063
242,288,204000,1,0,0:0:0:0:
375,122,204203,1,0,0:0:0:0:
129,177,204406,6,0,P|115:104|123:42,1,124.200000189514
348,243,204811,2,0,P|352:304|338:365,1,124.200000189514
280,139,205216,2,0,L|407:121,1,124.200000189514
197,281,205622,2,0,L|70:299,1,124.200000189514
23,85,206027,6,0,P|5:150|9:224,1,121.500000463486
205,113,206433,2,0,P|157:64|91:31,1,112.5
105,159,206838,1,0,0:0:0:0:
236,210,207040,1,0,0:0:0:0:
428,34,207243,1,0,0:0:0:0:
297,85,207445,1,0,0:0:0:0:
371,329,207649,5,0,0:0:0:0:
371,329,207852,1,0,0:0:0:0:
371,329,208055,1,0,0:0:0:0:
199,9,208258,5,0,0:0:0:0:
199,9,208461,1,0,0:0:0:0:
199,9,208664,1,0,0:0:0:0:
152,369,208866,5,0,0:0:0:0:
152,369,209069,1,0,0:0:0:0:
399,105,209270,5,0,0:0:0:0:
399,105,209473,1,0,0:0:0:0:
399,105,209676,1,0,0:0:0:0:
42,169,209878,5,0,0:0:0:0:
42,169,210081,1,0,0:0:0:0:
42,169,210284,1,0,0:0:0:0:
420,220,210487,5,0,0:0:0:0:
420,220,210690,1,0,0:0:0:0:
65,288,210892,5,0,0:0:0:0:
65,288,211090,1,0,0:0:0:0:
65,288,211289,1,0,0:0:0:0:
315,25,211482,5,0,0:0:0:0:
315,25,211676,1,0,0:0:0:0:
315,25,211878,1,0,0:0:0:0:
266,384,212081,5,0,0:0:0:0:
266,384,212284,1,0,0:0:0:0:
94,62,212486,5,0,0:0:0:0:
420,220,212923,1,0,0:0:0:0:
65,288,213361,1,0,0:0:0:0:
256,192,213471,12,0,221245,0:0:0:0:
