osu file format v14

[General]
AudioFilename: audio.mp3
AudioLeadIn: 0
PreviewTime: 58303
Countdown: 0
SampleSet: Soft
StackLeniency: 0.4
Mode: 0
LetterboxInBreaks: 0
WidescreenStoryboard: 0

[Editor]
Bookmarks: 58404
DistanceSpacing: 0.75
BeatDivisor: 4
GridSize: 8
TimelineZoom: 1.6

[Metadata]
Title:Mr. Brightside
TitleUnicode:Mr. Brightside
Artist:The Killers
ArtistUnicode:The Killers
Creator:DakiniBrave
Version:Caged
Source:
Tags:
BeatmapID:1725383
BeatmapSetID:823282

[Difficulty]
HPDrainRate:5
CircleSize:4
OverallDifficulty:8
ApproachRate:9
SliderMultiplier:1.9
SliderTickRate:1

[Events]
//Background and Video events
0,0,"the killers.jpg",0,0
//Break Periods
2,84559,96747
2,175403,181101
//Storyboard Layer 0 (Background)
//Storyboard Layer 1 (Fail)
//Storyboard Layer 2 (Pass)
//Storyboard Layer 3 (Foreground)
//Storyboard Sound Samples

[TimingPoints]
75,392.156862745098,4,2,1,60,1,0
75,-125,4,2,1,60,0,0
859,434.782608695652,4,2,1,60,1,0
859,-125,4,2,1,60,0,0
1682,368.098159509202,4,2,1,60,1,0
1682,-125,4,2,1,60,0,0
2082,400,4,2,1,60,1,0
2082,-125,4,2,1,60,0,0
2482,413.793103448276,4,2,1,60,1,0
2482,-125,4,2,1,60,0,0
3287,392.156862745098,4,2,1,60,1,0
3287,-125,4,2,1,60,0,0
4080,434.782608695652,4,2,1,60,1,0
4080,-125,4,2,1,60,0,0
4514,419.58041958042,4,2,1,60,1,0
4514,-125,4,2,1,60,0,0
4933,394.736842105263,4,2,1,60,1,0
4933,-125,4,2,1,60,0,0
5722,404.858299595142,4,2,1,60,1,0
5722,-125,4,2,1,60,0,0
6126,387.096774193548,4,2,1,60,1,0
6126,-125,4,2,1,60,0,0
6513,405.405405405405,4,2,1,60,1,0
6513,-111.111111111111,4,2,1,60,0,0
58414,405.405405405405,4,2,1,60,1,1
58414,-90.9090909090909,4,2,1,60,0,1
84359,-100,4,2,1,60,0,0
97347,405.405405405405,4,2,1,60,1,0
108889,405.405405405405,4,2,1,60,1,0
110330,405.405405405405,4,2,1,60,1,0
149258,405.405405405405,4,2,1,60,1,1
149258,-90.9090909090909,4,2,1,60,0,1
175203,-100,4,2,1,60,0,0
181701,405.405405405405,4,2,1,60,1,0
181701,-125,4,2,1,60,0,0
183322,-111.111111111111,4,2,1,60,0,0
184944,-100,4,2,1,60,0,0
212501,461.538461538462,4,2,1,60,1,0
212962,428.571428571429,4,2,1,60,1,0
222390,-100,4,2,1,5,0,0

[Colours]
Combo1 : 240,183,77
Combo2 : 130,234,242
Combo3 : 44,177,228
Combo4 : 226,115,99

[HitObjects]
89,144,75,6,0,L|77:229,1,76
9,250,467,2,0,L|21:335,1,76
196,291,859,1,0,0:0:0:0:
164,222,1076,1,0,0:0:0:0:
132,342,1293,2,0,P|165:365|231:369,1,76
342,344,1728,6,0,L|252:328,1,76
396,252,2082,2,0,L|306:268,1,76
441,323,2482,1,0,0:0:0:0:
481,249,2688,1,0,0:0:0:0:
409,177,2895,2,0,L|393:267,1,76
349,110,3287,6,0,P|386:106|436:74,1,76
285,50,3679,2,0,P|269:84|272:143,1,76
344,263,4080,2,0,P|341:224|326:188,1,76
171,181,4514,2,0,P|205:198|244:202,1,76
220,113,4933,5,0,0:0:0:0:
137,96,5130,1,0,0:0:0:0:
115,246,5327,1,0,0:0:0:0:
171,181,5525,1,0,0:0:0:0:
39,220,5722,2,0,P|37:257|56:306,1,76
182,277,6126,2,0,P|151:255|100:244,1,76
0,155,6513,6,0,P|36:144|76:114,1,85.4999973907472
144,40,6918,2,0,L|43:16,1,85.4999973907472
172,134,7323,1,0,0:0:0:0:
172,134,7526,1,0,0:0:0:0:
258,111,7729,1,0,0:0:0:0:
398,174,7931,6,0,B|292:150|327:220|213:195,1,170.999994781494
359,255,8540,1,0,0:0:0:0:
359,255,8742,1,0,0:0:0:0:
207,282,8945,2,0,P|167:252|145:196,1,85.4999973907472
293,309,9350,2,0,P|271:345|237:370,1,85.4999973907472
70,336,9756,6,0,L|171:349,1,85.4999973907472
112,249,10161,1,0,0:0:0:0:
21,256,10364,1,0,0:0:0:0:
164,161,10567,1,0,0:0:0:0:
73,154,10769,1,0,0:0:0:0:
112,249,10972,1,0,0:0:0:0:
209,285,11175,6,0,B|284:267|378:269,1,170.999994781494
487,290,11783,2,0,P|499:237|499:180,1,85.4999973907472
447,132,12188,1,0,0:0:0:0:
447,132,12391,1,0,0:0:0:0:
372,183,12594,2,0,P|329:179|288:169,1,85.4999973907472
208,98,12999,5,0,0:0:0:0:
208,98,13202,1,0,0:0:0:0:
296,80,13404,1,0,0:0:0:0:
296,80,13607,1,0,0:0:0:0:
188,183,13810,2,0,P|146:153|127:112,1,85.4999973907472
144,47,14215,1,0,0:0:0:0:
43,83,14418,6,0,B|37:144|37:144|58:177|58:177|52:248,1,170.999994781494
92,325,15026,1,0,0:0:0:0:
92,325,15229,1,0,0:0:0:0:
175,266,15431,1,0,0:0:0:0:
175,266,15634,1,0,0:0:0:0:
209,361,15837,2,0,P|270:340|292:299,1,85.4999973907472
319,168,16242,6,0,L|334:264,1,85.4999973907472
226,194,16648,2,0,L|239:109,1,85.4999973907472
262,7,17053,1,0,0:0:0:0:
262,7,17256,1,0,0:0:0:0:
163,44,17458,1,0,0:0:0:0:
239,109,17661,6,0,P|331:113|407:137,1,170.999994781494
502,119,18269,2,0,P|486:154|485:200,1,85.4999973907472
512,294,18675,1,0,0:0:0:0:
320,283,18877,1,0,0:0:0:0:
485,200,19080,1,0,0:0:0:0:
419,286,19283,1,0,0:0:0:0:
256,212,19485,6,0,P|315:190|347:192,1,85.4999973907472
244,125,19891,2,0,B|148:104|169:167|67:142,1,170.999994781494
22,73,20499,1,0,0:0:0:0:
14,236,20702,1,0,0:0:0:0:
78,144,20904,1,0,0:0:0:0:
207,207,21107,6,0,P|206:248|190:291,1,85.4999973907472
47,351,21512,2,0,B|152:328|124:391|239:371,1,170.999994781494
282,286,22121,1,0,0:0:0:0:
416,369,22323,1,0,0:0:0:0:
324,365,22526,1,0,0:0:0:0:
341,211,22729,6,0,P|366:242|374:295,1,85.4999973907472
282,286,23134,2,0,P|199:309|94:301,1,170.999994781494
40,246,23742,1,0,0:0:0:0:
149,132,23945,2,0,P|142:175|123:229,1,85.4999973907472
12,76,24350,6,0,P|66:75|112:58,1,85.4999973907472
164,139,24756,2,0,B|227:133|227:133|257:153|257:153|328:146,1,170.999994781494
422,131,25364,1,0,0:0:0:0:
286,68,25567,1,0,0:0:0:0:
322,156,25769,1,0,0:0:0:0:
490,70,25972,6,0,L|406:46,1,85.4999973907472
257,161,26377,2,0,P|342:159|421:130,1,170.999994781494
490,70,26985,1,0,0:0:0:0:
463,239,27188,1,0,0:0:0:0:
421,130,27391,1,0,0:0:0:0:
366,303,27594,6,0,P|354:253|353:203,1,85.4999973907472
275,331,27999,2,0,B|180:317|200:371|109:353,1,170.999994781494
28,293,28607,1,0,0:0:0:0:
162,189,28810,2,0,P|143:240|141:283,1,85.4999973907472
228,100,29215,6,0,P|222:57|206:18,1,85.4999973907472
154,181,29621,2,0,L|342:173,1,170.999994781494
427,171,30229,1,0,0:0:0:0:
341,12,30431,1,0,0:0:0:0:
363,99,30634,6,0,P|411:64|426:24,1,85.4999973907472
305,162,31040,2,0,P|282:126|245:104,1,85.4999973907472
157,95,31445,1,0,0:0:0:0:
183,296,31648,1,0,0:0:0:0:
224,184,31850,1,0,0:0:0:0:
241,373,32053,1,0,0:0:0:0:
126,220,32256,1,0,0:0:0:0:
52,380,32458,6,0,P|101:368|174:359,1,85.4999973907472
346,314,32864,2,0,P|303:306|262:297,1,85.4999973907472
52,240,33269,2,0,P|101:228|174:219,1,85.4999973907472
284,209,33675,1,0,0:0:0:0:
262,297,33877,1,0,0:0:0:0:
226,139,34080,6,0,P|231:61|251:21,1,85.4999973907472
356,159,34485,2,0,P|365:200|363:243,1,85.4999973907472
257,335,34891,2,0,P|301:323|349:321,1,85.4999973907472
190,247,35296,2,0,P|146:259|98:261,1,85.4999973907472
164,149,35702,6,0,P|224:149|292:261,1,170.999994781494
272,331,36310,1,0,0:0:0:0:
384,263,36512,2,0,L|369:158,1,85.4999973907472
453,29,36918,1,0,0:0:0:0:
493,162,37121,1,0,0:0:0:0:
379,93,37323,6,0,P|336:98|300:120,1,85.4999973907472
172,20,37729,2,0,P|208:42|250:47,1,85.4999973907472
232,210,38134,2,0,L|216:117,1,85.4999973907472
318,267,38540,1,0,0:0:0:0:
226,313,38742,1,0,0:0:0:0:
376,335,38945,6,0,B|426:334|474:348|474:348,1,85.4999973907472
411,221,39350,2,0,P|326:230|241:223,1,170.999994781494
158,186,39958,1,0,0:0:0:0:
99,249,40161,2,0,P|54:264|12:276,1,85.4999973907472
21,101,40567,6,0,P|20:151|34:199,1,85.4999973907472
123,113,40972,2,0,P|208:105|292:115,1,170.999994781494
350,185,41580,1,0,0:0:0:0:
357,49,41783,2,0,P|314:27|270:22,1,85.4999973907472
416,127,42188,6,0,P|457:120|495:99,1,85.4999973907472
470,206,42594,2,0,L|499:378,1,170.999994781494
332,346,43202,2,0,L|421:317,1,85.4999973907472
258,234,43607,6,0,L|347:263,1,85.4999973907472
190,287,44012,2,0,L|175:192,1,85.4999973907472
88,349,44418,2,0,L|103:254,1,85.4999973907472
120,66,44823,1,0,0:0:0:0:
221,195,45026,1,0,0:0:0:0:
90,150,45229,1,0,0:0:0:0:
236,40,45431,6,0,P|289:48|328:73,1,85.4999973907472
253,122,45837,2,0,B|162:106|182:166|89:149,1,170.999994781494
29,86,46445,1,0,0:0:0:0:
89,149,46648,2,0,L|73:245,1,85.4999973907472
17,313,47053,6,0,P|64:314|117:340,1,85.4999973907472
170,279,47458,2,0,P|217:278|270:252,1,85.4999973907472
328,327,47864,2,0,L|347:213,1,85.4999973907472
373,103,48269,1,0,0:0:0:0:
311,164,48472,1,0,0:0:0:0:
329,28,48675,6,0,P|387:18|427:30,1,85.4999973907472
247,66,49080,2,0,P|204:72|163:61,1,85.4999973907472
77,24,49485,2,0,L|96:214,1,170.999994781494
310,213,50296,6,0,P|261:182|211:184,1,85.4999973907472
136,347,50702,1,0,0:0:0:0:
187,262,50904,1,0,0:0:0:0:
89,261,51107,1,0,0:0:0:0:
234,348,51310,1,0,0:0:0:0:
140,176,51512,1,0,0:0:0:0:
89,261,51715,1,0,0:0:0:0:
80,90,51918,6,0,L|180:72,1,85.4999973907472
327,117,52323,1,0,0:0:0:0:
262,48,52526,1,0,0:0:0:0:
247,170,52729,2,0,P|244:219|257:258,1,85.4999973907472
404,241,53134,2,0,P|363:213|322:205,1,85.4999973907472
264,341,53540,6,0,P|307:319|335:288,1,85.4999973907472
247,170,53945,1,0,0:0:0:0:
189,302,54148,1,0,0:0:0:0:
148,184,54350,2,0,P|151:139|178:96,1,85.4999973907472
82,264,54756,2,0,L|-19:238,1,85.4999973907472
165,383,55161,6,0,L|247:361,1,85.4999973907472
357,249,55567,1,0,0:0:0:0:
348,353,55769,1,0,0:0:0:0:
267,267,55972,2,0,P|272:219|306:165,1,85.4999973907472
451,138,56377,2,0,P|406:157|343:155,1,85.4999973907472
297,98,56783,5,0,0:0:0:0:
194,183,56985,2,0,L|214:298,1,85.4999973907472
280,210,57391,1,0,0:0:0:0:
119,139,57594,1,0,0:0:0:0:
139,314,57796,1,0,0:0:0:0:
53,291,57999,2,0,P|75:255|123:228,1,85.4999973907472
233,337,58414,6,0,P|341:340|437:367,1,209.000006378174
507,265,59022,1,0,0:0:0:0:
412,181,59224,2,0,P|393:209|389:293,1,104.500003189087
497,95,59630,1,0,0:0:0:0:
412,181,59832,1,0,0:0:0:0:
333,28,60035,6,0,P|385:28|437:12,1,104.500003189087
295,120,60441,2,0,P|245:104|193:104,1,104.500003189087
205,296,60846,2,0,L|233:174,1,104.500003189087
67,252,61251,2,0,L|90:353,1,104.500003189087
291,327,61657,6,0,B|171:301|197:380|74:350,1,209.000006378174
6,293,62265,1,0,0:0:0:0:
143,194,62468,2,0,P|199:211|233:252,1,104.500003189087
2,143,62873,2,0,P|58:126|92:85,1,104.500003189087
239,48,63278,6,0,L|123:8,1,104.500003189087
219,155,63684,2,0,L|317:120,1,104.500003189087
438,111,64089,1,0,0:0:0:0:
363,26,64292,1,0,0:0:0:0:
367,196,64495,2,0,L|465:230,1,104.500003189087
493,59,64900,6,0,B|417:52|417:52|370:82|370:82|293:74,1,209.000006378174
187,19,65508,1,0,0:0:0:0:
108,182,65711,2,0,P|158:160|204:107,1,104.500003189087
7,137,66116,2,0,P|1:191|23:257,1,104.500003189087
213,316,66522,6,0,L|72:281,1,104.500003189087
296,178,66927,2,0,L|155:213,1,104.500003189087
384,257,67332,2,0,P|408:210|396:125,1,104.500003189087
311,0,67738,2,0,P|312:51|335:97,1,104.500003189087
487,269,68143,6,0,B|373:247|397:328|280:300,1,209.000006378174
171,192,68751,1,0,0:0:0:0:
223,380,68954,2,0,P|267:314|272:245,1,104.500003189087
250,108,69359,1,0,0:0:0:0:
333,187,69562,1,0,0:0:0:0:
156,130,69765,6,0,P|169:57|200:20,1,104.500003189087
51,126,70170,2,0,P|76:171|80:222,1,104.500003189087
39,313,70576,1,0,0:0:0:0:
189,213,70778,1,0,0:0:0:0:
51,126,70981,1,0,0:0:0:0:
80,222,71184,1,0,0:0:0:0:
165,115,71386,6,0,B|287:91|245:175|393:144,1,209.000006378174
453,56,71995,1,0,0:0:0:0:
365,148,72197,2,0,P|362:207|414:284,1,104.500003189087
489,371,72603,1,0,0:0:0:0:
491,266,72805,1,0,0:0:0:0:
369,355,73008,6,0,P|305:353|256:328,1,104.500003189087
106,284,73413,2,0,P|154:265|206:265,1,104.500003189087
342,164,73819,2,0,P|278:166|229:191,1,104.500003189087
368,250,74224,1,0,0:0:0:0:
425,189,74427,1,0,0:0:0:0:
511,334,74630,6,0,B|432:327|432:327|387:351|387:351|284:340,1,209.000006378174
206,265,75238,1,0,0:0:0:0:
109,338,75441,2,0,L|231:361,1,104.500003189087
104,218,75846,2,0,L|1:237,1,104.500003189087
182,135,76251,6,0,P|119:112|55:116,1,104.500003189087
260,82,76657,2,0,P|311:78|359:58,1,104.500003189087
426,2,77062,1,0,0:0:0:0:
450,94,77265,1,0,0:0:0:0:
366,219,77468,1,0,0:0:0:0:
383,137,77670,1,0,0:0:0:0:
236,29,77873,6,0,P|265:94|265:237,1,209.000006378174
78,270,78481,2,0,P|122:222|176:199,1,104.500003189087
190,319,78886,1,0,0:0:0:0:
12,335,79089,2,0,L|-4:198,1,104.500003189087
130,113,79495,6,0,P|62:133|-1:126,1,104.500003189087
61,49,79900,1,0,0:0:0:0:
185,170,80103,2,0,P|249:177|389:240,1,209.000006378174
445,372,80711,1,0,0:0:0:0:
512,200,80913,1,0,0:0:0:0:
333,338,81116,6,0,P|382:358|474:356,1,104.500003189087
257,277,81522,2,0,P|178:301|124:336,1,104.500003189087
87,360,81927,1,0,0:0:0:0:
87,360,82130,1,0,0:0:0:0:
0,209,82332,2,0,P|47:230|98:243,1,104.500003189087
260,166,82738,5,0,0:0:0:0:
213,81,82941,1,0,0:0:0:0:
209,247,83143,1,0,0:0:0:0:
304,249,83346,1,0,0:0:0:0:
260,166,83549,1,0,0:0:0:0:
158,329,83751,1,0,0:0:0:0:
163,163,83954,1,0,0:0:0:0:
209,247,84157,1,0,0:0:0:0:
163,163,84359,5,0,0:0:0:0:
126,245,97347,6,0,P|177:242|218:254,1,95
300,320,97752,2,0,B|338:204|275:236|309:132,1,190
361,64,98360,1,0,0:0:0:0:
291,12,98563,1,0,0:0:0:0:
291,12,98765,1,0,0:0:0:0:
211,61,98968,6,0,P|164:57|110:40,1,95
7,138,99374,2,0,P|52:124|99:120,1,95
185,141,99779,2,0,L|161:246,1,95
124,368,100184,1,0,0:0:0:0:
81,283,100387,1,0,0:0:0:0:
203,321,100590,6,0,P|251:329|297:316,1,95
361,252,100995,2,0,L|383:351,1,95
425,188,101401,2,0,L|447:287,1,95
345,171,101806,1,0,0:0:0:0:
380,91,102009,6,0,B|278:75|308:136|194:116,1,190
235,32,102617,2,0,P|276:11|333:0,1,95
196,116,103022,2,0,P|149:105|107:84,1,95
289,111,103428,2,0,L|275:228,1,95
276,294,103833,6,0,P|333:277|394:275,1,95
458,189,104238,2,0,P|410:183|365:168,1,95
289,111,104644,1,0,0:0:0:0:
289,111,104847,1,0,0:0:0:0:
417,97,105049,1,0,0:0:0:0:
365,168,105252,1,0,0:0:0:0:
238,34,105455,6,0,P|262:99|276:224,1,190
243,300,106063,1,0,0:0:0:0:
191,231,106265,1,0,0:0:0:0:
191,231,106468,1,0,0:0:0:0:
333,286,106671,2,0,P|389:279|426:257,1,95
475,166,107076,5,0,0:0:0:0:
138,115,108889,5,0,0:0:0:0:
163,211,109091,1,0,0:0:0:0:
163,211,109294,1,0,0:0:0:0:
202,46,109497,1,0,0:0:0:0:
70,183,109699,1,0,0:0:0:0:
47,98,109902,1,0,0:0:0:0:
14,276,110105,1,0,0:0:0:0:
14,276,110206,1,0,0:0:0:0:
14,276,110330,6,0,B|121:256|84:324|199:309,1,190
261,250,110938,1,0,0:0:0:0:
281,337,111140,2,0,P|234:334|194:309,1,95
210,181,111546,1,0,0:0:0:0:
261,250,111748,1,0,0:0:0:0:
292,113,111951,6,0,P|243:150|114:136,1,190
56,74,112559,1,0,0:0:0:0:
120,140,112762,1,0,0:0:0:0:
111,162,112863,1,0,0:0:0:0:
105,185,112965,1,0,0:0:0:0:
102,208,113066,1,0,0:0:0:0:
103,236,113167,2,0,L|113:293,3,47.5
51,357,113573,6,0,P|119:357|176:375,1,95
250,384,113978,2,0,P|249:285|253:251,1,95
289,199,114384,1,0,0:0:0:0:
149,145,114586,1,0,0:0:0:0:
149,145,114688,1,0,0:0:0:0:
149,145,114789,1,0,0:0:0:0:
196,227,114992,1,0,0:0:0:0:
203,70,115194,6,0,P|138:44|90:50,1,95
40,109,115498,1,0,0:0:0:0:
40,109,115600,2,0,P|66:174|60:222,1,95
26,295,116005,2,0,P|83:285|133:283,1,95
140,293,116309,1,0,0:0:0:0:
155,308,116411,1,0,0:0:0:0:
323,278,116613,1,0,0:0:0:0:
231,178,116816,6,0,P|231:226|239:278,1,95
354,186,117221,2,0,P|360:138|360:91,1,95
259,31,117627,1,0,0:0:0:0:
448,33,117830,1,0,0:0:0:0:
448,33,117931,1,0,0:0:0:0:
448,33,118032,1,0,0:0:0:0:
448,180,118235,1,0,0:0:0:0:
448,180,118336,1,0,0:0:0:0:
448,180,118438,6,0,B|377:173|377:173|332:202|332:202|266:196,1,190
204,126,119046,1,0,0:0:0:0:
138,183,119248,2,0,P|80:179|32:154,1,95
31,31,119654,1,0,0:0:0:0:
0,101,119857,1,0,0:0:0:0:
138,183,120059,6,0,L|125:87,1,95
234,152,120465,2,0,L|221:246,2,95
202,65,121073,1,0,0:0:0:0:
338,159,121275,2,0,P|325:111|293:65,1,95
467,64,121681,5,0,0:0:0:0:
425,189,121884,1,0,0:0:0:0:
402,216,121985,1,0,0:0:0:0:
371,233,122086,1,0,0:0:0:0:
336,240,122188,1,0,0:0:0:0:
301,234,122289,1,0,0:0:0:0:
266,228,122390,1,0,0:0:0:0:
231,234,122492,1,0,0:0:0:0:
200,252,122593,1,0,0:0:0:0:
177,279,122694,1,0,0:0:0:0:
171,314,122796,1,0,0:0:0:0:
179,348,122897,2,0,P|214:364|242:368,1,47.5
351,321,123100,2,0,P|328:327|307:338,1,47.5
162,158,123302,6,0,L|179:351,1,190
90,307,123911,1,0,0:0:0:0:
247,191,124113,2,0,L|255:287,1,95
76,192,124519,1,0,0:0:0:0:
162,158,124721,1,0,0:0:0:0:
61,98,124924,6,0,L|78:206,1,95
176,64,125329,2,0,L|159:172,1,95
262,124,125735,2,0,P|316:112|344:76,1,95
474,199,126140,2,0,P|441:165|395:158,1,95
207,186,126546,6,0,L|409:155,1,190
453,88,127154,1,0,0:0:0:0:
394,157,127357,2,0,P|399:208|415:258,1,95
512,377,127762,2,0,P|465:355|414:344,1,95
318,367,128167,6,0,P|208:372|124:326,1,190
109,238,128775,1,0,0:0:0:0:
43,303,128978,1,0,0:0:0:0:
244,248,129181,1,0,0:0:0:0:
38,160,129384,1,0,0:0:0:0:
109,238,129586,1,0,0:0:0:0:
103,32,129789,5,0,0:0:0:0:
187,162,129992,2,0,P|119:127|99:101,1,95
276,26,130397,2,0,P|208:60|188:86,1,95
187,162,130802,1,0,0:0:0:0:
376,135,131005,1,0,0:0:0:0:
282,111,131208,1,0,0:0:0:0:
381,307,131411,5,0,0:0:0:0:
449,190,131613,2,0,P|412:218|352:221,1,95
296,340,132019,2,0,P|333:312|393:309,1,95
460,348,132424,1,0,0:0:0:0:
277,246,132627,1,0,0:0:0:0:
364,223,132829,1,0,0:0:0:0:
296,340,133032,5,0,0:0:0:0:
203,183,133235,2,0,L|321:150,1,95
116,287,133640,2,0,L|234:320,1,95
56,197,134046,2,0,P|19:239|5:285,1,95
108,112,134451,2,0,P|90:68|58:33,1,95
165,193,134857,6,0,L|277:178,1,95
375,105,135262,2,0,L|263:90,1,95
108,112,135667,1,0,0:0:0:0:
259,180,135870,1,0,0:0:0:0:
165,193,136073,1,0,0:0:0:0:
346,258,136275,6,0,L|367:146,1,95
183,283,136681,2,0,L|204:395,1,95
264,248,137086,1,0,0:0:0:0:
189,194,137289,1,0,0:0:0:0:
101,329,137492,2,0,P|155:307|196:264,1,95
234,112,137897,6,0,B|166:107|166:107|120:134|120:134|51:128,1,190
6,62,138505,1,0,0:0:0:0:
242,19,138708,2,0,P|246:71|220:134,1,95
148,260,139113,1,0,0:0:0:0:
134,162,139316,1,0,0:0:0:0:
316,226,139519,6,0,P|268:224|223:209,1,95
109,354,139924,2,0,P|154:339|201:337,1,95
384,311,140329,2,0,B|278:290|311:355|200:337,1,190
224,211,140938,1,0,0:0:0:0:
301,348,141140,5,0,0:0:0:0:
301,348,141343,1,0,0:0:0:0:
332,169,141546,1,0,0:0:0:0:
413,283,141748,5,0,0:0:0:0:
413,283,141951,1,0,0:0:0:0:
196,292,142154,1,0,0:0:0:0:
429,195,142357,1,0,0:0:0:0:
313,247,142559,1,0,0:0:0:0:
331,60,142762,6,0,P|346:113|344:173,1,95
278,345,143167,1,0,0:0:0:0:
221,224,143370,1,0,0:0:0:0:
404,271,143573,2,0,L|282:239,1,95
176,334,143978,1,0,0:0:0:0:
278,345,144181,1,0,0:0:0:0:
82,279,144384,6,0,P|80:368|89:393,1,95
221,224,144789,1,0,0:0:0:0:
45,156,144992,1,0,0:0:0:0:
233,101,145194,2,0,L|127:132,1,95
379,49,145600,2,0,L|273:18,1,95
69,65,146005,5,0,0:0:0:0:
69,65,146208,1,0,0:0:0:0:
235,186,146411,1,0,0:0:0:0:
166,1,146613,1,0,0:0:0:0:
161,89,146816,1,0,0:0:0:0:
238,46,147019,1,0,0:0:0:0:
143,187,147221,2,0,L|41:154,1,95
6,88,147627,5,0,0:0:0:0:
269,154,147829,1,0,0:0:0:0:
0,211,148032,1,0,0:0:0:0:
195,115,148235,1,0,0:0:0:0:
135,337,148438,1,0,0:0:0:0:
97,128,148640,1,0,0:0:0:0:
215,379,148843,1,0,0:0:0:0:
119,262,149046,1,0,0:0:0:0:
260,293,149258,6,0,P|368:290|464:263,1,209.000006378174
463,161,149866,1,0,0:0:0:0:
386,84,150068,2,0,P|367:112|363:196,1,104.500003189087
477,62,150474,1,0,0:0:0:0:
386,84,150676,1,0,0:0:0:0:
258,17,150879,6,0,P|310:17|362:1,1,104.500003189087
166,104,151285,2,0,P|218:104|270:120,1,104.500003189087
181,297,151690,2,0,L|209:175,1,104.500003189087
50,254,152095,2,0,L|73:355,1,104.500003189087
2,168,152501,6,0,B|122:142|96:221|219:191,1,209.000006378174
267,120,153109,1,0,0:0:0:0:
152,17,153312,2,0,P|174:71|163:123,1,104.500003189087
12,141,153717,2,0,P|41:98|89:78,1,104.500003189087
250,51,154122,6,0,L|134:11,1,104.500003189087
323,135,154528,2,0,L|225:170,1,104.500003189087
364,221,154933,2,0,L|462:256,1,104.500003189087
323,135,155339,1,0,0:0:0:0:
271,251,155541,1,0,0:0:0:0:
431,336,155744,6,0,B|355:329|355:329|308:359|308:359|231:351,1,209.000006378174
155,292,156352,1,0,0:0:0:0:
283,247,156555,2,0,P|233:225|187:172,1,104.500003189087
7,269,156960,2,0,P|44:232|92:212,1,104.500003189087
165,122,157366,6,0,L|24:87,1,104.500003189087
203,39,157771,2,0,L|304:13,1,104.500003189087
392,97,158176,2,0,P|416:50|404:-35,1,104.500003189087
315,161,158582,2,0,P|316:212|339:258,1,104.500003189087
180,314,158987,6,0,B|294:292|270:373|387:345,1,209.000006378174
474,262,159595,1,0,0:0:0:0:
389,169,159798,2,0,P|356:209|339:258,1,104.500003189087
512,159,160203,1,0,0:0:0:0:
448,68,160406,1,0,0:0:0:0:
292,139,160609,6,0,P|365:152|402:183,1,104.500003189087
290,34,161014,2,0,P|244:59|193:63,1,104.500003189087
88,145,161420,1,0,0:0:0:0:
182,177,161622,1,0,0:0:0:0:
81,50,161825,1,0,0:0:0:0:
0,210,162028,1,0,0:0:0:0:
147,374,162230,6,0,B|120:253|204:295|180:173,1,209.000006378174
119,65,162839,1,0,0:0:0:0:
181,176,163041,2,0,P|233:203|324:189,1,104.500003189087,0|0,3:0|3:0,3:0:0:0:
444,154,163447,1,0,0:0:0:0:
346,101,163649,1,0,0:0:0:0:
351,277,163852,6,0,P|399:258|451:258,1,104.500003189087
207,338,164258,2,0,P|255:357|307:357,1,104.500003189087
146,251,164663,2,0,P|82:253|33:278,1,104.500003189087
207,338,165068,1,0,0:0:0:0:
251,250,165271,1,0,0:0:0:0:
83,158,165474,6,0,B|162:151|162:151|207:175|207:175|310:164,1,209.000006378174
408,144,166082,1,0,0:0:0:0:
471,267,166285,2,0,L|366:257,1,104.500003189087
232,77,166690,2,0,L|339:67,1,104.500003189087
253,297,167095,6,0,P|276:234|272:170,1,104.500003189087
131,111,167501,2,0,P|153:157|160:209,1,104.500003189087
0,325,167906,1,4,0:3:0:0:
30,301,168007,1,4,0:3:0:0:
69,292,168109,1,4,0:3:0:0:
107,299,168210,1,4,0:3:0:0:
139,322,168312,1,0,1:0:0:0:
172,344,168413,1,0,1:0:0:0:
210,351,168514,1,0,1:0:0:0:
248,342,168616,1,0,1:0:0:0:
279,319,168717,5,0,1:0:0:0:
311,113,168920,1,0,0:0:0:0:
117,189,169122,1,0,0:0:0:0:
404,230,169325,5,0,1:0:0:0:
328,35,169528,1,0,0:0:0:0:
198,198,169730,1,0,0:0:0:0:
486,139,169933,5,0,1:0:0:0:
322,8,170136,1,0,0:0:0:0:
291,214,170339,1,0,0:0:0:0:
436,23,170541,5,0,1:0:0:0:
240,99,170744,1,0,0:0:0:0:
403,229,170947,1,0,0:0:0:0:
219,357,171149,5,0,0:0:0:0:
157,111,171352,1,0,0:0:0:0:
86,372,171555,1,0,0:0:0:0:
204,255,171757,1,0,0:0:0:0:
19,227,171960,6,0,P|80:226|129:195,1,104.500003189087
303,149,172366,2,0,P|256:126|204:128,1,104.500003189087
55,148,172771,1,0,0:0:0:0:
233,260,172974,1,0,0:0:0:0:
223,25,173176,2,0,L|201:144,1,104.500003189087
328,296,173582,6,0,P|334:239|309:193,1,104.500003189087
137,193,173987,1,0,0:0:0:0:
233,260,174190,1,0,0:0:0:0:
229,139,174393,1,0,0:0:0:0:
150,342,174595,1,0,0:0:0:0:
78,111,174798,1,0,0:0:0:0:
55,265,175001,1,0,0:0:0:0:
137,193,175203,5,0,0:0:0:0:
159,115,181701,6,0,L|151:169,3,38
75,194,182106,2,0,L|83:248,3,38
28,92,182511,2,0,L|33:54,3,38
112,37,182917,2,0,L|107:0,3,38
204,67,183322,5,0,0:0:0:0:
230,62,183423,1,0,0:0:0:0:
257,62,183525,1,0,0:0:0:0:
284,68,183626,1,0,0:0:0:0:
308,79,183728,1,0,0:0:0:0:
332,89,183829,1,0,0:0:0:0:
358,96,183930,1,0,0:0:0:0:
385,97,184032,1,0,0:0:0:0:
412,92,184133,2,0,P|443:81|481:62,3,42.7499986953736
461,165,184538,2,0,P|486:173|516:188,3,42.7499986953736
388,251,184944,5,0,0:0:0:0:
354,240,185045,1,0,0:0:0:0:
318,240,185146,1,0,0:0:0:0:
284,251,185248,1,0,0:0:0:0:
256,272,185349,1,0,0:0:0:0:
228,293,185451,1,0,0:0:0:0:
194,304,185552,1,0,0:0:0:0:
158,304,185653,1,0,0:0:0:0:
126,293,185755,1,0,0:0:0:0:
97,271,185856,1,0,0:0:0:0:
81,240,185957,1,0,0:0:0:0:
80,205,186059,1,0,0:0:0:0:
94,172,186160,1,0,0:0:0:0:
108,139,186261,1,0,0:0:0:0:
107,104,186363,1,0,0:0:0:0:
91,73,186464,1,0,0:0:0:0:
63,52,186565,5,0,0:0:0:0:
56,109,186667,1,0,0:0:0:0:
87,159,186768,1,0,0:0:0:0:
142,178,186869,1,0,0:0:0:0:
197,159,186971,2,0,P|222:145|245:121,1,47.5
158,9,187173,2,0,P|157:37|166:69,1,47.5
307,50,187376,2,0,P|282:35|250:27,1,47.5
349,158,187579,2,0,P|371:150|391:137,1,47.5
472,40,187782,2,0,P|447:25|415:17,1,47.5
489,187,187984,2,0,P|499:166|502:125,1,47.5
393,254,188187,6,0,L|414:363,1,95
277,212,188592,2,0,P|325:192|352:140,1,95
318,23,188998,1,0,0:0:0:0:
253,115,189201,1,0,0:0:0:0:
420,31,189403,1,0,0:0:0:0:
451,130,189606,1,0,0:0:0:0:
253,115,189809,6,0,B|144:95|174:171|49:147,1,190
9,62,190417,1,0,0:0:0:0:
171,12,190619,2,0,P|173:65|146:132,1,95
73,258,191025,2,0,P|60:212|63:165,1,95
191,199,191430,6,0,P|244:205|297:226,1,95
444,129,191836,2,0,P|399:144|351:148,1,95
213,56,192241,1,0,0:0:0:0:
334,6,192444,1,0,0:0:0:0:
283,218,192646,1,0,0:0:0:0:
275,114,192849,1,0,0:0:0:0:
389,213,193052,6,0,L|364:320,1,95
466,128,193457,2,0,L|491:235,1,95
368,105,193863,1,0,0:0:0:0:
434,35,194065,1,0,0:0:0:0:
271,71,194268,2,0,P|268:115|309:185,1,95
446,237,194673,6,0,B|339:225|367:299|246:266,1,190
78,181,195282,1,0,0:0:0:0:
108,286,195484,2,0,P|153:262|180:211,1,95
142,38,195890,2,0,P|139:89|170:138,1,95
335,84,196295,6,0,L|228:65,1,95
398,170,196701,2,0,L|491:153,1,95
335,84,197106,1,0,0:0:0:0:
293,178,197309,1,0,0:0:0:0:
434,76,197511,1,0,0:0:0:0:
376,0,197714,1,0,0:0:0:0:
398,170,197917,6,0,P|418:254|409:295,1,95
265,368,198322,2,0,P|267:320|284:276,1,95
453,356,198728,2,0,L|340:333,1,95
185,212,199133,2,0,L|278:193,1,95
461,159,199538,6,0,P|413:154|369:138,1,95
222,25,199944,1,0,0:0:0:0:
331,39,200146,1,0,0:0:0:0:
264,124,200349,1,0,0:0:0:0:
504,71,200552,1,0,0:0:0:0:
222,25,200755,1,0,0:0:0:0:
369,138,200957,1,0,0:0:0:0:
195,194,201160,6,0,P|171:148|173:92,1,95
270,283,201565,2,0,P|267:330|244:371,1,95
95,347,201971,1,0,0:0:0:0:
172,312,202173,1,0,0:0:0:0:
50,163,202376,1,0,0:0:0:0:
22,267,202579,1,0,0:0:0:0:
139,105,202782,6,0,P|78:63|28:60,1,95
251,74,203187,2,0,P|295:59|331:28,1,95
369,197,203592,1,0,0:0:0:0:
300,153,203795,1,0,0:0:0:0:
466,116,203998,2,0,P|492:156|497:230,1,95
302,273,204403,6,0,P|352:275|411:295,1,95
151,211,204809,2,0,P|201:209|260:189,1,95
336,123,205214,1,0,0:0:0:0:
237,88,205417,1,0,0:0:0:0:
413,194,205619,2,0,P|434:151|436:104,1,95
243,196,206025,6,0,B|172:189|172:189|130:212|130:212|59:205,1,190
1,137,206633,1,0,0:0:0:0:
146,36,206836,1,0,0:0:0:0:
101,120,207038,1,0,0:0:0:0:
327,55,207241,2,0,L|223:25,1,95
252,235,207646,5,0,0:0:0:0:
327,55,207849,1,0,0:0:0:0:
134,78,208052,1,0,0:0:0:0:
397,194,208255,5,0,0:0:0:0:
371,0,208457,1,0,0:0:0:0:
216,117,208660,1,0,0:0:0:0:
461,105,208863,5,0,0:0:0:0:
279,177,209065,1,0,0:0:0:0:
424,314,209268,5,0,0:0:0:0:
235,265,209471,1,0,0:0:0:0:
369,125,209673,1,0,0:0:0:0:
298,384,209876,5,0,0:0:0:0:
158,247,210079,1,0,0:0:0:0:
344,192,210282,1,0,0:0:0:0:
161,368,210484,5,0,0:0:0:0:
175,139,210687,1,0,0:0:0:0:
49,306,210890,5,0,0:0:0:0:
243,227,211092,1,0,0:0:0:0:
78,99,211295,1,0,0:0:0:0:
177,318,211498,5,0,0:0:0:0:
232,95,211700,1,0,0:0:0:0:
264,357,211903,5,0,0:0:0:0:
158,140,212106,1,0,0:0:0:0:
100,275,212309,1,0,0:0:0:0:
269,212,212501,2,0,L|291:97,1,95
341,274,212962,2,0,L|363:159,1,95
255,306,213390,1,0,0:0:0:0:
256,192,213497,12,0,222390,0:0:0:0:
