osu file format v14

[General]
AudioFilename: audio.mp3
AudioLeadIn: 0
PreviewTime: 44822
Countdown: 0
SampleSet: Soft
StackLeniency: 0.4
Mode: 0
LetterboxInBreaks: 0
WidescreenStoryboard: 1

[Editor]
Bookmarks: 48793,68028,90616,101911,112499,113205,124499,135793
DistanceSpacing: 1
BeatDivisor: 4
GridSize: 16
TimelineZoom: 1.3

[Metadata]
Title:Stay
TitleUnicode:Stay
Artist:The Kid LAROI, Justin Bieber
ArtistUnicode:The Kid LAROI, Justin Bieber
Creator:Log Off Now
Version:Insane
Source:
Tags:english pop synth synth-pop hip hop hip-hop rock tiktok fuck f*ck love 3 over you
BeatmapID:3221890
BeatmapSetID:1575739

[Difficulty]
HPDrainRate:4.5
CircleSize:3.8
OverallDifficulty:8
ApproachRate:8.5
SliderMultiplier:1.3
SliderTickRate:1

[Events]
//Background and Video events
0,0,"stay.jpg",0,0
//Break Periods
2,39793,44236
2,96110,98412
//Storyboard Layer 0 (Background)
//Storyboard Layer 1 (Fail)
//Storyboard Layer 2 (Pass)
//Storyboard Layer 3 (Foreground)
//Storyboard Layer 4 (Overlay)
//Storyboard Sound Samples

[TimingPoints]
264,352.941176470588,4,2,1,50,1,0
11381,-100,4,2,1,5,0,0
11558,-100,4,2,1,50,0,0
21616,-100,4,2,1,50,0,0
22146,-125,4,2,1,50,0,0
22852,-90.9090909090909,4,2,1,62,0,0
31322,-90.9090909090909,4,2,1,62,0,0
34146,-100,4,2,1,69,0,0
45440,-83.3333333333333,4,2,1,75,0,1
68028,-100,4,2,1,75,0,0
70852,-90.9090909090909,4,2,1,62,0,0
90616,-100,4,2,1,68,0,0
101911,-100,4,2,1,73,0,0
103322,-100,4,2,1,73,0,0
106852,-100,4,2,1,73,0,0
107558,-90.9090909090909,4,2,1,73,0,0
108087,-100,4,2,1,55,0,0
108616,-100,4,2,1,60,0,0
108969,-100,4,2,1,63,0,0
109675,-100,4,2,1,66,0,0
110381,-100,4,2,1,69,0,0
111969,-100,4,2,1,73,0,0
113205,-83.3333333333333,4,2,1,75,0,1
124499,-100,4,2,1,75,0,0

[Colours]
Combo1 : 199,192,150
Combo2 : 187,187,187
Combo3 : 39,48,120
Combo4 : 162,221,221

[HitObjects]
256,192,10146,12,0,11381,0:0:0:0:
192,141,11558,6,0,P|148:152|124:159,2,65,2|0|2,0:0|0:0|0:0,0:0:0:0:
281,66,12087,2,0,P|366:87|413:101,1,130,2|0,0:0|0:0,0:0:0:0:
470,164,12616,2,0,P|494:123|495:93,1,65,2|0,0:0|0:0,0:0:0:0:
459,22,12969,5,2,0:0:0:0:
459,22,13146,1,2,0:0:0:0:
386,77,13322,2,0,P|354:68|323:60,1,65,2|0,0:0|0:0,0:0:0:0:
253,118,13675,1,2,0:0:0:0:
253,118,13852,1,2,0:0:0:0:
196,22,14028,1,2,0:0:0:0:
55,147,14381,6,0,P|31:106|29:83,2,65,2|2|2,0:0|0:0|0:0,0:0:0:0:
144,226,14911,2,0,P|171:270|151:357,1,130,2|0,0:0|0:0,0:0:0:0:
25,286,15440,2,0,P|57:290|89:296,1,65,2|0,0:0|0:0,0:0:0:0:
147,373,15793,5,2,0:0:0:0:
147,373,15969,1,2,0:0:0:0:
218,316,16146,2,0,P|249:309|282:305,1,65,2|0,0:0|0:0,0:0:0:0:
359,363,16499,1,2,0:0:0:0:
359,363,16675,1,2,0:0:0:0:
420,260,16852,1,2,0:0:0:0:
333,93,17205,6,0,P|341:124|348:155,2,65,2|2|2,0:0|0:0|0:0,0:0:0:0:
378,0,17734,2,0,P|346:34|262:30,1,130,2|0,0:0|0:0,0:0:0:0:
162,65,18263,2,0,P|170:31|178:2,1,65,2|0,0:0|0:0,0:0:0:0:
242,126,18616,5,2,0:0:0:0:
242,126,18793,1,2,0:0:0:0:
158,176,18969,2,0,P|124:168|95:160,1,65,2|0,0:0|0:0,0:0:0:0:
21,243,19322,1,2,0:0:0:0:
21,243,19499,1,2,0:0:0:0:
105,293,19675,2,0,P|139:285|168:277,1,65,2|0,0:0|0:0,0:0:0:0:
275,212,20028,5,2,0:0:0:0:
248,332,20205,1,2,0:0:0:0:
280,183,20381,1,2,0:0:0:0:
367,302,20558,2,0,P|438:321|510:338,1,130,2|0,0:0|0:0,0:0:0:0:
364,204,21087,2,0,P|332:212|301:219,2,65,2|2|2,0:0|0:0|0:0,0:0:0:0:
489,103,21616,2,0,P|470:174|453:246,1,130,2|0,0:0|0:0,0:0:0:0:
389,293,22146,6,0,B|348:303|348:303|323:329|323:329|230:348,1,156,2|2,0:0|0:0,0:0:0:0:
167,223,22852,6,0,P|183:276|167:314,1,71.5000021820069,0|2,1:0|0:0,0:0:0:0:
29,260,23205,2,0,P|66:266|110:275,1,71.5000021820069,10|0,0:0|0:0,0:0:0:0:
178,375,23558,2,0,P|253:358|339:343,1,143.000004364014,2|8,1:2|0:0,0:0:0:0:
365,278,24087,6,0,P|349:225|365:187,1,71.5000021820069,2|0,0:0|1:0,0:0:0:0:
501,242,24440,2,0,P|465:235|430:229,1,71.5000021820069,2|8,0:0|0:0,0:0:0:0:
389,130,24793,1,2,0:0:0:0:
326,193,24969,2,0,P|290:198|255:205,1,71.5000021820069,2|0,1:2|0:0,0:0:0:0:
197,271,25322,2,0,P|161:264|126:258,1,71.5000021820069,10|0,0:2|0:0,0:0:0:0:
84,177,25675,6,0,P|48:183|13:189,2,71.5000021820069,2|2|10,1:2|0:0|0:2,0:0:0:0:
148,77,26205,1,0,0:0:0:0:
204,141,26381,2,0,P|274:153|344:169,1,143.000004364014,2|8,1:2|0:0,0:0:0:0:
402,49,26911,6,0,P|422:86|420:119,1,71.5000021820069,2|0,0:2|1:0,0:0:0:0:
330,186,27263,2,0,P|310:223|312:256,1,71.5000021820069,2|8,0:2|0:0,0:0:0:0:
370,347,27616,1,2,0:0:0:0:
398,243,27793,1,2,1:2:0:0:
276,331,27969,1,0,1:2:0:0:
388,376,28146,2,0,P|422:368|464:359,1,71.5000021820069,10|0,0:2|0:0,0:0:0:0:
310,251,28499,6,0,P|276:243|234:234,1,71.5000021820069,2|2,1:2|0:0,0:0:0:0:
177,302,28852,1,10,0:2:0:0:
177,302,29028,1,0,0:0:0:0:
85,209,29205,2,0,P|73:161|47:60,1,143.000004364014,2|8,1:2|0:0,0:0:0:0:
128,22,29734,6,0,P|177:42|207:45,1,71.5000021820069,2|0,0:2|1:0,0:0:0:0:
260,115,30087,2,0,P|309:95|339:92,1,71.5000021820069,2|8,0:2|0:0,0:0:0:0:
394,28,30440,1,2,0:0:0:0:
465,98,30616,2,0,P|456:136|446:185,1,71.5000021820069,2|0,1:2|0:0,0:0:0:0:
362,233,30969,2,0,P|373:281|386:345,1,107.25000327301,10|0,1:2|0:0,0:0:0:0:
417,356,31322,6,0,P|455:347|504:337,1,71.5000021820069,2|0,1:2|0:0,0:0:0:0:
346,209,31675,2,0,P|311:201|276:193,1,71.5000021820069,10|0,1:2|0:0,0:0:0:0:
207,349,32028,2,0,P|245:340|294:330,1,71.5000021820069,2|0,1:2|0:0,0:0:0:0:
136,202,32381,2,0,P|101:194|66:186,1,71.5000021820069,10|0,0:2|0:0,0:0:0:0:
141,290,32734,5,2,1:2:0:0:
208,135,32911,1,2,0:0:0:0:
285,302,33087,2,0,P|319:294|354:286,1,71.5000021820069,10|2,0:0|0:0,0:0:0:0:
424,152,33440,1,2,1:2:0:0:
463,310,33616,1,0,1:0:0:0:
320,184,33793,1,10,0:0:0:0:
511,220,33969,1,0,1:0:0:0:
352,310,34146,6,0,P|280:327|212:342,2,130,2|8|0,1:2|0:0|1:0,0:0:0:0:
395,231,35028,1,2,0:0:0:0:
336,162,35205,2,0,P|317:129|315:82,1,65,10|0,0:0|0:0,0:0:0:0:
346,14,35558,6,0,P|281:59|215:39,1,130,0|8,1:2|0:0,0:0:0:0:
151,88,36087,2,0,P|164:146|178:236,1,130,2|0,0:0|0:0,0:0:0:0:
113,281,36616,1,8,0:0:0:0:
113,281,36793,1,2,0:0:0:0:
186,331,36969,6,0,P|257:348|326:363,2,130,2|8|0,1:2|0:0|1:0,0:0:0:0:
103,372,37852,1,2,0:0:0:0:
42,301,38028,2,0,P|33:256|26:224,1,65,10|0,0:0|0:0,0:0:0:0:
84,150,38381,6,0,P|149:195|215:175,1,130,0|8,1:0|0:0,0:0:0:0:
268,247,38911,2,0,P|317:260|345:268,1,65,2|0,0:0|1:0,0:0:0:0:
409,211,39263,1,0,1:2:0:0:
368,86,39440,1,10,0:0:0:0:
95,157,44911,5,8,0:0:0:0:
107,182,45087,1,8,0:0:0:0:
98,213,45263,1,8,0:0:0:0:
144,286,45440,6,0,P|188:278|233:268,1,77.999997619629,2|2,1:2|0:0,0:0:0:0:
261,193,45793,1,10,0:0:0:0:
331,333,45969,2,0,P|410:347|488:362,1,155.999995239258,2|0,0:0|0:0,0:0:0:0:
410,257,46499,2,0,P|398:222|413:167,1,77.999997619629,10|0,0:0|0:0,0:0:0:0:
466,80,46852,5,2,1:2:0:0:
322,151,47028,1,2,0:0:0:0:
482,210,47205,1,10,0:0:0:0:
366,61,47381,1,2,0:0:0:0:
253,222,47558,2,0,P|209:232|165:241,1,77.999997619629,2|2,1:2|0:0,0:0:0:0:
94,98,47911,2,0,P|125:156|115:194,1,77.999997619629,8|0,0:0|0:0,0:0:0:0:
114,320,48263,5,2,1:2:0:0:
40,164,48440,1,2,0:0:0:0:
22,345,48616,1,10,0:0:0:0:
176,238,48793,2,0,P|206:217|313:262,1,155.999995239258,2|0,0:0|0:0,0:0:0:0:
346,331,49322,2,0,P|372:353|432:348,1,77.999997619629,10|0,0:0|0:0,0:0:0:0:
492,212,49675,5,2,1:2:0:0:
412,270,49852,1,2,0:0:0:0:
506,370,50028,2,0,P|499:332|490:280,1,77.999997619629,8|2,0:0|0:0,0:0:0:0:
338,208,50381,1,0,1:0:0:0:
338,208,50558,1,2,1:2:0:0:
435,85,50734,2,0,P|426:125|416:175,1,77.999997619629,8|0,0:0|0:0,0:0:0:0:
283,282,51087,5,2,1:2:0:0:
226,130,51263,1,2,0:0:0:0:
330,186,51440,1,10,0:0:0:0:
193,284,51616,2,0,P|130:273|33:260,1,155.999995239258,2|0,0:0|0:0,0:0:0:0:
6,177,52146,2,0,P|27:141|28:99,1,77.999997619629,10|0,0:0|0:0,0:0:0:0:
179,29,52499,5,2,1:2:0:0:
112,173,52675,1,2,0:0:0:0:
87,12,52852,1,10,0:0:0:0:
199,133,53028,1,2,0:0:0:0:
266,13,53205,2,0,P|297:20|347:33,1,77.999997619629,2|2,1:2|0:0,0:0:0:0:
458,107,53558,2,0,P|426:114|379:127,1,77.999997619629,8|0,0:0|0:0,0:0:0:0:
327,231,53911,5,2,1:2:0:0:
273,130,54087,1,2,0:0:0:0:
416,205,54263,1,10,0:0:0:0:
286,316,54440,2,0,P|239:327|132:359,1,155.999995239258,2|0,0:0|0:0,0:0:0:0:
100,221,54969,5,10,0:2:0:0:
51,376,55146,1,2,0:0:0:0:
175,256,55322,1,2,1:2:0:0:
0,143,55499,2,0,P|16:210|34:298,1,155.999995239258,2|0,0:0|0:0,0:0:0:0:
149,368,56028,5,0,1:2:0:0:
208,310,56205,1,0,1:2:0:0:
159,192,56381,1,8,0:0:0:0:
124,276,56558,1,0,1:0:0:0:
311,203,56734,6,0,P|362:217|398:227,1,77.999997619629,2|2,1:2|0:0,0:0:0:0:
446,298,57087,1,10,0:0:0:0:
506,162,57263,2,0,P|490:90|477:2,1,155.999995239258,2|0,0:0|0:0,0:0:0:0:
402,85,57793,2,0,P|360:73|318:62,1,77.999997619629,10|0,0:0|0:0,0:0:0:0:
258,122,58146,5,2,1:2:0:0:
223,5,58322,1,2,0:0:0:0:
189,190,58499,1,10,0:0:0:0:
346,102,58675,1,2,0:0:0:0:
171,76,58852,2,0,P|133:86|95:96,1,77.999997619629,2|2,1:2|0:0,0:0:0:0:
0,200,59205,2,0,P|37:210|75:220,1,77.999997619629,10|0,0:0|0:0,0:0:0:0:
197,339,59558,5,2,1:2:0:0:
152,261,59734,1,2,0:0:0:0:
113,379,59911,1,10,0:0:0:0:
267,284,60087,2,0,P|326:259|431:292,1,155.999995239258,2|0,0:0|0:0,0:0:0:0:
474,344,60616,2,0,P|497:310|501:271,1,77.999997619629,10|0,0:0|0:0,0:0:0:0:
406,100,60969,5,2,1:2:0:0:
437,195,61146,1,2,0:0:0:0:
512,29,61322,2,0,P|474:22|422:13,1,77.999997619629,10|2,0:0|0:0,0:0:0:0:
325,160,61675,1,2,1:2:0:0:
325,160,61852,1,2,1:2:0:0:
248,67,62028,2,0,P|210:74|158:83,1,77.999997619629,10|0,0:0|0:0,0:0:0:0:
101,210,62381,5,2,1:2:0:0:
77,94,62558,1,2,0:0:0:0:
194,167,62734,1,10,0:0:0:0:
36,304,62911,2,0,P|24:238|6:144,1,155.999995239258,2|0,0:0|0:0,0:0:0:0:
111,32,63440,2,0,P|104:69|93:123,1,77.999997619629,10|0,0:0|0:0,0:0:0:0:
233,243,63793,5,2,1:2:0:0:
179,131,63969,1,2,0:0:0:0:
149,287,64146,1,10,0:0:0:0:
281,160,64322,1,2,0:0:0:0:
318,292,64499,2,0,P|287:285|237:272,1,77.999997619629,2|2,1:2|0:0,0:0:0:0:
380,156,64852,2,0,P|417:145|455:137,1,77.999997619629,10|0,0:0|0:0,0:0:0:0:
346,293,65205,5,2,1:2:0:0:
265,126,65381,1,2,0:0:0:0:
374,188,65557,1,10,0:0:0:0:
223,308,65734,2,0,P|148:284|72:266,1,155.999995239258,2|0,0:0|0:0,0:0:0:0:
6,97,66263,5,10,0:2:0:0:
60,225,66440,1,2,0:0:0:0:
111,43,66616,1,2,1:2:0:0:
180,241,66793,2,0,P|247:225|335:207,1,155.999995239258,2|0,0:0|0:0,0:0:0:0:
418,71,67322,5,2,1:2:0:0:
359,129,67499,1,0,1:2:0:0:
474,248,67675,1,8,0:0:0:0:
443,154,67852,1,2,1:2:0:0:
482,247,70146,5,8,0:0:0:0:
458,272,70499,1,8,0:0:0:0:
378,236,70852,6,0,P|339:244|237:266,1,143.000004364014,0|10,1:0|0:0,0:0:0:0:
170,383,71381,1,2,0:0:0:0:
100,327,71558,2,0,P|57:316|11:308,1,71.5000021820069,2|0,1:2|0:0,0:0:0:0:
122,203,71911,2,0,P|165:192|211:184,1,71.5000021820069,10|0,0:0|0:0,0:0:0:0:
18,169,72263,5,2,1:2:0:0:
44,295,72440,1,2,0:0:0:0:
14,138,72616,2,0,P|25:83|38:-6,1,143.000004364014,10|0,0:0|1:0,0:0:0:0:
167,127,73146,1,2,1:2:0:0:
119,57,73322,1,10,0:0:0:0:
197,4,73499,1,2,0:0:0:0:
197,4,73675,6,0,P|253:16|342:36,1,143.000004364014,0|10,1:0|0:0,0:0:0:0:
415,178,74205,1,2,0:0:0:0:
280,132,74381,2,0,P|314:122|349:115,1,71.5000021820069,2|0,1:2|0:0,0:0:0:0:
487,71,74734,2,0,P|452:61|417:54,1,71.5000021820069,10|0,0:2|0:0,0:0:0:0:
335,213,75087,5,2,1:2:0:0:
267,95,75264,1,2,0:0:0:0:
143,262,75440,2,0,P|214:272|284:285,2,143.000004364014,10|0|10,0:0|1:0|0:0,0:0:0:0:
74,317,76323,1,2,0:0:0:0:
18,247,76499,2,0,P|11:211|3:176,1,71.5000021820069,2|0,1:2|0:0,0:0:0:0:
142,76,76852,5,10,0:0:0:0:
102,155,77028,1,2,0:0:0:0:
175,259,77205,2,0,P|210:252|245:245,1,71.5000021820069,2|0,1:2|0:0,0:0:0:0:
311,112,77558,2,0,P|346:119|381:126,1,71.5000021820069,10|0,0:2|0:0,0:0:0:0:
443,249,77911,5,0,1:2:0:0:
508,111,78087,1,2,0:0:0:0:
430,270,78263,2,0,P|356:284|290:296,1,143.000004364014,10|0,0:0|1:0,0:0:0:0:
162,233,78793,1,2,1:2:0:0:
230,367,78969,1,8,0:0:0:0:
318,207,79146,2,0,P|284:213|235:224,1,71.5000021820069,2|0,1:2|1:2,0:0:0:0:
126,341,79499,5,2,0:0:0:0:
78,166,79675,1,10,0:0:0:0:
244,305,79852,2,0,P|314:318|384:331,1,143.000004364014,2|2,0:2|0:0,0:0:0:0:
456,266,80381,1,10,0:0:0:0:
456,266,80558,1,2,0:0:0:0:
352,166,80734,6,0,P|363:202|373:252,1,71.5000021820069,2|0,1:2|0:0,0:0:0:0:
481,129,81087,2,0,P|488:94|499:59,1,71.5000021820069,10|0,0:2|0:0,0:0:0:0:
328,58,81440,2,0,P|374:47|410:38,1,71.5000021820069,2|0,1:2|0:0,0:0:0:0:
317,166,81793,2,0,P|237:146|174:131,1,143.000004364014,10|0,0:2|1:2,0:0:0:0:
71,69,82322,5,2,0:0:0:0:
10,140,82499,2,0,P|18:177|25:216,1,71.5000021820069,10|2,0:0|0:0,0:0:0:0:
93,333,82852,2,0,P|99:297|107:262,1,71.5000021820069,2|0,1:2|0:0,0:0:0:0:
227,113,83205,1,10,0:0:0:0:
157,173,83381,1,2,0:0:0:0:
212,252,83558,6,0,P|258:241|294:232,1,71.5000021820069,2|0,1:2|0:0,0:0:0:0:
341,155,83911,2,0,P|387:166|423:175,1,71.5000021820069,10|0,0:2|0:0,0:0:0:0:
470,253,84263,1,2,1:2:0:0:
470,253,84440,1,0,1:2:0:0:
420,334,84616,2,0,P|372:326|274:313,1,143.000004364014,10|0,0:2|1:2,0:0:0:0:
210,241,85146,5,2,0:0:0:0:
142,346,85322,1,10,0:0:0:0:
49,297,85499,2,0,P|39:226|28:155,1,143.000004364014,2|2,0:2|0:2,0:0:0:0:
95,94,86028,5,10,0:0:0:0:
46,3,86205,2,0,P|73:33|177:20,1,143.000004364014,2|2,0:2|0:2,0:0:0:0:
228,105,86734,5,10,0:0:0:0:
323,41,86911,2,0,P|385:30|481:15,1,143.000004364014,2|2,0:2|0:0,0:0:0:0:
510,99,87440,5,10,0:0:0:0:
434,186,87616,2,0,P|410:225|457:313,1,143.000004364014,2|0,0:0|0:0,0:0:0:0:
365,370,88146,2,0,P|303:359|207:344,1,143.000004364014,10|0,0:0|1:0,0:0:0:0:
176,265,88675,1,2,0:0:0:0:
117,374,88852,1,10,0:0:0:0:
49,173,90087,5,8,0:0:0:0:
92,272,90263,1,8,0:0:0:0:
273,140,90616,6,0,P|201:123|133:108,2,130,2|8|0,1:2|0:0|1:0,0:0:0:0:
333,212,91498,1,2,0:0:0:0:
407,157,91675,2,0,P|426:124|428:77,1,65,10|0,0:0|0:0,0:0:0:0:
375,17,92028,6,0,P|298:32|244:42,1,130,0|8,1:2|0:0,0:0:0:0:
190,114,92558,2,0,P|225:161|198:240,1,130,2|0,0:0|0:0,0:0:0:0:
139,289,93086,1,8,0:0:0:0:
139,289,93263,1,2,0:0:0:0:
192,363,93440,6,0,P|263:346|332:331,2,130,2|8|0,1:2|0:0|1:0,0:0:0:0:
104,383,94322,1,2,0:0:0:0:
33,335,94498,2,0,P|14:298|17:258,1,65,10|0,0:0|0:0,0:0:0:0:
124,148,94852,6,0,P|111:212|97:277,1,130,0|8,1:0|0:0,0:0:0:0:
192,363,95381,2,0,P|241:353|269:347,1,65,2|0,0:0|1:0,0:0:0:0:
328,289,95733,1,0,1:2:0:0:
126,254,95910,1,10,0:0:0:0:
256,192,99087,12,0,100499,0:0:0:0:
126,334,101911,6,0,B|170:287|170:287|146:157|146:157|136:92,1,260,4|0,1:3|0:0,0:0:0:0:
136,94,103322,6,0,P|153:135|299:130,1,195,4|0,1:3|0:0,0:0:0:0:
349,74,104028,6,0,P|334:149|310:274,1,195,4|0,1:3|0:0,0:0:0:0:
257,339,104734,6,0,P|229:379|243:298,1,260,4|0,1:3|0:0,0:0:0:0:
257,339,106852,6,0,P|308:326|450:299,1,195,4|0,1:3|0:0,0:0:0:0:
503,228,107558,6,0,P|461:193|469:80,1,143.000004364014,4|2,1:3|0:0,0:0:0:0:
507,42,108087,1,2,0:0:0:0:
490,11,108616,2,0,P|443:20|412:30,1,65,2|0,0:0|0:0,0:0:0:0:
367,94,108969,6,0,P|300:79|214:64,1,130,4|2,1:3|0:0,0:0:0:0:
183,9,109499,1,2,0:0:0:0:
111,65,109675,2,0,P|84:98|111:184,1,130,4|2,1:3|0:0,0:0:0:0:
163,239,110205,1,2,0:0:0:0:
108,310,110381,6,0,P|120:352|128:378,2,65,4|0|2,1:3|0:0|0:0,0:0:0:0:
235,193,110911,2,0,P|289:202|373:220,1,130,2|0,0:2|0:0,0:0:0:0:
426,280,111440,6,0,P|414:322|406:348,2,65,2|0|2,0:0|0:0|0:0,0:0:0:0:
504,94,111969,2,0,P|440:107|376:118,1,130,2|0,0:2|0:0,0:0:0:0:
303,55,112499,5,4,0:3:0:0:
237,111,112675,1,4,0:3:0:0:
297,179,112852,1,4,0:3:0:0:
270,260,113028,1,4,0:3:0:0:
330,335,113205,6,0,P|371:326|408:319,2,77.999997619629,2|2|10,1:2|0:0|0:0,0:0:0:0:
204,384,113734,2,0,P|127:369|50:355,1,155.999995239258,2|0,0:0|0:0,0:0:0:0:
2,261,114263,2,0,P|15:220|22:174,1,77.999997619629,10|0,0:0|0:0,0:0:0:0:
178,69,114617,5,2,1:2:0:0:
106,190,114793,1,2,0:0:0:0:
93,37,114970,1,10,0:0:0:0:
205,161,115146,1,2,0:0:0:0:
262,33,115323,2,0,P|306:43|350:52,1,77.999997619629,2|2,1:2|0:0,0:0:0:0:
451,134,115675,2,0,P|412:142|374:150,1,77.999997619629,8|0,0:0|0:0,0:0:0:0:
255,273,116028,5,2,1:2:0:0:
299,190,116205,1,2,0:0:0:0:
337,333,116381,1,10,0:0:0:0:
191,211,116558,2,0,P|139:223|34:249,1,155.999995239258,2|0,0:0|0:0,0:0:0:0:
136,378,117087,2,0,P|152:350|147:290,1,77.999997619629,10|2,0:0|0:0,0:0:0:0:
114,148,117440,5,2,1:2:0:0:
74,323,117617,1,2,0:0:0:0:
202,173,117793,1,10,0:0:0:0:
28,248,117969,1,2,0:0:0:0:
242,348,118146,1,2,1:2:0:0:
161,254,118323,1,2,1:2:0:0:
299,129,118499,2,0,P|290:169|280:219,1,77.999997619629,8|0,0:0|0:0,0:0:0:0:
417,327,118852,5,2,1:2:0:0:
370,214,119028,1,0,0:0:0:0:
335,366,119205,1,10,0:0:0:0:
467,240,119381,2,0,P|456:177|443:80,1,155.999995239258,2|0,0:0|0:0,0:0:0:0:
378,17,119911,2,0,P|346:44|305:53,1,77.999997619629,10|0,0:0|0:0,0:0:0:0:
240,163,120264,5,2,1:2:0:0:
161,28,120440,1,2,0:0:0:0:
137,181,120617,1,10,0:0:0:0:
232,77,120793,1,2,0:0:0:0:
70,27,120970,2,0,P|77:59|90:108,1,77.999997619629,2|2,1:2|0:0,0:0:0:0:
226,179,121322,2,0,P|215:216|207:254,1,77.999997619629,10|0,0:0|0:0,0:0:0:0:
164,360,121676,5,2,1:2:0:0:
125,225,121852,1,2,0:0:0:0:
263,318,122028,1,10,0:0:0:0:
67,380,122205,2,0,P|57:326|36:224,1,155.999995239258,2|0,0:0|0:0,0:0:0:0:
180,104,122734,5,10,0:2:0:0:
125,225,122911,1,2,0:0:0:0:
79,86,123087,1,2,1:2:0:0:
232,204,123264,2,0,P|299:218|387:238,1,155.999995239258,2|0,0:0|0:0,0:0:0:0:
504,106,123793,5,2,1:2:0:0:
450,182,123970,1,0,1:0:0:0:
318,42,124146,1,8,0:0:0:0:
343,139,124323,1,2,1:2:0:0:
